osu file format v14

[General]
AudioFilename: audio.mp3
AudioLeadIn: 0
PreviewTime: 50371
Countdown: 0
SampleSet: Normal
StackLeniency: 0.7
Mode: 1
LetterboxInBreaks: 0
WidescreenStoryboard: 0

[Editor]
Bookmarks: 1220,11064,20912,30758,40604,50450,60296,70143,79989,89835,99681,119373,129220
DistanceSpacing: 2.6
BeatDivisor: 4
GridSize: 32
TimelineZoom: 1.5

[Metadata]
Title:Abrasion
TitleUnicode:Abrasion
Artist:Zekk
ArtistUnicode:Zekk
Creator:komasy
Version:Futsuu
Source:osu!
Tags:Featured Artist FA Electronic Instrumental Hardcore Pumpcore Hardtek Dubstep Twerk Cut Short Version Ver CYCLIK CONTROL
BeatmapID:2507556
BeatmapSetID:1204065

[Difficulty]
HPDrainRate:6.5
CircleSize:5
OverallDifficulty:4
ApproachRate:10
SliderMultiplier:1.4
SliderTickRate:1

[Events]
//Background and Video events
0,0,"white-and-black-wooden-board-963278.jpg",0,0
//Break Periods
//Storyboard Layer 0 (Background)
//Storyboard Layer 1 (Fail)
//Storyboard Layer 2 (Pass)
//Storyboard Layer 3 (Foreground)
//Storyboard Layer 4 (Overlay)
//Storyboard Sound Samples

[TimingPoints]
1218,307.692307692308,4,1,0,80,1,0
1218,-100,4,1,0,80,0,0
10987,-100,4,1,0,90,0,0
20987,-100,4,1,0,40,0,0
23294,-100,4,1,0,20,0,0
24525,-100,4,1,0,10,0,0
25756,-100,4,1,0,80,0,0
31138,-100,4,1,0,90,0,0
40600,-100,4,1,0,100,0,0
49215,-100,4,1,0,90,0,0
50448,-100,4,1,0,100,0,1
60294,-100,4,1,0,100,0,0
61525,-100,4,1,0,100,0,1
70141,-100,4,1,0,100,0,0
70218,-100,4,1,0,40,0,0
72525,-100,4,1,0,20,0,0
73756,-100,4,1,0,20,0,0
74987,-100,4,1,0,80,0,0
80369,-100,4,1,0,90,0,0
89833,-100,4,1,0,100,0,0
98448,-100,4,1,0,90,0,0
99679,-100,4,1,0,100,0,1
103371,-100,4,1,0,100,0,0
104602,-100,4,1,0,100,0,1
108294,-100,4,1,0,100,0,0
109525,-100,4,1,0,100,0,1
119371,-100,4,1,0,90,0,0

[HitObjects]
160,96,1218,5,0,0:0:0:0:
352,96,1833,1,8,0:0:0:0:
160,96,2294,1,0,0:0:0:0:
352,96,3064,1,8,0:0:0:0:
160,96,3679,1,0,0:0:0:0:
352,96,4294,1,8,0:0:0:0:
160,96,4756,1,0,0:0:0:0:
352,96,5371,1,8,0:0:0:0:
352,96,5525,1,8,0:0:0:0:
352,96,5833,1,8,0:0:0:0:
160,96,6141,1,0,0:0:0:0:
352,96,6756,1,8,0:0:0:0:
160,96,7218,1,0,0:0:0:0:
352,96,7987,1,8,0:0:0:0:
160,96,8602,1,0,0:0:0:0:
352,96,9218,1,8,0:0:0:0:
160,96,9679,1,0,0:0:0:0:
352,96,9833,1,8,0:0:0:0:
352,96,10141,1,8,0:0:0:0:
352,96,10294,1,8,0:0:0:0:
160,96,10448,1,0,0:0:0:0:
352,288,10756,1,12,0:0:0:0:
160,96,11064,1,0,0:0:0:0:
160,96,11525,1,0,0:0:0:0:
352,96,11679,1,8,0:0:0:0:
160,96,12141,1,0,0:0:0:0:
160,96,12448,1,0,0:0:0:0:
160,96,12756,1,0,0:0:0:0:
352,96,12910,1,8,0:0:0:0:
352,96,13218,1,8,0:0:0:0:
160,96,13525,1,0,0:0:0:0:
352,96,14141,1,8,0:0:0:0:
160,96,14602,1,0,0:0:0:0:
160,96,14910,1,0,0:0:0:0:
352,96,15218,1,8,0:0:0:0:
352,96,15371,1,8,0:0:0:0:
352,96,15679,1,8,0:0:0:0:
352,96,15833,1,8,0:0:0:0:
160,96,15987,1,0,0:0:0:0:
160,96,16448,1,0,0:0:0:0:
352,96,16602,1,8,0:0:0:0:
160,96,17064,1,0,0:0:0:0:
160,96,17371,1,0,0:0:0:0:
160,96,17679,1,0,0:0:0:0:
352,96,17833,1,8,0:0:0:0:
352,96,18141,1,8,0:0:0:0:
160,96,18448,1,0,0:0:0:0:
352,96,19064,1,8,0:0:0:0:
160,96,19525,1,0,0:0:0:0:
352,96,19679,1,8,0:0:0:0:
352,96,19987,1,8,0:0:0:0:
160,96,20294,1,0,0:0:0:0:
160,96,20448,1,0,0:0:0:0:
352,96,20602,1,8,0:0:0:0:
160,288,20910,1,4,0:0:0:0:
352,96,25833,1,8,0:0:0:0:
352,96,26448,1,8,0:0:0:0:
352,96,26756,1,8,0:0:0:0:
352,96,27064,1,8,0:0:0:0:
352,96,27679,1,8,0:0:0:0:
352,96,27987,1,8,0:0:0:0:
160,96,28294,12,0,29525,0:0:0:0:
352,96,30141,5,8,0:0:0:0:
352,96,30602,1,8,0:0:0:0:
160,96,30756,1,0,0:0:0:0:
160,288,31218,1,4,0:0:0:0:
352,96,31833,1,8,0:0:0:0:
352,96,32294,1,8,0:0:0:0:
160,96,32602,1,0,0:0:0:0:
160,96,32910,1,0,0:0:0:0:
160,96,33064,1,0,0:0:0:0:
352,96,33218,1,8,0:0:0:0:
352,96,33679,1,8,0:0:0:0:
352,96,34141,1,8,0:0:0:0:
352,96,34448,1,8,0:0:0:0:
352,96,34756,1,8,0:0:0:0:
352,96,34910,1,8,0:0:0:0:
352,96,35064,1,8,0:0:0:0:
352,96,35371,1,8,0:0:0:0:
160,288,35679,1,4,0:0:0:0:
352,96,36294,1,8,0:0:0:0:
352,96,36756,1,8,0:0:0:0:
352,96,37218,1,8,0:0:0:0:
160,96,37525,1,0,0:0:0:0:
160,96,37833,1,0,0:0:0:0:
160,96,37987,1,0,0:0:0:0:
352,96,38141,1,8,0:0:0:0:
352,96,38602,1,8,0:0:0:0:
352,96,39064,1,8,0:0:0:0:
352,96,39371,1,8,0:0:0:0:
352,96,39679,1,8,0:0:0:0:
352,96,39833,1,8,0:0:0:0:
352,96,39987,1,8,0:0:0:0:
352,96,40294,1,8,0:0:0:0:
160,288,40602,1,4,0:0:0:0:
160,96,41218,1,0,0:0:0:0:
160,96,41525,1,0,0:0:0:0:
352,96,41679,1,8,0:0:0:0:
160,96,41833,1,0,0:0:0:0:
160,96,42141,1,0,0:0:0:0:
160,96,42448,1,0,0:0:0:0:
160,96,43064,1,0,0:0:0:0:
160,96,43371,1,0,0:0:0:0:
352,96,43525,1,8,0:0:0:0:
160,96,43679,1,0,0:0:0:0:
160,96,43987,1,0,0:0:0:0:
160,96,44294,1,0,0:0:0:0:
160,96,44602,1,0,0:0:0:0:
160,96,44756,1,0,0:0:0:0:
352,96,44910,1,8,0:0:0:0:
352,96,45218,1,8,0:0:0:0:
160,96,45525,1,0,0:0:0:0:
352,96,46141,1,8,0:0:0:0:
352,96,46448,1,8,0:0:0:0:
352,96,46756,1,8,0:0:0:0:
352,96,46910,1,8,0:0:0:0:
352,96,47064,1,8,0:0:0:0:
352,96,47371,1,8,0:0:0:0:
352,96,47679,1,8,0:0:0:0:
160,96,47987,12,0,49218,0:0:0:0:
160,96,49833,5,0,0:0:0:0:
352,288,50141,1,12,0:0:0:0:
160,96,50448,1,0,0:0:0:0:
160,96,50756,1,0,0:0:0:0:
160,96,51064,1,0,0:0:0:0:
352,96,51218,1,8,0:0:0:0:
160,96,51371,1,0,0:0:0:0:
160,96,51679,1,0,0:0:0:0:
160,96,51987,1,0,0:0:0:0:
352,96,52141,1,8,0:0:0:0:
160,96,52294,1,0,0:0:0:0:
160,96,52910,1,0,0:0:0:0:
160,96,53218,1,0,0:0:0:0:
160,96,53525,1,0,0:0:0:0:
352,96,53679,1,8,0:0:0:0:
160,96,53833,1,0,0:0:0:0:
160,96,54141,1,0,0:0:0:0:
160,96,54448,1,0,0:0:0:0:
352,96,54602,1,8,0:0:0:0:
352,96,54756,1,8,0:0:0:0:
160,96,55371,1,0,0:0:0:0:
160,96,55525,1,0,0:0:0:0:
352,96,55679,1,8,0:0:0:0:
160,96,55987,1,0,0:0:0:0:
352,96,56294,1,8,0:0:0:0:
160,96,56448,1,0,0:0:0:0:
160,96,56602,1,0,0:0:0:0:
352,96,56910,1,8,0:0:0:0:
160,96,57218,1,0,0:0:0:0:
160,96,57833,1,0,0:0:0:0:
352,96,58141,1,8,0:0:0:0:
352,96,58294,1,8,0:0:0:0:
160,96,58448,1,0,0:0:0:0:
160,96,58602,1,0,0:0:0:0:
352,96,58756,1,8,0:0:0:0:
160,96,59064,1,0,0:0:0:0:
160,96,59679,1,0,0:0:0:0:
352,96,59987,1,8,0:0:0:0:
160,96,60294,1,0,0:0:0:0:
160,96,61525,1,0,0:0:0:0:
160,96,61833,1,0,0:0:0:0:
352,96,62141,1,8,0:0:0:0:
160,96,62602,1,0,0:0:0:0:
160,96,62910,1,0,0:0:0:0:
352,96,63064,1,8,0:0:0:0:
352,96,63218,1,8,0:0:0:0:
352,96,63371,1,8,0:0:0:0:
352,96,63679,1,8,0:0:0:0:
160,96,63833,1,0,0:0:0:0:
352,96,63987,1,8,0:0:0:0:
160,96,64294,1,0,0:0:0:0:
352,96,64602,1,8,0:0:0:0:
352,96,64910,1,8,0:0:0:0:
352,96,65064,1,8,0:0:0:0:
160,96,65218,1,0,0:0:0:0:
160,96,65371,1,0,0:0:0:0:
352,96,65525,1,8,0:0:0:0:
160,96,65987,1,0,0:0:0:0:
352,96,66141,1,8,0:0:0:0:
160,96,66294,1,0,0:0:0:0:
352,96,66756,1,8,0:0:0:0:
160,96,67064,1,0,0:0:0:0:
352,96,67218,1,8,0:0:0:0:
160,96,67371,1,0,0:0:0:0:
160,96,67679,1,0,0:0:0:0:
160,96,67987,1,0,0:0:0:0:
160,96,68294,1,0,0:0:0:0:
160,96,68448,1,0,0:0:0:0:
160,96,68602,1,0,0:0:0:0:
160,96,68910,1,0,0:0:0:0:
352,96,69525,1,8,0:0:0:0:
352,96,69679,1,8,0:0:0:0:
352,96,69833,1,8,0:0:0:0:
160,288,70141,1,4,0:0:0:0:
160,96,75064,1,0,0:0:0:0:
160,96,75525,1,0,0:0:0:0:
352,96,75679,1,8,0:0:0:0:
352,96,75987,1,8,0:0:0:0:
160,96,76294,1,0,0:0:0:0:
352,96,76602,1,8,0:0:0:0:
160,96,76756,1,0,0:0:0:0:
352,96,76910,1,8,0:0:0:0:
352,96,77218,1,8,0:0:0:0:
160,96,77525,12,0,78756,0:0:0:0:
352,96,79371,5,8,0:0:0:0:
352,96,79833,1,8,0:0:0:0:
160,96,79987,1,0,0:0:0:0:
160,288,80448,1,4,0:0:0:0:
352,96,81064,1,8,0:0:0:0:
352,96,81525,1,8,0:0:0:0:
160,96,81833,1,0,0:0:0:0:
160,96,82141,1,0,0:0:0:0:
160,96,82294,1,0,0:0:0:0:
352,96,82448,1,8,0:0:0:0:
352,96,82910,1,8,0:0:0:0:
352,96,83371,1,8,0:0:0:0:
352,96,83679,1,8,0:0:0:0:
352,96,83987,1,8,0:0:0:0:
352,96,84141,1,8,0:0:0:0:
352,96,84294,1,8,0:0:0:0:
352,96,84602,1,8,0:0:0:0:
160,288,84910,1,4,0:0:0:0:
352,96,85525,1,8,0:0:0:0:
160,96,85987,1,0,0:0:0:0:
160,96,86448,1,0,0:0:0:0:
352,96,86756,1,8,0:0:0:0:
352,96,87064,1,8,0:0:0:0:
352,96,87218,1,8,0:0:0:0:
160,96,87371,1,0,0:0:0:0:
352,96,87987,1,8,0:0:0:0:
352,96,88294,5,8,0:0:0:0:
160,96,88448,1,0,0:0:0:0:
352,96,88602,1,8,0:0:0:0:
352,96,88910,1,8,0:0:0:0:
352,96,89064,1,8,0:0:0:0:
352,96,89218,1,8,0:0:0:0:
352,96,89525,1,8,0:0:0:0:
160,288,89833,1,4,0:0:0:0:
160,96,90448,1,0,0:0:0:0:
160,96,90756,1,0,0:0:0:0:
352,96,90910,1,8,0:0:0:0:
160,96,91064,1,0,0:0:0:0:
160,96,91371,1,0,0:0:0:0:
160,96,91679,1,0,0:0:0:0:
160,96,92294,1,0,0:0:0:0:
160,96,92602,1,0,0:0:0:0:
352,96,92756,1,8,0:0:0:0:
160,96,92910,1,0,0:0:0:0:
160,96,93218,1,0,0:0:0:0:
160,96,93525,1,0,0:0:0:0:
160,96,93833,1,0,0:0:0:0:
160,96,93987,1,0,0:0:0:0:
352,96,94141,1,8,0:0:0:0:
352,96,94448,1,8,0:0:0:0:
160,96,94756,1,0,0:0:0:0:
352,96,95371,1,8,0:0:0:0:
352,96,95679,1,8,0:0:0:0:
352,96,95987,1,8,0:0:0:0:
352,96,96141,1,8,0:0:0:0:
352,96,96294,1,8,0:0:0:0:
352,96,96602,1,8,0:0:0:0:
352,96,96910,1,8,0:0:0:0:
160,96,97218,12,0,98448,0:0:0:0:
160,96,99064,5,0,0:0:0:0:
352,288,99371,5,12,0:0:0:0:
160,96,99679,5,0,0:0:0:0:
160,288,99987,1,4,0:0:0:0:
160,288,100218,1,4,0:0:0:0:
352,288,100602,1,12,0:0:0:0:
160,96,100910,5,0,0:0:0:0:
160,288,101218,1,4,0:0:0:0:
160,288,101448,1,4,0:0:0:0:
352,288,101833,1,12,0:0:0:0:
160,96,102141,5,0,0:0:0:0:
160,288,102448,1,4,0:0:0:0:
160,288,102679,1,4,0:0:0:0:
352,288,103064,1,12,0:0:0:0:
160,96,103371,1,0,0:0:0:0:
352,96,103679,1,8,0:0:0:0:
160,96,103987,1,0,0:0:0:0:
160,96,104602,5,0,0:0:0:0:
160,288,104910,1,4,0:0:0:0:
160,288,105141,1,4,0:0:0:0:
352,288,105525,1,12,0:0:0:0:
160,96,105833,5,0,0:0:0:0:
160,288,106141,1,4,0:0:0:0:
160,288,106371,1,4,0:0:0:0:
352,288,106756,1,12,0:0:0:0:
160,96,107064,5,0,0:0:0:0:
160,288,107371,1,4,0:0:0:0:
160,288,107602,1,4,0:0:0:0:
352,288,107987,1,12,0:0:0:0:
160,96,108294,1,0,0:0:0:0:
160,96,108910,1,0,0:0:0:0:
352,96,109218,1,8,0:0:0:0:
160,96,109525,1,0,0:0:0:0:
160,288,109833,1,4,0:0:0:0:
160,288,110141,1,4,0:0:0:0:
160,288,110448,1,4,0:0:0:0:
160,288,110756,1,4,0:0:0:0:
352,96,111064,1,8,0:0:0:0:
160,96,111371,1,0,0:0:0:0:
352,288,111679,1,12,0:0:0:0:
160,96,111987,1,0,0:0:0:0:
160,288,112294,1,4,0:0:0:0:
160,288,112602,1,4,0:0:0:0:
160,288,112910,1,4,0:0:0:0:
160,288,113218,1,4,0:0:0:0:
352,96,113525,1,8,0:0:0:0:
160,96,113833,1,0,0:0:0:0:
160,288,114448,1,4,0:0:0:0:
160,288,114602,1,4,0:0:0:0:
352,288,114756,1,12,0:0:0:0:
160,288,115064,1,4,0:0:0:0:
352,288,115371,1,12,0:0:0:0:
160,288,115679,1,4,0:0:0:0:
352,288,115987,1,12,0:0:0:0:
160,96,116294,1,0,0:0:0:0:
352,96,116602,1,8,0:0:0:0:
160,96,116910,1,0,0:0:0:0:
160,96,117218,1,0,0:0:0:0:
160,96,117525,1,0,0:0:0:0:
160,96,117679,1,0,0:0:0:0:
160,96,117833,1,0,0:0:0:0:
160,96,118141,1,0,0:0:0:0:
352,96,118756,1,8,0:0:0:0:
352,96,118910,1,8,0:0:0:0:
352,96,119064,1,8,0:0:0:0:
160,288,119371,1,4,0:0:0:0:
160,96,119833,1,0,0:0:0:0:
352,96,119987,1,8,0:0:0:0:
160,96,120448,1,0,0:0:0:0:
160,96,120756,1,0,0:0:0:0:
352,96,121218,1,8,0:0:0:0:
352,96,121525,1,8,0:0:0:0:
352,96,121679,1,8,0:0:0:0:
160,96,121833,1,0,0:0:0:0:
352,96,122448,1,8,0:0:0:0:
352,96,122756,1,8,0:0:0:0:
160,96,122910,1,0,0:0:0:0:
160,96,123218,1,0,0:0:0:0:
352,96,123525,1,8,0:0:0:0:
352,96,123679,1,8,0:0:0:0:
352,96,123987,1,8,0:0:0:0:
160,96,124294,1,0,0:0:0:0:
352,96,124910,1,8,0:0:0:0:
352,96,125218,1,8,0:0:0:0:
160,96,125371,1,0,0:0:0:0:
352,96,125525,1,8,0:0:0:0:
160,96,125833,1,0,0:0:0:0:
352,96,126141,1,8,0:0:0:0:
352,96,126294,1,8,0:0:0:0:
352,96,126448,1,8,0:0:0:0:
160,96,126756,1,0,0:0:0:0:
352,96,127371,1,8,0:0:0:0:
352,96,127679,1,8,0:0:0:0:
352,96,127833,1,8,0:0:0:0:
160,96,127987,1,0,0:0:0:0:
160,96,128602,1,0,0:0:0:0:
160,96,128756,1,0,0:0:0:0:
352,96,128910,1,8,0:0:0:0:
160,288,129218,1,4,0:0:0:0:
