osu file format v14

[General]
AudioFilename: audio.mp3
AudioLeadIn: 0
PreviewTime: 38581
Countdown: 0
SampleSet: Soft
StackLeniency: 0.7
Mode: 3
LetterboxInBreaks: 0
SpecialStyle: 0
WidescreenStoryboard: 1

[Editor]
Bookmarks: 14581,27381,40181,65781,91381,104181,116981,129781,155381,180981,193781,206581
DistanceSpacing: 2.4
BeatDivisor: 6
GridSize: 8
TimelineZoom: 2.3

[Metadata]
Title:Gloomy Flash feat. mami
TitleUnicode:Gloomy Flash feat. mami
Artist:Zekk & poplavor
ArtistUnicode:Zekk & poplavor
Creator:AelSan
Version:Hard
Source:
Tags:fa featured artist mg mappers' guild electronic japanese speed garage SPD GAR 002 megarex hybrid ln long note muse dash retrocity retro city
BeatmapID:4337922
BeatmapSetID:2025404

[Difficulty]
HPDrainRate:7
CircleSize:4
OverallDifficulty:7
ApproachRate:5
SliderMultiplier:1.4
SliderTickRate:1

[Events]
//Background and Video events
0,0,"83319109_p0.jpg",0,0
//Break Periods
//Storyboard Layer 0 (Background)
//Storyboard Layer 1 (Fail)
//Storyboard Layer 2 (Pass)
//Storyboard Layer 3 (Foreground)
//Storyboard Layer 4 (Overlay)
//Storyboard Sound Samples

[TimingPoints]
1781,400,4,2,1,40,1,0

[HitObjects]
192,192,1381,128,0,1581:0:0:0:0:
320,192,1581,1,0,0:0:0:0:
448,192,1681,128,0,1781:0:0:0:0:
192,192,1781,1,0,0:0:0:0:
64,192,1781,128,0,1981:0:0:0:0:
320,192,1981,128,0,2181:0:0:0:0:
192,192,2181,1,0,0:0:0:0:
64,192,2181,1,0,0:0:0:0:
448,192,2381,1,0,0:0:0:0:
192,192,2481,1,0,0:0:0:0:
320,192,2581,128,0,2781:0:0:0:0:
448,192,2781,1,0,0:0:0:0:
64,192,2781,128,0,2981:0:0:0:0:
320,192,2981,128,0,3181:0:0:0:0:
192,192,2981,1,0,0:0:0:0:
448,192,3114,1,0,0:0:0:0:
64,192,3181,128,0,3381:0:0:0:0:
192,192,3314,1,0,0:0:0:0:
320,192,3381,128,0,3581:0:0:0:0:
448,192,3381,1,0,0:0:0:0:
192,192,3581,1,0,0:0:0:0:
320,192,3681,128,0,3881:0:0:0:0:
64,192,3781,1,0,0:0:0:0:
64,192,3981,128,0,4181:0:0:0:0:
448,192,4181,1,0,0:0:0:0:
192,192,4381,1,0,0:0:0:0:
320,192,4581,128,0,4781:0:0:0:0:
64,192,4781,1,0,0:0:0:0:
192,192,4881,128,0,4981:0:0:0:0:
448,192,4981,128,0,5181:0:0:0:0:
320,192,4981,1,0,0:0:0:0:
192,192,5181,128,0,5381:0:0:0:0:
448,192,5381,1,0,0:0:0:0:
192,192,5581,1,0,0:0:0:0:
320,192,5681,1,0,0:0:0:0:
192,192,5781,128,0,5981:0:0:0:0:
64,192,5981,1,0,0:0:0:0:
448,192,5981,128,0,6181:0:0:0:0:
192,192,6181,128,0,6381:0:0:0:0:
448,192,6381,128,0,6581:0:0:0:0:
320,192,6514,1,0,0:0:0:0:
192,192,6581,128,0,6781:0:0:0:0:
64,192,6581,1,0,0:0:0:0:
320,192,6781,1,0,0:0:0:0:
192,192,6881,128,0,7081:0:0:0:0:
448,192,6981,1,0,0:0:0:0:
64,192,7181,1,0,0:0:0:0:
448,192,7181,128,0,7381:0:0:0:0:
192,192,7581,1,0,0:0:0:0:
192,192,7781,1,0,0:0:0:0:
320,192,7981,128,0,8181:0:0:0:0:
64,192,8181,128,0,8381:0:0:0:0:
192,192,8181,1,0,0:0:0:0:
448,192,8381,128,0,8581:0:0:0:0:
64,192,8581,1,0,0:0:0:0:
192,192,8581,128,0,8781:0:0:0:0:
64,192,8781,128,0,8881:0:0:0:0:
320,192,8881,1,0,0:0:0:0:
448,192,9181,128,0,9381:0:0:0:0:
64,192,9181,1,0,0:0:0:0:
320,192,9381,1,0,0:0:0:0:
64,192,9381,1,0,0:0:0:0:
448,192,9514,1,0,0:0:0:0:
192,192,9581,128,0,9781:0:0:0:0:
64,192,9714,1,0,0:0:0:0:
448,192,9781,128,0,9981:0:0:0:0:
320,192,9781,1,0,0:0:0:0:
64,192,9981,128,0,10181:0:0:0:0:
320,192,10181,128,0,10381:0:0:0:0:
448,192,10181,1,0,0:0:0:0:
448,192,10381,128,0,10581:0:0:0:0:
64,192,10481,128,0,10581:0:0:0:0:
192,192,10581,1,0,0:0:0:0:
320,192,10781,128,0,10981:0:0:0:0:
64,192,10981,1,0,0:0:0:0:
192,192,11181,128,0,11381:0:0:0:0:
448,192,11381,128,0,11581:0:0:0:0:
320,192,11381,1,0,0:0:0:0:
192,192,11581,128,0,11781:0:0:0:0:
448,192,11781,128,0,11981:0:0:0:0:
192,192,11981,128,0,12081:0:0:0:0:
64,192,11981,1,0,0:0:0:0:
448,192,12081,128,0,12281:0:0:0:0:
192,192,12381,128,0,12581:0:0:0:0:
320,192,12381,1,0,0:0:0:0:
320,192,12581,128,0,12781:0:0:0:0:
64,192,12781,128,0,12981:0:0:0:0:
448,192,12914,1,0,0:0:0:0:
320,192,12981,128,0,13381:0:0:0:0:
192,192,12981,1,0,0:0:0:0:
192,192,13181,1,0,0:0:0:0:
448,192,13381,1,0,0:0:0:0:
192,192,13581,128,0,13881:0:0:0:0:
320,192,13581,1,0,0:0:0:0:
192,192,13981,128,0,14081:0:0:0:0:
320,192,14081,1,0,0:0:0:0:
64,192,14181,1,0,0:0:0:0:
448,192,14247,1,0,0:0:0:0:
192,192,14314,1,0,0:0:0:0:
320,192,14381,1,0,0:0:0:0:
192,192,14581,1,0,0:0:0:0:
64,192,14581,128,0,14781:0:0:0:0:
320,192,14781,1,0,0:0:0:0:
448,192,14981,128,0,15281:0:0:0:0:
192,192,14981,1,0,0:0:0:0:
64,192,15181,1,0,0:0:0:0:
192,192,15281,128,0,15381:0:0:0:0:
320,192,15381,1,0,0:0:0:0:
448,192,15381,1,0,0:0:0:0:
64,192,15581,1,0,0:0:0:0:
448,192,15581,1,0,0:0:0:0:
320,192,15781,1,0,0:0:0:0:
192,192,15781,128,0,15981:0:0:0:0:
448,192,15914,1,0,0:0:0:0:
320,192,15981,128,0,16181:0:0:0:0:
64,192,16114,1,0,0:0:0:0:
448,192,16181,128,0,16381:0:0:0:0:
192,192,16181,1,0,0:0:0:0:
320,192,16314,1,0,0:0:0:0:
64,192,16381,128,0,16581:0:0:0:0:
448,192,16581,128,0,16781:0:0:0:0:
192,192,16581,1,0,0:0:0:0:
64,192,16781,128,0,16981:0:0:0:0:
320,192,16914,1,0,0:0:0:0:
192,192,16981,1,0,0:0:0:0:
448,192,16981,1,0,0:0:0:0:
192,192,17181,1,0,0:0:0:0:
64,192,17181,1,0,0:0:0:0:
448,192,17381,1,0,0:0:0:0:
320,192,17381,128,0,17581:0:0:0:0:
64,192,17581,128,0,17781:0:0:0:0:
192,192,17781,1,0,0:0:0:0:
448,192,17781,128,0,17981:0:0:0:0:
320,192,17914,1,0,0:0:0:0:
192,192,17981,128,0,18181:0:0:0:0:
320,192,18181,128,0,18381:0:0:0:0:
448,192,18181,1,0,0:0:0:0:
64,192,18381,128,0,18781:0:0:0:0:
192,192,18514,1,0,0:0:0:0:
448,192,18581,1,0,0:0:0:0:
320,192,18581,1,0,0:0:0:0:
448,192,18781,1,0,0:0:0:0:
320,192,18981,1,0,0:0:0:0:
64,192,18981,1,0,0:0:0:0:
192,192,19081,1,0,0:0:0:0:
448,192,19181,1,0,0:0:0:0:
320,192,19281,1,0,0:0:0:0:
192,192,19381,1,0,0:0:0:0:
64,192,19381,128,0,19581:0:0:0:0:
320,192,19514,1,0,0:0:0:0:
448,192,19581,128,0,19781:0:0:0:0:
64,192,19781,128,0,19981:0:0:0:0:
192,192,19781,1,0,0:0:0:0:
448,192,19981,128,0,20181:0:0:0:0:
192,192,20181,1,0,0:0:0:0:
64,192,20181,1,0,0:0:0:0:
320,192,20314,1,0,0:0:0:0:
192,192,20381,1,0,0:0:0:0:
320,192,20514,1,0,0:0:0:0:
448,192,20581,1,0,0:0:0:0:
64,192,20581,1,0,0:0:0:0:
192,192,20714,1,0,0:0:0:0:
320,192,20781,1,0,0:0:0:0:
448,192,20914,1,0,0:0:0:0:
192,192,20981,1,0,0:0:0:0:
64,192,20981,128,0,21181:0:0:0:0:
320,192,21181,128,0,21281:0:0:0:0:
64,192,21381,128,0,21581:0:0:0:0:
448,192,21381,1,0,0:0:0:0:
320,192,21581,128,0,21681:0:0:0:0:
192,192,21681,1,0,0:0:0:0:
448,192,21781,128,0,22181:0:0:0:0:
64,192,21781,1,0,0:0:0:0:
192,192,21981,128,0,22181:0:0:0:0:
320,192,22181,128,0,22381:0:0:0:0:
448,192,22314,1,0,0:0:0:0:
64,192,22381,128,0,22581:0:0:0:0:
192,192,22514,1,0,0:0:0:0:
448,192,22581,128,0,22781:0:0:0:0:
320,192,22581,1,0,0:0:0:0:
192,192,22781,128,0,22881:0:0:0:0:
64,192,22981,1,0,0:0:0:0:
448,192,22981,128,0,23181:0:0:0:0:
192,192,23181,128,0,23314:0:0:0:0:
320,192,23314,1,0,0:0:0:0:
448,192,23381,1,0,0:0:0:0:
64,192,23381,128,0,23781:0:0:0:0:
320,192,23581,1,0,0:0:0:0:
192,192,23714,1,0,0:0:0:0:
320,192,23781,1,0,0:0:0:0:
448,192,23781,1,0,0:0:0:0:
192,192,23981,1,0,0:0:0:0:
64,192,23981,1,0,0:0:0:0:
64,192,24181,1,0,0:0:0:0:
448,192,24181,128,0,24381:0:0:0:0:
320,192,24314,1,0,0:0:0:0:
192,192,24381,128,0,24581:0:0:0:0:
448,192,24581,128,0,24781:0:0:0:0:
64,192,24581,1,0,0:0:0:0:
320,192,24781,128,0,25181:0:0:0:0:
64,192,24914,1,0,0:0:0:0:
192,192,24981,1,0,0:0:0:0:
448,192,24981,1,0,0:0:0:0:
64,192,25181,128,0,25581:0:0:0:0:
448,192,25314,1,0,0:0:0:0:
192,192,25381,128,0,25781:0:0:0:0:
320,192,25381,1,0,0:0:0:0:
320,192,25581,128,0,25781:0:0:0:0:
448,192,25714,1,0,0:0:0:0:
64,192,25781,128,0,26381:0:0:0:0:
448,192,25914,1,0,0:0:0:0:
192,192,25981,1,0,0:0:0:0:
320,192,26081,1,0,0:0:0:0:
448,192,26181,1,0,0:0:0:0:
192,192,26281,5,0,0:0:0:0:
320,192,26381,128,0,26781:0:0:0:0:
448,192,26581,1,0,0:0:0:0:
192,192,26681,1,0,0:0:0:0:
448,192,26781,1,0,0:0:0:0:
64,192,26881,1,0,0:0:0:0:
320,192,26981,1,0,0:0:0:0:
64,192,27081,1,0,0:0:0:0:
192,192,27181,1,0,0:0:0:0:
448,192,27381,128,0,27781:0:0:0:0:
320,192,27381,128,0,27581:0:0:0:0:
64,192,27381,1,0,0:0:0:0:
64,192,27781,128,0,28381:0:0:0:0:
320,192,28081,128,0,28981:0:0:0:0:
192,192,28181,1,0,0:0:0:0:
64,192,28581,1,0,0:0:0:0:
192,192,28781,128,0,28981:0:0:0:0:
448,192,28981,128,0,29181:0:0:0:0:
64,192,28981,128,0,29381:0:0:0:0:
320,192,29381,128,0,29781:0:0:0:0:
192,192,29381,1,0,0:0:0:0:
64,192,29681,128,0,29781:0:0:0:0:
192,192,29781,128,0,30181:0:0:0:0:
448,192,29981,128,0,30381:0:0:0:0:
320,192,30181,128,0,30581:0:0:0:0:
192,192,30381,128,0,30581:0:0:0:0:
64,192,30581,128,0,31781:0:0:0:0:
448,192,30581,128,0,30781:0:0:0:0:
320,192,30781,1,0,0:0:0:0:
192,192,30881,1,0,0:0:0:0:
448,192,30981,1,0,0:0:0:0:
320,192,31081,1,0,0:0:0:0:
192,192,31181,1,0,0:0:0:0:
448,192,31281,1,0,0:0:0:0:
320,192,31381,1,0,0:0:0:0:
448,192,31481,1,0,0:0:0:0:
320,192,31581,1,0,0:0:0:0:
192,192,31681,1,0,0:0:0:0:
448,192,31781,1,0,0:0:0:0:
192,192,31881,1,0,0:0:0:0:
320,192,31981,1,0,0:0:0:0:
64,192,32081,1,0,0:0:0:0:
448,192,32181,128,0,33381:0:0:0:0:
320,192,32181,128,0,32381:0:0:0:0:
64,192,32381,128,0,32581:0:0:0:0:
192,192,32581,1,0,0:0:0:0:
320,192,32581,1,0,0:0:0:0:
64,192,32681,1,0,0:0:0:0:
320,192,32781,1,0,0:0:0:0:
192,192,32881,1,0,0:0:0:0:
64,192,32981,1,0,0:0:0:0:
320,192,33081,1,0,0:0:0:0:
192,192,33181,1,0,0:0:0:0:
64,192,33281,1,0,0:0:0:0:
320,192,33381,1,0,0:0:0:0:
64,192,33581,1,0,0:0:0:0:
192,192,33631,1,0,0:0:0:0:
320,192,33681,1,0,0:0:0:0:
448,192,33731,1,0,0:0:0:0:
64,192,33781,128,0,34081:0:0:0:0:
192,192,33781,128,0,33981:0:0:0:0:
448,192,34081,1,0,0:0:0:0:
320,192,34081,1,0,0:0:0:0:
192,192,34181,1,0,0:0:0:0:
64,192,34181,1,0,0:0:0:0:
448,192,34381,1,0,0:0:0:0:
192,192,34381,1,0,0:0:0:0:
320,192,34481,1,0,0:0:0:0:
448,192,34581,1,0,0:0:0:0:
64,192,34581,1,0,0:0:0:0:
448,192,34881,1,0,0:0:0:0:
192,192,34881,1,0,0:0:0:0:
320,192,34981,1,0,0:0:0:0:
64,192,34981,1,0,0:0:0:0:
192,192,35181,1,0,0:0:0:0:
64,192,35181,1,0,0:0:0:0:
448,192,35381,128,0,35681:0:0:0:0:
320,192,35381,128,0,35581:0:0:0:0:
192,192,35681,1,0,0:0:0:0:
64,192,35681,1,0,0:0:0:0:
320,192,35781,1,0,0:0:0:0:
448,192,35781,1,0,0:0:0:0:
320,192,35981,1,0,0:0:0:0:
64,192,35981,1,0,0:0:0:0:
192,192,36081,1,0,0:0:0:0:
64,192,36181,1,0,0:0:0:0:
448,192,36181,1,0,0:0:0:0:
192,192,36381,1,0,0:0:0:0:
64,192,36481,1,0,0:0:0:0:
320,192,36481,1,0,0:0:0:0:
192,192,36581,1,0,0:0:0:0:
448,192,36581,1,0,0:0:0:0:
320,192,36781,1,0,0:0:0:0:
192,192,36781,1,0,0:0:0:0:
448,192,36981,1,0,0:0:0:0:
64,192,36981,1,0,0:0:0:0:
320,192,37081,1,0,0:0:0:0:
192,192,37181,1,0,0:0:0:0:
64,192,37281,1,0,0:0:0:0:
448,192,37381,1,0,0:0:0:0:
320,192,37381,1,0,0:0:0:0:
192,192,37481,1,0,0:0:0:0:
448,192,37581,1,0,0:0:0:0:
320,192,37681,1,0,0:0:0:0:
192,192,37781,1,0,0:0:0:0:
64,192,37781,1,0,0:0:0:0:
320,192,37881,1,0,0:0:0:0:
64,192,37981,1,0,0:0:0:0:
192,192,38081,1,0,0:0:0:0:
320,192,38181,1,0,0:0:0:0:
448,192,38181,1,0,0:0:0:0:
64,192,38281,1,0,0:0:0:0:
192,192,38381,1,0,0:0:0:0:
320,192,38481,1,0,0:0:0:0:
448,192,38581,1,0,0:0:0:0:
64,192,38581,1,0,0:0:0:0:
448,192,38881,1,0,0:0:0:0:
192,192,39181,128,0,39381:0:0:0:0:
448,192,39381,128,0,39581:0:0:0:0:
320,192,39481,1,0,0:0:0:0:
64,192,39581,128,0,39781:0:0:0:0:
320,192,39781,128,0,39881:0:0:0:0:
320,192,39981,128,0,40081:0:0:0:0:
64,192,40181,1,0,0:0:0:0:
192,192,40181,1,0,0:0:0:0:
448,192,40181,1,0,0:0:0:0:
320,192,40381,128,0,40681:0:0:0:0:
448,192,40481,128,0,40581:0:0:0:0:
64,192,40581,128,0,40881:0:0:0:0:
192,192,40581,128,0,40681:0:0:0:0:
320,192,40781,128,0,40881:0:0:0:0:
448,192,40781,128,0,40881:0:0:0:0:
320,192,40981,1,0,0:0:0:0:
64,192,40981,128,0,41181:0:0:0:0:
192,192,41114,128,0,41247:0:0:0:0:
448,192,41181,1,0,0:0:0:0:
320,192,41314,128,0,41447:0:0:0:0:
192,192,41381,1,0,0:0:0:0:
64,192,41381,1,0,0:0:0:0:
448,192,41514,128,0,41647:0:0:0:0:
192,192,41581,128,0,41781:0:0:0:0:
448,192,41781,1,0,0:0:0:0:
320,192,41781,1,0,0:0:0:0:
320,192,41981,128,0,42281:0:0:0:0:
448,192,42081,128,0,42181:0:0:0:0:
64,192,42181,128,0,42481:0:0:0:0:
192,192,42181,128,0,42281:0:0:0:0:
320,192,42381,128,0,42481:0:0:0:0:
448,192,42381,128,0,42481:0:0:0:0:
192,192,42581,1,0,0:0:0:0:
448,192,42581,128,0,42781:0:0:0:0:
320,192,42714,128,0,42847:0:0:0:0:
64,192,42781,1,0,0:0:0:0:
192,192,42914,128,0,43047:0:0:0:0:
320,192,42981,1,0,0:0:0:0:
448,192,42981,1,0,0:0:0:0:
64,192,43114,128,0,43247:0:0:0:0:
320,192,43181,128,0,43381:0:0:0:0:
192,192,43381,1,0,0:0:0:0:
64,192,43381,1,0,0:0:0:0:
320,192,43581,128,0,43881:0:0:0:0:
448,192,43681,128,0,43781:0:0:0:0:
192,192,43781,128,0,43881:0:0:0:0:
64,192,43781,128,0,44081:0:0:0:0:
448,192,43981,128,0,44081:0:0:0:0:
320,192,43981,128,0,44081:0:0:0:0:
64,192,44181,128,0,44381:0:0:0:0:
320,192,44181,1,0,0:0:0:0:
192,192,44314,128,0,44447:0:0:0:0:
448,192,44381,1,0,0:0:0:0:
320,192,44514,128,0,44647:0:0:0:0:
64,192,44581,1,0,0:0:0:0:
192,192,44581,1,0,0:0:0:0:
448,192,44714,128,0,44847:0:0:0:0:
192,192,44781,128,0,44981:0:0:0:0:
320,192,44981,1,0,0:0:0:0:
448,192,44981,1,0,0:0:0:0:
64,192,45181,1,0,0:0:0:0:
192,192,45314,1,0,0:0:0:0:
448,192,45381,1,0,0:0:0:0:
320,192,45381,1,0,0:0:0:0:
64,192,45514,1,0,0:0:0:0:
192,192,45581,128,0,45781:0:0:0:0:
320,192,45714,1,0,0:0:0:0:
448,192,45781,128,0,45881:0:0:0:0:
64,192,45781,1,0,0:0:0:0:
192,192,45914,1,0,0:0:0:0:
448,192,45981,128,0,46081:0:0:0:0:
320,192,46114,1,0,0:0:0:0:
192,192,46181,128,0,46281:0:0:0:0:
448,192,46181,1,0,0:0:0:0:
192,192,46381,128,0,46481:0:0:0:0:
64,192,46514,1,0,0:0:0:0:
448,192,46581,1,0,0:0:0:0:
320,192,46581,1,0,0:0:0:0:
192,192,46781,128,0,47081:0:0:0:0:
64,192,46881,128,0,46981:0:0:0:0:
448,192,46981,128,0,47281:0:0:0:0:
320,192,46981,128,0,47081:0:0:0:0:
192,192,47181,128,0,47281:0:0:0:0:
64,192,47181,128,0,47281:0:0:0:0:
192,192,47381,1,0,0:0:0:0:
448,192,47381,128,0,47581:0:0:0:0:
320,192,47514,128,0,47647:0:0:0:0:
64,192,47581,1,0,0:0:0:0:
192,192,47714,128,0,47847:0:0:0:0:
320,192,47781,1,0,0:0:0:0:
448,192,47781,1,0,0:0:0:0:
64,192,47914,128,0,48047:0:0:0:0:
320,192,47981,128,0,48181:0:0:0:0:
192,192,48181,1,0,0:0:0:0:
448,192,48181,1,0,0:0:0:0:
192,192,48381,128,0,48681:0:0:0:0:
64,192,48481,128,0,48581:0:0:0:0:
448,192,48581,128,0,48881:0:0:0:0:
320,192,48581,128,0,48681:0:0:0:0:
192,192,48781,128,0,48881:0:0:0:0:
64,192,48781,128,0,48881:0:0:0:0:
320,192,48981,1,0,0:0:0:0:
64,192,48981,128,0,49181:0:0:0:0:
192,192,49114,128,0,49247:0:0:0:0:
448,192,49181,1,0,0:0:0:0:
320,192,49314,128,0,49447:0:0:0:0:
192,192,49381,1,0,0:0:0:0:
64,192,49381,1,0,0:0:0:0:
448,192,49514,128,0,49647:0:0:0:0:
192,192,49581,128,0,49781:0:0:0:0:
320,192,49781,1,0,0:0:0:0:
64,192,49781,1,0,0:0:0:0:
192,192,49981,128,0,50281:0:0:0:0:
64,192,50081,128,0,50181:0:0:0:0:
320,192,50181,128,0,50281:0:0:0:0:
448,192,50181,128,0,50481:0:0:0:0:
64,192,50381,128,0,50481:0:0:0:0:
192,192,50381,128,0,50481:0:0:0:0:
448,192,50581,128,0,50781:0:0:0:0:
192,192,50581,1,0,0:0:0:0:
320,192,50714,128,0,50847:0:0:0:0:
64,192,50781,1,0,0:0:0:0:
192,192,50914,128,0,51047:0:0:0:0:
448,192,50981,1,0,0:0:0:0:
320,192,50981,1,0,0:0:0:0:
64,192,51114,128,0,51247:0:0:0:0:
320,192,51181,128,0,51381:0:0:0:0:
448,192,51381,1,0,0:0:0:0:
192,192,51381,1,0,0:0:0:0:
64,192,51581,1,0,0:0:0:0:
320,192,51714,1,0,0:0:0:0:
64,192,51781,1,0,0:0:0:0:
192,192,51781,1,0,0:0:0:0:
448,192,51914,1,0,0:0:0:0:
320,192,51981,128,0,52181:0:0:0:0:
192,192,52114,1,0,0:0:0:0:
64,192,52181,128,0,52281:0:0:0:0:
448,192,52181,1,0,0:0:0:0:
320,192,52314,1,0,0:0:0:0:
448,192,52381,128,0,52481:0:0:0:0:
192,192,52514,1,0,0:0:0:0:
448,192,52581,128,0,52681:0:0:0:0:
64,192,52581,1,0,0:0:0:0:
64,192,52781,128,0,52881:0:0:0:0:
448,192,52914,1,0,0:0:0:0:
64,192,52981,1,0,0:0:0:0:
192,192,52981,128,0,53181:0:0:0:0:
320,192,53114,128,0,53247:0:0:0:0:
448,192,53181,128,0,53381:0:0:0:0:
64,192,53381,128,0,53681:0:0:0:0:
192,192,53381,128,0,53481:0:0:0:0:
320,192,53581,128,0,53681:0:0:0:0:
448,192,53581,128,0,53681:0:0:0:0:
320,192,53781,1,0,0:0:0:0:
64,192,53781,128,0,53981:0:0:0:0:
192,192,53914,128,0,54047:0:0:0:0:
448,192,53981,1,0,0:0:0:0:
320,192,54114,128,0,54247:0:0:0:0:
192,192,54181,1,0,0:0:0:0:
64,192,54181,1,0,0:0:0:0:
448,192,54314,128,0,54447:0:0:0:0:
192,192,54381,128,0,54581:0:0:0:0:
320,192,54581,1,0,0:0:0:0:
448,192,54581,1,0,0:0:0:0:
320,192,54781,128,0,55081:0:0:0:0:
448,192,54881,128,0,54981:0:0:0:0:
64,192,54981,128,0,55281:0:0:0:0:
192,192,54981,128,0,55081:0:0:0:0:
320,192,55181,128,0,55281:0:0:0:0:
448,192,55181,128,0,55281:0:0:0:0:
192,192,55381,1,0,0:0:0:0:
448,192,55381,128,0,55581:0:0:0:0:
320,192,55514,128,0,55647:0:0:0:0:
64,192,55581,1,0,0:0:0:0:
192,192,55714,128,0,55847:0:0:0:0:
320,192,55781,1,0,0:0:0:0:
448,192,55781,1,0,0:0:0:0:
64,192,55914,128,0,56047:0:0:0:0:
320,192,55981,128,0,56181:0:0:0:0:
192,192,56181,1,0,0:0:0:0:
64,192,56181,1,0,0:0:0:0:
320,192,56381,128,0,56681:0:0:0:0:
448,192,56481,128,0,56581:0:0:0:0:
192,192,56581,128,0,56681:0:0:0:0:
64,192,56581,128,0,56881:0:0:0:0:
448,192,56781,128,0,56881:0:0:0:0:
320,192,56781,128,0,56881:0:0:0:0:
64,192,56981,128,0,57181:0:0:0:0:
320,192,56981,1,0,0:0:0:0:
192,192,57114,128,0,57247:0:0:0:0:
448,192,57181,1,0,0:0:0:0:
320,192,57314,128,0,57447:0:0:0:0:
64,192,57381,1,0,0:0:0:0:
192,192,57381,1,0,0:0:0:0:
448,192,57514,128,0,57647:0:0:0:0:
192,192,57581,128,0,57781:0:0:0:0:
448,192,57781,1,0,0:0:0:0:
320,192,57781,1,0,0:0:0:0:
64,192,57981,1,0,0:0:0:0:
192,192,58114,1,0,0:0:0:0:
448,192,58181,1,0,0:0:0:0:
320,192,58181,1,0,0:0:0:0:
64,192,58314,1,0,0:0:0:0:
192,192,58381,128,0,58581:0:0:0:0:
320,192,58514,1,0,0:0:0:0:
448,192,58581,128,0,58681:0:0:0:0:
64,192,58581,1,0,0:0:0:0:
192,192,58714,1,0,0:0:0:0:
448,192,58781,128,0,58881:0:0:0:0:
320,192,58914,1,0,0:0:0:0:
192,192,58981,128,0,59081:0:0:0:0:
448,192,58981,1,0,0:0:0:0:
192,192,59181,128,0,59281:0:0:0:0:
64,192,59314,1,0,0:0:0:0:
448,192,59381,1,0,0:0:0:0:
320,192,59381,1,0,0:0:0:0:
192,192,59581,128,0,59881:0:0:0:0:
64,192,59681,128,0,59781:0:0:0:0:
448,192,59781,128,0,60081:0:0:0:0:
320,192,59781,128,0,59881:0:0:0:0:
192,192,59981,128,0,60081:0:0:0:0:
64,192,59981,128,0,60081:0:0:0:0:
192,192,60181,1,0,0:0:0:0:
448,192,60181,128,0,60381:0:0:0:0:
320,192,60314,128,0,60447:0:0:0:0:
64,192,60381,1,0,0:0:0:0:
192,192,60514,128,0,60647:0:0:0:0:
320,192,60581,1,0,0:0:0:0:
448,192,60581,1,0,0:0:0:0:
64,192,60714,128,0,60847:0:0:0:0:
320,192,60781,128,0,60981:0:0:0:0:
192,192,60981,1,0,0:0:0:0:
448,192,60981,1,0,0:0:0:0:
192,192,61181,128,0,61481:0:0:0:0:
64,192,61281,128,0,61381:0:0:0:0:
448,192,61381,128,0,61681:0:0:0:0:
320,192,61381,128,0,61481:0:0:0:0:
192,192,61581,128,0,61681:0:0:0:0:
64,192,61581,128,0,61681:0:0:0:0:
320,192,61781,1,0,0:0:0:0:
64,192,61781,128,0,61981:0:0:0:0:
192,192,61914,128,0,62047:0:0:0:0:
448,192,61981,1,0,0:0:0:0:
320,192,62114,128,0,62247:0:0:0:0:
192,192,62181,1,0,0:0:0:0:
64,192,62181,1,0,0:0:0:0:
448,192,62314,128,0,62447:0:0:0:0:
192,192,62381,128,0,62581:0:0:0:0:
320,192,62581,1,0,0:0:0:0:
64,192,62581,1,0,0:0:0:0:
192,192,62781,128,0,63081:0:0:0:0:
64,192,62881,128,0,62981:0:0:0:0:
320,192,62981,128,0,63081:0:0:0:0:
448,192,62981,128,0,63281:0:0:0:0:
64,192,63181,128,0,63281:0:0:0:0:
192,192,63181,128,0,63281:0:0:0:0:
448,192,63381,128,0,63581:0:0:0:0:
192,192,63381,1,0,0:0:0:0:
320,192,63514,128,0,63647:0:0:0:0:
64,192,63581,1,0,0:0:0:0:
192,192,63714,128,0,63847:0:0:0:0:
448,192,63781,1,0,0:0:0:0:
320,192,63781,1,0,0:0:0:0:
64,192,63914,128,0,64047:0:0:0:0:
320,192,63981,128,0,64181:0:0:0:0:
448,192,64181,1,0,0:0:0:0:
192,192,64181,1,0,0:0:0:0:
64,192,64381,1,0,0:0:0:0:
320,192,64514,1,0,0:0:0:0:
64,192,64581,1,0,0:0:0:0:
192,192,64581,1,0,0:0:0:0:
192,192,64714,1,0,0:0:0:0:
320,192,64781,1,0,0:0:0:0:
64,192,64914,1,0,0:0:0:0:
448,192,64981,1,0,0:0:0:0:
320,192,64981,1,0,0:0:0:0:
320,192,65114,1,0,0:0:0:0:
192,192,65181,1,0,0:0:0:0:
448,192,65314,1,0,0:0:0:0:
192,192,65381,1,0,0:0:0:0:
64,192,65381,128,0,65481:0:0:0:0:
64,192,65581,128,0,65681:0:0:0:0:
448,192,65714,1,0,0:0:0:0:
64,192,65781,1,0,0:0:0:0:
192,192,65781,1,0,0:0:0:0:
192,192,65981,1,0,0:0:0:0:
320,192,66181,1,0,0:0:0:0:
448,192,66181,128,0,66481:0:0:0:0:
64,192,66381,1,0,0:0:0:0:
192,192,66514,1,0,0:0:0:0:
448,192,66581,128,0,66881:0:0:0:0:
320,192,66581,1,0,0:0:0:0:
192,192,66714,1,0,0:0:0:0:
64,192,66781,1,0,0:0:0:0:
64,192,66914,1,0,0:0:0:0:
320,192,66981,1,0,0:0:0:0:
448,192,66981,1,0,0:0:0:0:
320,192,67181,1,0,0:0:0:0:
64,192,67181,1,0,0:0:0:0:
64,192,67381,1,0,0:0:0:0:
192,192,67381,1,0,0:0:0:0:
192,192,67581,1,0,0:0:0:0:
320,192,67781,1,0,0:0:0:0:
448,192,67781,128,0,68081:0:0:0:0:
64,192,67981,1,0,0:0:0:0:
192,192,68114,1,0,0:0:0:0:
448,192,68181,128,0,68481:0:0:0:0:
320,192,68181,1,0,0:0:0:0:
192,192,68314,1,0,0:0:0:0:
64,192,68381,1,0,0:0:0:0:
64,192,68514,1,0,0:0:0:0:
320,192,68581,1,0,0:0:0:0:
448,192,68581,1,0,0:0:0:0:
320,192,68781,1,0,0:0:0:0:
64,192,68781,1,0,0:0:0:0:
192,192,68981,1,0,0:0:0:0:
64,192,68981,1,0,0:0:0:0:
192,192,69181,128,0,69381:0:0:0:0:
448,192,69381,1,0,0:0:0:0:
320,192,69381,1,0,0:0:0:0:
320,192,69581,128,0,69714:0:0:0:0:
64,192,69714,128,0,69847:0:0:0:0:
192,192,69781,1,0,0:0:0:0:
448,192,69781,1,0,0:0:0:0:
320,192,69914,128,0,70047:0:0:0:0:
64,192,69981,1,0,0:0:0:0:
192,192,70114,128,0,70247:0:0:0:0:
448,192,70181,1,0,0:0:0:0:
320,192,70181,1,0,0:0:0:0:
448,192,70314,128,0,70514:0:0:0:0:
320,192,70381,128,0,70514:0:0:0:0:
192,192,70581,1,0,0:0:0:0:
64,192,70581,1,0,0:0:0:0:
320,192,70781,128,0,70981:0:0:0:0:
64,192,70914,1,0,0:0:0:0:
192,192,70981,1,0,0:0:0:0:
448,192,70981,1,0,0:0:0:0:
64,192,71114,128,0,71247:0:0:0:0:
320,192,71181,1,0,0:0:0:0:
448,192,71314,128,0,71447:0:0:0:0:
192,192,71381,1,0,0:0:0:0:
64,192,71381,1,0,0:0:0:0:
320,192,71514,1,0,0:0:0:0:
64,192,71581,1,0,0:0:0:0:
64,192,71714,1,0,0:0:0:0:
320,192,71781,1,0,0:0:0:0:
448,192,71781,1,0,0:0:0:0:
64,192,71981,1,0,0:0:0:0:
320,192,71981,1,0,0:0:0:0:
64,192,72181,1,0,0:0:0:0:
192,192,72181,1,0,0:0:0:0:
192,192,72381,1,0,0:0:0:0:
320,192,72581,1,0,0:0:0:0:
448,192,72581,128,0,72881:0:0:0:0:
192,192,72781,1,0,0:0:0:0:
64,192,72914,1,0,0:0:0:0:
448,192,72981,128,0,73281:0:0:0:0:
320,192,72981,1,0,0:0:0:0:
64,192,73114,1,0,0:0:0:0:
192,192,73181,1,0,0:0:0:0:
192,192,73314,1,0,0:0:0:0:
320,192,73381,1,0,0:0:0:0:
448,192,73381,1,0,0:0:0:0:
320,192,73581,1,0,0:0:0:0:
64,192,73581,1,0,0:0:0:0:
64,192,73781,1,0,0:0:0:0:
192,192,73781,1,0,0:0:0:0:
192,192,73981,1,0,0:0:0:0:
320,192,74181,1,0,0:0:0:0:
448,192,74181,128,0,74481:0:0:0:0:
192,192,74381,1,0,0:0:0:0:
64,192,74514,1,0,0:0:0:0:
448,192,74581,128,0,74881:0:0:0:0:
320,192,74581,1,0,0:0:0:0:
64,192,74714,1,0,0:0:0:0:
192,192,74781,1,0,0:0:0:0:
192,192,74914,1,0,0:0:0:0:
448,192,74981,1,0,0:0:0:0:
320,192,74981,1,0,0:0:0:0:
320,192,75181,1,0,0:0:0:0:
64,192,75181,1,0,0:0:0:0:
192,192,75381,1,0,0:0:0:0:
64,192,75381,1,0,0:0:0:0:
192,192,75581,128,0,75781:0:0:0:0:
448,192,75781,1,0,0:0:0:0:
320,192,75781,1,0,0:0:0:0:
320,192,75981,128,0,76114:0:0:0:0:
64,192,76114,128,0,76247:0:0:0:0:
192,192,76181,1,0,0:0:0:0:
448,192,76181,1,0,0:0:0:0:
320,192,76314,128,0,76447:0:0:0:0:
64,192,76381,1,0,0:0:0:0:
448,192,76514,128,0,76647:0:0:0:0:
64,192,76581,1,0,0:0:0:0:
192,192,76581,1,0,0:0:0:0:
192,192,76714,128,0,76914:0:0:0:0:
320,192,76781,128,0,76914:0:0:0:0:
448,192,76981,1,0,0:0:0:0:
64,192,76981,1,0,0:0:0:0:
192,192,77181,128,0,77381:0:0:0:0:
320,192,77314,1,0,0:0:0:0:
448,192,77381,1,0,0:0:0:0:
64,192,77381,1,0,0:0:0:0:
320,192,77514,128,0,77647:0:0:0:0:
64,192,77581,1,0,0:0:0:0:
192,192,77714,128,0,77847:0:0:0:0:
448,192,77781,1,0,0:0:0:0:
320,192,77781,1,0,0:0:0:0:
64,192,77914,1,0,0:0:0:0:
320,192,77981,1,0,0:0:0:0:
448,192,78114,1,0,0:0:0:0:
64,192,78181,1,0,0:0:0:0:
192,192,78181,1,0,0:0:0:0:
448,192,78381,1,0,0:0:0:0:
192,192,78381,1,0,0:0:0:0:
64,192,78581,128,0,78781:0:0:0:0:
192,192,78681,128,0,78831:0:0:0:0:
320,192,78781,128,0,78981:0:0:0:0:
448,192,78981,1,0,0:0:0:0:
64,192,78981,128,0,79281:0:0:0:0:
448,192,79181,1,0,0:0:0:0:
320,192,79314,1,0,0:0:0:0:
64,192,79381,128,0,79681:0:0:0:0:
192,192,79381,1,0,0:0:0:0:
320,192,79514,1,0,0:0:0:0:
448,192,79581,1,0,0:0:0:0:
448,192,79714,1,0,0:0:0:0:
192,192,79781,1,0,0:0:0:0:
64,192,79781,1,0,0:0:0:0:
192,192,79981,1,0,0:0:0:0:
448,192,79981,1,0,0:0:0:0:
448,192,80181,1,0,0:0:0:0:
320,192,80181,1,0,0:0:0:0:
320,192,80381,1,0,0:0:0:0:
192,192,80581,1,0,0:0:0:0:
64,192,80581,128,0,80881:0:0:0:0:
448,192,80781,1,0,0:0:0:0:
320,192,80914,1,0,0:0:0:0:
64,192,80981,128,0,81281:0:0:0:0:
192,192,80981,1,0,0:0:0:0:
320,192,81114,1,0,0:0:0:0:
448,192,81181,1,0,0:0:0:0:
448,192,81314,1,0,0:0:0:0:
192,192,81381,1,0,0:0:0:0:
64,192,81381,1,0,0:0:0:0:
192,192,81581,1,0,0:0:0:0:
448,192,81581,1,0,0:0:0:0:
320,192,81781,1,0,0:0:0:0:
448,192,81781,1,0,0:0:0:0:
320,192,81981,128,0,82181:0:0:0:0:
64,192,82181,1,0,0:0:0:0:
192,192,82181,1,0,0:0:0:0:
192,192,82381,128,0,82514:0:0:0:0:
448,192,82514,128,0,82647:0:0:0:0:
320,192,82581,1,0,0:0:0:0:
64,192,82581,1,0,0:0:0:0:
192,192,82714,128,0,82847:0:0:0:0:
448,192,82781,1,0,0:0:0:0:
320,192,82914,128,0,83047:0:0:0:0:
64,192,82981,1,0,0:0:0:0:
192,192,82981,1,0,0:0:0:0:
64,192,83114,128,0,83314:0:0:0:0:
192,192,83181,128,0,83314:0:0:0:0:
320,192,83381,1,0,0:0:0:0:
448,192,83381,1,0,0:0:0:0:
192,192,83581,128,0,83781:0:0:0:0:
448,192,83714,1,0,0:0:0:0:
320,192,83781,1,0,0:0:0:0:
64,192,83781,1,0,0:0:0:0:
448,192,83914,128,0,84047:0:0:0:0:
192,192,83981,1,0,0:0:0:0:
64,192,84114,128,0,84247:0:0:0:0:
320,192,84181,1,0,0:0:0:0:
448,192,84181,1,0,0:0:0:0:
192,192,84314,1,0,0:0:0:0:
448,192,84381,1,0,0:0:0:0:
448,192,84514,1,0,0:0:0:0:
192,192,84581,1,0,0:0:0:0:
64,192,84581,1,0,0:0:0:0:
448,192,84781,1,0,0:0:0:0:
192,192,84781,1,0,0:0:0:0:
448,192,84981,1,0,0:0:0:0:
320,192,84981,1,0,0:0:0:0:
320,192,85181,1,0,0:0:0:0:
192,192,85381,1,0,0:0:0:0:
64,192,85381,128,0,85681:0:0:0:0:
320,192,85581,1,0,0:0:0:0:
448,192,85714,1,0,0:0:0:0:
64,192,85781,128,0,86081:0:0:0:0:
192,192,85781,1,0,0:0:0:0:
448,192,85914,1,0,0:0:0:0:
320,192,85981,1,0,0:0:0:0:
320,192,86114,1,0,0:0:0:0:
192,192,86181,1,0,0:0:0:0:
64,192,86181,1,0,0:0:0:0:
192,192,86381,1,0,0:0:0:0:
448,192,86381,1,0,0:0:0:0:
448,192,86581,1,0,0:0:0:0:
320,192,86581,1,0,0:0:0:0:
320,192,86781,1,0,0:0:0:0:
192,192,86981,1,0,0:0:0:0:
64,192,86981,128,0,87281:0:0:0:0:
320,192,87181,1,0,0:0:0:0:
448,192,87314,1,0,0:0:0:0:
64,192,87381,128,0,87681:0:0:0:0:
192,192,87381,1,0,0:0:0:0:
448,192,87514,1,0,0:0:0:0:
320,192,87581,1,0,0:0:0:0:
320,192,87714,1,0,0:0:0:0:
192,192,87781,1,0,0:0:0:0:
64,192,87781,1,0,0:0:0:0:
320,192,87981,1,0,0:0:0:0:
448,192,87981,1,0,0:0:0:0:
192,192,88181,1,0,0:0:0:0:
448,192,88181,1,0,0:0:0:0:
320,192,88381,128,0,88581:0:0:0:0:
64,192,88581,1,0,0:0:0:0:
192,192,88581,1,0,0:0:0:0:
192,192,88781,128,0,88914:0:0:0:0:
448,192,88914,128,0,89047:0:0:0:0:
320,192,88981,1,0,0:0:0:0:
64,192,88981,1,0,0:0:0:0:
192,192,89114,128,0,89247:0:0:0:0:
448,192,89181,1,0,0:0:0:0:
64,192,89314,128,0,89447:0:0:0:0:
448,192,89381,1,0,0:0:0:0:
320,192,89381,1,0,0:0:0:0:
320,192,89514,128,0,89714:0:0:0:0:
192,192,89581,128,0,89714:0:0:0:0:
64,192,89781,1,0,0:0:0:0:
448,192,89781,1,0,0:0:0:0:
320,192,89981,128,0,90181:0:0:0:0:
192,192,90114,1,0,0:0:0:0:
64,192,90181,1,0,0:0:0:0:
448,192,90181,1,0,0:0:0:0:
192,192,90314,1,0,0:0:0:0:
448,192,90381,1,0,0:0:0:0:
192,192,90514,1,0,0:0:0:0:
448,192,90581,1,0,0:0:0:0:
320,192,90581,1,0,0:0:0:0:
64,192,90681,1,0,0:0:0:0:
192,192,90731,1,0,0:0:0:0:
320,192,90781,1,0,0:0:0:0:
448,192,90831,1,0,0:0:0:0:
192,192,90881,1,0,0:0:0:0:
64,192,90931,1,0,0:0:0:0:
448,192,90981,1,0,0:0:0:0:
320,192,90981,128,0,91081:0:0:0:0:
192,192,91181,128,0,91281:0:0:0:0:
448,192,91381,1,0,0:0:0:0:
64,192,91381,1,0,0:0:0:0:
192,192,91514,1,0,0:0:0:0:
320,192,91581,1,0,0:0:0:0:
64,192,91781,1,0,0:0:0:0:
192,192,91781,1,0,0:0:0:0:
448,192,91981,1,0,0:0:0:0:
192,192,92114,1,0,0:0:0:0:
320,192,92181,1,0,0:0:0:0:
320,192,92381,1,0,0:0:0:0:
448,192,92514,1,0,0:0:0:0:
192,192,92581,1,0,0:0:0:0:
64,192,92581,1,0,0:0:0:0:
320,192,92714,1,0,0:0:0:0:
64,192,92781,1,0,0:0:0:0:
192,192,92914,1,0,0:0:0:0:
448,192,92981,128,0,93181:0:0:0:0:
192,192,93181,128,0,93381:0:0:0:0:
448,192,93381,128,0,93581:0:0:0:0:
64,192,93381,1,0,0:0:0:0:
192,192,93581,128,0,93781:0:0:0:0:
320,192,93714,1,0,0:0:0:0:
448,192,93781,1,0,0:0:0:0:
192,192,93981,1,0,0:0:0:0:
320,192,94114,1,0,0:0:0:0:
64,192,94181,1,0,0:0:0:0:
192,192,94181,1,0,0:0:0:0:
64,192,94381,1,0,0:0:0:0:
448,192,94581,1,0,0:0:0:0:
192,192,94714,1,0,0:0:0:0:
448,192,94781,1,0,0:0:0:0:
192,192,94981,1,0,0:0:0:0:
64,192,94981,1,0,0:0:0:0:
320,192,95181,1,0,0:0:0:0:
64,192,95314,1,0,0:0:0:0:
192,192,95381,1,0,0:0:0:0:
192,192,95581,1,0,0:0:0:0:
448,192,95781,1,0,0:0:0:0:
320,192,95781,1,0,0:0:0:0:
64,192,95981,1,0,0:0:0:0:
320,192,96114,1,0,0:0:0:0:
192,192,96181,128,0,96381:0:0:0:0:
448,192,96381,128,0,96581:0:0:0:0:
192,192,96581,128,0,96781:0:0:0:0:
320,192,96581,1,0,0:0:0:0:
448,192,96781,128,0,96981:0:0:0:0:
64,192,96781,1,0,0:0:0:0:
64,192,96981,1,0,0:0:0:0:
320,192,97114,1,0,0:0:0:0:
192,192,97181,1,0,0:0:0:0:
320,192,97381,1,0,0:0:0:0:
448,192,97381,1,0,0:0:0:0:
192,192,97514,1,0,0:0:0:0:
448,192,97581,1,0,0:0:0:0:
320,192,97714,1,0,0:0:0:0:
64,192,97781,128,0,97981:0:0:0:0:
192,192,97981,1,0,0:0:0:0:
64,192,98181,128,0,98381:0:0:0:0:
448,192,98181,1,0,0:0:0:0:
192,192,98381,1,0,0:0:0:0:
448,192,98514,1,0,0:0:0:0:
320,192,98581,128,0,98981:0:0:0:0:
64,192,98781,1,0,0:0:0:0:
192,192,98981,128,0,99181:0:0:0:0:
64,192,99181,128,0,99381:0:0:0:0:
448,192,99381,128,0,99581:0:0:0:0:
320,192,99581,1,0,0:0:0:0:
448,192,99781,128,0,99981:0:0:0:0:
64,192,99781,1,0,0:0:0:0:
320,192,99981,1,0,0:0:0:0:
64,192,100114,1,0,0:0:0:0:
192,192,100181,128,0,100581:0:0:0:0:
448,192,100381,1,0,0:0:0:0:
64,192,100581,1,0,0:0:0:0:
448,192,100581,1,0,0:0:0:0:
64,192,100781,1,0,0:0:0:0:
448,192,100981,1,0,0:0:0:0:
192,192,101114,1,0,0:0:0:0:
320,192,101181,1,0,0:0:0:0:
192,192,101381,1,0,0:0:0:0:
64,192,101381,1,0,0:0:0:0:
448,192,101581,1,0,0:0:0:0:
320,192,101714,1,0,0:0:0:0:
192,192,101781,1,0,0:0:0:0:
448,192,101981,1,0,0:0:0:0:
192,192,102114,1,0,0:0:0:0:
64,192,102181,1,0,0:0:0:0:
320,192,102181,1,0,0:0:0:0:
64,192,102381,1,0,0:0:0:0:
320,192,102514,1,0,0:0:0:0:
448,192,102581,128,0,103181:0:0:0:0:
64,192,102781,1,0,0:0:0:0:
192,192,102881,1,0,0:0:0:0:
320,192,102981,1,0,0:0:0:0:
64,192,103081,1,0,0:0:0:0:
192,192,103181,128,0,103581:0:0:0:0:
448,192,103381,1,0,0:0:0:0:
320,192,103581,1,0,0:0:0:0:
64,192,103781,1,0,0:0:0:0:
448,192,103881,1,0,0:0:0:0:
320,192,103981,1,0,0:0:0:0:
64,192,104181,128,0,104381:0:0:0:0:
192,192,104181,1,0,0:0:0:0:
448,192,104381,1,0,0:0:0:0:
320,192,104581,1,0,0:0:0:0:
64,192,104581,1,0,0:0:0:0:
192,192,104781,128,0,104914:0:0:0:0:
64,192,104914,1,0,0:0:0:0:
320,192,104981,1,0,0:0:0:0:
448,192,104981,1,0,0:0:0:0:
320,192,105181,1,0,0:0:0:0:
64,192,105181,128,0,105381:0:0:0:0:
448,192,105381,128,0,105581:0:0:0:0:
192,192,105381,1,0,0:0:0:0:
192,192,105581,128,0,105781:0:0:0:0:
320,192,105781,1,0,0:0:0:0:
448,192,105781,1,0,0:0:0:0:
64,192,105981,128,0,106181:0:0:0:0:
192,192,106181,1,0,0:0:0:0:
448,192,106181,1,0,0:0:0:0:
320,192,106314,1,0,0:0:0:0:
64,192,106381,1,0,0:0:0:0:
192,192,106514,1,0,0:0:0:0:
320,192,106581,1,0,0:0:0:0:
448,192,106581,1,0,0:0:0:0:
64,192,106781,128,0,106981:0:0:0:0:
320,192,106981,128,0,107081:0:0:0:0:
192,192,106981,1,0,0:0:0:0:
320,192,107181,128,0,107281:0:0:0:0:
192,192,107381,1,0,0:0:0:0:
64,192,107381,1,0,0:0:0:0:
320,192,107514,1,0,0:0:0:0:
64,192,107581,128,0,107714:0:0:0:0:
448,192,107781,1,0,0:0:0:0:
320,192,107781,1,0,0:0:0:0:
192,192,107981,128,0,108181:0:0:0:0:
320,192,108114,1,0,0:0:0:0:
448,192,108181,1,0,0:0:0:0:
64,192,108181,1,0,0:0:0:0:
448,192,108381,128,0,108581:0:0:0:0:
64,192,108514,1,0,0:0:0:0:
192,192,108581,1,0,0:0:0:0:
320,192,108581,1,0,0:0:0:0:
64,192,108781,128,0,108981:0:0:0:0:
320,192,108914,1,0,0:0:0:0:
448,192,108981,1,0,0:0:0:0:
192,192,108981,1,0,0:0:0:0:
320,192,109181,128,0,109381:0:0:0:0:
64,192,109381,1,0,0:0:0:0:
448,192,109381,1,0,0:0:0:0:
192,192,109581,128,0,109781:0:0:0:0:
448,192,109781,1,0,0:0:0:0:
320,192,109781,1,0,0:0:0:0:
64,192,109914,1,0,0:0:0:0:
320,192,109981,1,0,0:0:0:0:
448,192,110114,1,0,0:0:0:0:
192,192,110181,1,0,0:0:0:0:
64,192,110181,1,0,0:0:0:0:
320,192,110381,128,0,110514:0:0:0:0:
64,192,110514,1,0,0:0:0:0:
448,192,110581,1,0,0:0:0:0:
192,192,110581,1,0,0:0:0:0:
320,192,110781,128,0,110981:0:0:0:0:
192,192,110881,128,0,110981:0:0:0:0:
64,192,110981,1,0,0:0:0:0:
448,192,110981,1,0,0:0:0:0:
192,192,111114,1,0,0:0:0:0:
320,192,111181,1,0,0:0:0:0:
448,192,111314,1,0,0:0:0:0:
192,192,111381,1,0,0:0:0:0:
64,192,111381,1,0,0:0:0:0:
320,192,111581,128,0,111781:0:0:0:0:
448,192,111714,1,0,0:0:0:0:
192,192,111781,1,0,0:0:0:0:
64,192,111781,1,0,0:0:0:0:
448,192,111914,1,0,0:0:0:0:
64,192,111981,128,0,112181:0:0:0:0:
192,192,112114,1,0,0:0:0:0:
320,192,112181,1,0,0:0:0:0:
448,192,112181,1,0,0:0:0:0:
192,192,112381,128,0,112514:0:0:0:0:
448,192,112581,1,0,0:0:0:0:
64,192,112581,1,0,0:0:0:0:
320,192,112714,1,0,0:0:0:0:
192,192,112781,1,0,0:0:0:0:
448,192,112914,1,0,0:0:0:0:
192,192,112981,1,0,0:0:0:0:
64,192,112981,1,0,0:0:0:0:
64,192,113181,128,0,113381:0:0:0:0:
320,192,113314,1,0,0:0:0:0:
448,192,113381,1,0,0:0:0:0:
192,192,113381,1,0,0:0:0:0:
320,192,113581,128,0,113781:0:0:0:0:
192,192,113781,1,0,0:0:0:0:
64,192,113781,1,0,0:0:0:0:
64,192,113981,128,0,114114:0:0:0:0:
448,192,114181,1,0,0:0:0:0:
320,192,114181,1,0,0:0:0:0:
192,192,114381,128,0,114581:0:0:0:0:
320,192,114514,1,0,0:0:0:0:
448,192,114581,1,0,0:0:0:0:
64,192,114581,1,0,0:0:0:0:
448,192,114781,128,0,114981:0:0:0:0:
192,192,114914,1,0,0:0:0:0:
320,192,114981,1,0,0:0:0:0:
64,192,114981,1,0,0:0:0:0:
64,192,115181,128,0,115381:0:0:0:0:
320,192,115314,1,0,0:0:0:0:
448,192,115381,1,0,0:0:0:0:
192,192,115381,1,0,0:0:0:0:
320,192,115514,1,0,0:0:0:0:
64,192,115581,1,0,0:0:0:0:
192,192,115681,1,0,0:0:0:0:
448,192,115781,1,0,0:0:0:0:
192,192,115881,5,0,0:0:0:0:
320,192,115981,1,0,0:0:0:0:
64,192,116181,1,0,0:0:0:0:
192,192,116281,1,0,0:0:0:0:
448,192,116381,1,0,0:0:0:0:
320,192,116481,1,0,0:0:0:0:
192,192,116581,1,0,0:0:0:0:
64,192,116681,1,0,0:0:0:0:
320,192,116781,1,0,0:0:0:0:
192,192,116881,1,0,0:0:0:0:
448,192,116981,128,0,117381:0:0:0:0:
320,192,116981,128,0,117181:0:0:0:0:
64,192,116981,1,0,0:0:0:0:
64,192,117381,128,0,117981:0:0:0:0:
320,192,117681,128,0,118581:0:0:0:0:
192,192,117781,1,0,0:0:0:0:
64,192,118181,1,0,0:0:0:0:
192,192,118381,128,0,118581:0:0:0:0:
448,192,118581,128,0,118781:0:0:0:0:
64,192,118581,128,0,118981:0:0:0:0:
320,192,118981,128,0,119381:0:0:0:0:
192,192,118981,1,0,0:0:0:0:
64,192,119281,128,0,119381:0:0:0:0:
192,192,119381,128,0,119781:0:0:0:0:
448,192,119581,128,0,119981:0:0:0:0:
320,192,119781,128,0,120181:0:0:0:0:
192,192,119981,128,0,120181:0:0:0:0:
64,192,120181,128,0,121381:0:0:0:0:
448,192,120181,128,0,120381:0:0:0:0:
320,192,120381,1,0,0:0:0:0:
192,192,120481,1,0,0:0:0:0:
448,192,120581,1,0,0:0:0:0:
320,192,120681,1,0,0:0:0:0:
192,192,120781,1,0,0:0:0:0:
448,192,120881,1,0,0:0:0:0:
320,192,120981,1,0,0:0:0:0:
448,192,121081,1,0,0:0:0:0:
320,192,121181,1,0,0:0:0:0:
192,192,121281,1,0,0:0:0:0:
448,192,121381,1,0,0:0:0:0:
192,192,121481,1,0,0:0:0:0:
320,192,121581,1,0,0:0:0:0:
64,192,121681,1,0,0:0:0:0:
448,192,121781,128,0,122981:0:0:0:0:
320,192,121781,128,0,121981:0:0:0:0:
64,192,121981,128,0,122181:0:0:0:0:
192,192,122181,1,0,0:0:0:0:
320,192,122181,1,0,0:0:0:0:
64,192,122281,1,0,0:0:0:0:
320,192,122381,1,0,0:0:0:0:
192,192,122481,1,0,0:0:0:0:
64,192,122581,1,0,0:0:0:0:
320,192,122681,1,0,0:0:0:0:
192,192,122781,1,0,0:0:0:0:
64,192,122881,1,0,0:0:0:0:
320,192,122981,1,0,0:0:0:0:
64,192,123181,1,0,0:0:0:0:
192,192,123231,1,0,0:0:0:0:
320,192,123281,1,0,0:0:0:0:
448,192,123331,1,0,0:0:0:0:
64,192,123381,128,0,123681:0:0:0:0:
192,192,123381,128,0,123581:0:0:0:0:
448,192,123681,1,0,0:0:0:0:
320,192,123681,1,0,0:0:0:0:
192,192,123781,1,0,0:0:0:0:
64,192,123781,1,0,0:0:0:0:
448,192,123981,1,0,0:0:0:0:
192,192,123981,1,0,0:0:0:0:
320,192,124081,1,0,0:0:0:0:
448,192,124181,1,0,0:0:0:0:
64,192,124181,1,0,0:0:0:0:
448,192,124481,1,0,0:0:0:0:
192,192,124481,1,0,0:0:0:0:
320,192,124581,1,0,0:0:0:0:
64,192,124581,1,0,0:0:0:0:
192,192,124781,1,0,0:0:0:0:
64,192,124781,1,0,0:0:0:0:
448,192,124981,128,0,125281:0:0:0:0:
320,192,124981,128,0,125181:0:0:0:0:
192,192,125281,1,0,0:0:0:0:
64,192,125281,1,0,0:0:0:0:
320,192,125381,1,0,0:0:0:0:
448,192,125381,1,0,0:0:0:0:
320,192,125581,1,0,0:0:0:0:
64,192,125581,1,0,0:0:0:0:
192,192,125681,1,0,0:0:0:0:
64,192,125781,1,0,0:0:0:0:
448,192,125781,1,0,0:0:0:0:
192,192,125981,1,0,0:0:0:0:
64,192,126081,1,0,0:0:0:0:
320,192,126081,1,0,0:0:0:0:
192,192,126181,1,0,0:0:0:0:
448,192,126181,1,0,0:0:0:0:
320,192,126381,1,0,0:0:0:0:
192,192,126381,1,0,0:0:0:0:
448,192,126581,1,0,0:0:0:0:
64,192,126581,1,0,0:0:0:0:
320,192,126681,1,0,0:0:0:0:
192,192,126781,1,0,0:0:0:0:
64,192,126881,1,0,0:0:0:0:
448,192,126981,1,0,0:0:0:0:
320,192,126981,1,0,0:0:0:0:
192,192,127081,1,0,0:0:0:0:
448,192,127181,1,0,0:0:0:0:
320,192,127281,1,0,0:0:0:0:
192,192,127381,1,0,0:0:0:0:
64,192,127381,1,0,0:0:0:0:
320,192,127481,1,0,0:0:0:0:
64,192,127581,1,0,0:0:0:0:
192,192,127681,1,0,0:0:0:0:
320,192,127781,1,0,0:0:0:0:
448,192,127781,1,0,0:0:0:0:
64,192,127881,1,0,0:0:0:0:
192,192,127981,1,0,0:0:0:0:
320,192,128081,1,0,0:0:0:0:
448,192,128181,1,0,0:0:0:0:
64,192,128181,1,0,0:0:0:0:
448,192,128481,1,0,0:0:0:0:
192,192,128781,128,0,128981:0:0:0:0:
448,192,128981,128,0,129181:0:0:0:0:
320,192,129081,1,0,0:0:0:0:
64,192,129181,128,0,129381:0:0:0:0:
320,192,129381,128,0,129481:0:0:0:0:
320,192,129581,128,0,129681:0:0:0:0:
64,192,129781,1,0,0:0:0:0:
192,192,129781,1,0,0:0:0:0:
448,192,129781,1,0,0:0:0:0:
320,192,129981,128,0,130281:0:0:0:0:
192,192,130081,128,0,130181:0:0:0:0:
448,192,130181,128,0,130481:0:0:0:0:
64,192,130181,1,0,0:0:0:0:
64,192,130381,128,0,130481:0:0:0:0:
192,192,130381,128,0,130481:0:0:0:0:
320,192,130581,1,0,0:0:0:0:
64,192,130581,128,0,130781:0:0:0:0:
192,192,130714,128,0,130847:0:0:0:0:
448,192,130781,1,0,0:0:0:0:
320,192,130914,128,0,131047:0:0:0:0:
192,192,130981,1,0,0:0:0:0:
64,192,130981,1,0,0:0:0:0:
448,192,131114,128,0,131247:0:0:0:0:
192,192,131181,128,0,131381:0:0:0:0:
320,192,131381,1,0,0:0:0:0:
448,192,131381,1,0,0:0:0:0:
192,192,131581,128,0,131881:0:0:0:0:
320,192,131681,128,0,131781:0:0:0:0:
64,192,131781,128,0,132081:0:0:0:0:
448,192,131781,1,0,0:0:0:0:
320,192,131981,128,0,132081:0:0:0:0:
448,192,131981,128,0,132081:0:0:0:0:
192,192,132181,1,0,0:0:0:0:
448,192,132181,128,0,132381:0:0:0:0:
320,192,132314,128,0,132447:0:0:0:0:
64,192,132381,1,0,0:0:0:0:
192,192,132514,128,0,132647:0:0:0:0:
320,192,132581,1,0,0:0:0:0:
448,192,132581,1,0,0:0:0:0:
64,192,132714,128,0,132847:0:0:0:0:
320,192,132781,128,0,132981:0:0:0:0:
192,192,132981,1,0,0:0:0:0:
64,192,132981,1,0,0:0:0:0:
320,192,133181,128,0,133481:0:0:0:0:
192,192,133281,128,0,133381:0:0:0:0:
64,192,133381,1,0,0:0:0:0:
448,192,133381,128,0,133681:0:0:0:0:
192,192,133581,128,0,133681:0:0:0:0:
64,192,133581,128,0,133681:0:0:0:0:
64,192,133781,128,0,133981:0:0:0:0:
320,192,133781,1,0,0:0:0:0:
192,192,133914,128,0,134047:0:0:0:0:
448,192,133981,1,0,0:0:0:0:
320,192,134114,128,0,134247:0:0:0:0:
64,192,134181,1,0,0:0:0:0:
192,192,134181,1,0,0:0:0:0:
448,192,134314,128,0,134447:0:0:0:0:
192,192,134381,128,0,134581:0:0:0:0:
448,192,134581,1,0,0:0:0:0:
320,192,134581,1,0,0:0:0:0:
64,192,134781,1,0,0:0:0:0:
192,192,134914,1,0,0:0:0:0:
448,192,134981,1,0,0:0:0:0:
320,192,134981,1,0,0:0:0:0:
64,192,135114,1,0,0:0:0:0:
192,192,135181,128,0,135381:0:0:0:0:
320,192,135314,1,0,0:0:0:0:
448,192,135381,128,0,135481:0:0:0:0:
64,192,135381,1,0,0:0:0:0:
192,192,135514,1,0,0:0:0:0:
448,192,135581,128,0,135681:0:0:0:0:
320,192,135714,1,0,0:0:0:0:
192,192,135781,128,0,135881:0:0:0:0:
448,192,135781,1,0,0:0:0:0:
192,192,135981,128,0,136081:0:0:0:0:
64,192,136114,1,0,0:0:0:0:
448,192,136181,1,0,0:0:0:0:
320,192,136181,1,0,0:0:0:0:
320,192,136381,128,0,136681:0:0:0:0:
192,192,136481,128,0,136581:0:0:0:0:
448,192,136581,128,0,136881:0:0:0:0:
64,192,136581,1,0,0:0:0:0:
64,192,136781,128,0,136881:0:0:0:0:
192,192,136781,128,0,136881:0:0:0:0:
320,192,136981,1,0,0:0:0:0:
64,192,136981,128,0,137181:0:0:0:0:
192,192,137114,128,0,137247:0:0:0:0:
448,192,137181,1,0,0:0:0:0:
320,192,137314,128,0,137447:0:0:0:0:
192,192,137381,1,0,0:0:0:0:
64,192,137381,1,0,0:0:0:0:
448,192,137514,128,0,137647:0:0:0:0:
192,192,137581,128,0,137781:0:0:0:0:
320,192,137781,1,0,0:0:0:0:
64,192,137781,1,0,0:0:0:0:
192,192,137981,128,0,138281:0:0:0:0:
320,192,138081,128,0,138181:0:0:0:0:
448,192,138181,1,0,0:0:0:0:
64,192,138181,128,0,138481:0:0:0:0:
320,192,138381,128,0,138481:0:0:0:0:
448,192,138381,128,0,138481:0:0:0:0:
192,192,138581,1,0,0:0:0:0:
448,192,138581,128,0,138781:0:0:0:0:
320,192,138714,128,0,138847:0:0:0:0:
64,192,138781,1,0,0:0:0:0:
192,192,138914,128,0,139047:0:0:0:0:
320,192,138981,1,0,0:0:0:0:
448,192,138981,1,0,0:0:0:0:
64,192,139114,128,0,139247:0:0:0:0:
320,192,139181,128,0,139381:0:0:0:0:
192,192,139381,1,0,0:0:0:0:
448,192,139381,1,0,0:0:0:0:
320,192,139581,128,0,139881:0:0:0:0:
192,192,139681,128,0,139781:0:0:0:0:
448,192,139781,128,0,140081:0:0:0:0:
64,192,139781,1,0,0:0:0:0:
64,192,139981,128,0,140081:0:0:0:0:
192,192,139981,128,0,140081:0:0:0:0:
64,192,140181,128,0,140381:0:0:0:0:
320,192,140181,1,0,0:0:0:0:
192,192,140314,128,0,140447:0:0:0:0:
448,192,140381,1,0,0:0:0:0:
320,192,140514,128,0,140647:0:0:0:0:
64,192,140581,1,0,0:0:0:0:
192,192,140581,1,0,0:0:0:0:
448,192,140714,128,0,140847:0:0:0:0:
192,192,140781,128,0,140981:0:0:0:0:
64,192,140981,1,0,0:0:0:0:
320,192,140981,1,0,0:0:0:0:
448,192,141181,1,0,0:0:0:0:
320,192,141314,1,0,0:0:0:0:
64,192,141381,1,0,0:0:0:0:
192,192,141381,1,0,0:0:0:0:
448,192,141514,1,0,0:0:0:0:
320,192,141581,128,0,141781:0:0:0:0:
192,192,141714,1,0,0:0:0:0:
64,192,141781,128,0,141881:0:0:0:0:
448,192,141781,1,0,0:0:0:0:
320,192,141914,1,0,0:0:0:0:
448,192,141981,128,0,142081:0:0:0:0:
192,192,142114,1,0,0:0:0:0:
448,192,142181,128,0,142281:0:0:0:0:
64,192,142181,1,0,0:0:0:0:
64,192,142381,128,0,142481:0:0:0:0:
192,192,142514,1,0,0:0:0:0:
448,192,142581,1,0,0:0:0:0:
320,192,142581,128,0,142781:0:0:0:0:
192,192,142714,128,0,142847:0:0:0:0:
64,192,142781,128,0,142981:0:0:0:0:
448,192,142981,128,0,143281:0:0:0:0:
320,192,142981,128,0,143081:0:0:0:0:
192,192,143181,128,0,143281:0:0:0:0:
64,192,143181,128,0,143281:0:0:0:0:
320,192,143381,1,0,0:0:0:0:
64,192,143381,128,0,143581:0:0:0:0:
192,192,143514,128,0,143647:0:0:0:0:
448,192,143581,1,0,0:0:0:0:
320,192,143714,128,0,143847:0:0:0:0:
192,192,143781,1,0,0:0:0:0:
64,192,143781,1,0,0:0:0:0:
448,192,143914,128,0,144047:0:0:0:0:
192,192,143981,128,0,144181:0:0:0:0:
320,192,144181,1,0,0:0:0:0:
448,192,144181,1,0,0:0:0:0:
192,192,144381,128,0,144681:0:0:0:0:
320,192,144481,128,0,144581:0:0:0:0:
448,192,144581,1,0,0:0:0:0:
64,192,144581,128,0,144881:0:0:0:0:
320,192,144781,128,0,144881:0:0:0:0:
448,192,144781,128,0,144881:0:0:0:0:
192,192,144981,1,0,0:0:0:0:
448,192,144981,128,0,145181:0:0:0:0:
320,192,145114,128,0,145247:0:0:0:0:
64,192,145181,1,0,0:0:0:0:
192,192,145314,128,0,145447:0:0:0:0:
320,192,145381,1,0,0:0:0:0:
448,192,145381,1,0,0:0:0:0:
64,192,145514,128,0,145647:0:0:0:0:
320,192,145581,128,0,145781:0:0:0:0:
192,192,145781,1,0,0:0:0:0:
64,192,145781,1,0,0:0:0:0:
320,192,145981,128,0,146281:0:0:0:0:
192,192,146081,128,0,146181:0:0:0:0:
448,192,146181,128,0,146481:0:0:0:0:
64,192,146181,1,0,0:0:0:0:
64,192,146381,128,0,146481:0:0:0:0:
192,192,146381,128,0,146481:0:0:0:0:
64,192,146581,128,0,146781:0:0:0:0:
320,192,146581,1,0,0:0:0:0:
192,192,146714,128,0,146847:0:0:0:0:
448,192,146781,1,0,0:0:0:0:
320,192,146914,128,0,147047:0:0:0:0:
64,192,146981,1,0,0:0:0:0:
192,192,146981,1,0,0:0:0:0:
448,192,147114,128,0,147247:0:0:0:0:
192,192,147181,128,0,147381:0:0:0:0:
448,192,147381,1,0,0:0:0:0:
320,192,147381,1,0,0:0:0:0:
64,192,147581,1,0,0:0:0:0:
192,192,147714,1,0,0:0:0:0:
448,192,147781,1,0,0:0:0:0:
320,192,147781,1,0,0:0:0:0:
64,192,147914,1,0,0:0:0:0:
192,192,147981,128,0,148181:0:0:0:0:
320,192,148114,1,0,0:0:0:0:
448,192,148181,128,0,148281:0:0:0:0:
64,192,148181,1,0,0:0:0:0:
192,192,148314,1,0,0:0:0:0:
448,192,148381,128,0,148481:0:0:0:0:
320,192,148514,1,0,0:0:0:0:
192,192,148581,128,0,148681:0:0:0:0:
448,192,148581,1,0,0:0:0:0:
192,192,148781,128,0,148881:0:0:0:0:
64,192,148914,1,0,0:0:0:0:
448,192,148981,1,0,0:0:0:0:
320,192,148981,1,0,0:0:0:0:
320,192,149181,128,0,149481:0:0:0:0:
192,192,149281,128,0,149381:0:0:0:0:
64,192,149381,1,0,0:0:0:0:
448,192,149381,128,0,149681:0:0:0:0:
192,192,149581,128,0,149681:0:0:0:0:
64,192,149581,128,0,149681:0:0:0:0:
320,192,149781,1,0,0:0:0:0:
64,192,149781,128,0,149981:0:0:0:0:
192,192,149914,128,0,150047:0:0:0:0:
448,192,149981,1,0,0:0:0:0:
320,192,150114,128,0,150247:0:0:0:0:
192,192,150181,1,0,0:0:0:0:
64,192,150181,1,0,0:0:0:0:
448,192,150314,128,0,150447:0:0:0:0:
192,192,150381,128,0,150581:0:0:0:0:
320,192,150581,1,0,0:0:0:0:
64,192,150581,1,0,0:0:0:0:
192,192,150781,128,0,151081:0:0:0:0:
320,192,150881,128,0,150981:0:0:0:0:
64,192,150981,128,0,151281:0:0:0:0:
448,192,150981,1,0,0:0:0:0:
448,192,151181,128,0,151281:0:0:0:0:
320,192,151181,128,0,151281:0:0:0:0:
192,192,151381,1,0,0:0:0:0:
448,192,151381,128,0,151581:0:0:0:0:
320,192,151514,128,0,151647:0:0:0:0:
64,192,151581,1,0,0:0:0:0:
192,192,151714,128,0,151847:0:0:0:0:
320,192,151781,1,0,0:0:0:0:
448,192,151781,1,0,0:0:0:0:
64,192,151914,128,0,152047:0:0:0:0:
320,192,151981,128,0,152181:0:0:0:0:
192,192,152181,1,0,0:0:0:0:
448,192,152181,1,0,0:0:0:0:
320,192,152381,128,0,152681:0:0:0:0:
192,192,152481,128,0,152581:0:0:0:0:
64,192,152581,1,0,0:0:0:0:
448,192,152581,128,0,152881:0:0:0:0:
192,192,152781,128,0,152881:0:0:0:0:
64,192,152781,128,0,152881:0:0:0:0:
64,192,152981,128,0,153181:0:0:0:0:
320,192,152981,1,0,0:0:0:0:
192,192,153114,128,0,153247:0:0:0:0:
448,192,153181,1,0,0:0:0:0:
320,192,153314,128,0,153447:0:0:0:0:
64,192,153381,1,0,0:0:0:0:
192,192,153381,1,0,0:0:0:0:
448,192,153514,128,0,153647:0:0:0:0:
192,192,153581,128,0,153781:0:0:0:0:
64,192,153781,1,0,0:0:0:0:
320,192,153781,1,0,0:0:0:0:
448,192,153981,1,0,0:0:0:0:
320,192,154114,1,0,0:0:0:0:
64,192,154181,1,0,0:0:0:0:
192,192,154181,1,0,0:0:0:0:
192,192,154314,1,0,0:0:0:0:
320,192,154381,1,0,0:0:0:0:
64,192,154514,1,0,0:0:0:0:
448,192,154581,1,0,0:0:0:0:
320,192,154581,1,0,0:0:0:0:
320,192,154714,1,0,0:0:0:0:
192,192,154781,1,0,0:0:0:0:
448,192,154914,1,0,0:0:0:0:
192,192,154981,1,0,0:0:0:0:
64,192,154981,128,0,155081:0:0:0:0:
64,192,155181,128,0,155281:0:0:0:0:
448,192,155314,1,0,0:0:0:0:
64,192,155381,1,0,0:0:0:0:
192,192,155381,1,0,0:0:0:0:
320,192,155514,1,0,0:0:0:0:
192,192,155581,1,0,0:0:0:0:
64,192,155714,1,0,0:0:0:0:
448,192,155781,1,0,0:0:0:0:
320,192,155781,1,0,0:0:0:0:
320,192,155981,1,0,0:0:0:0:
448,192,156114,1,0,0:0:0:0:
192,192,156181,1,0,0:0:0:0:
64,192,156181,1,0,0:0:0:0:
320,192,156314,1,0,0:0:0:0:
192,192,156381,1,0,0:0:0:0:
64,192,156514,1,0,0:0:0:0:
320,192,156581,1,0,0:0:0:0:
448,192,156581,1,0,0:0:0:0:
192,192,156714,1,0,0:0:0:0:
448,192,156781,128,0,156981:0:0:0:0:
192,192,156981,1,0,0:0:0:0:
64,192,156981,128,0,157181:0:0:0:0:
448,192,157114,1,0,0:0:0:0:
320,192,157181,128,0,157381:0:0:0:0:
64,192,157314,1,0,0:0:0:0:
192,192,157381,128,0,157581:0:0:0:0:
448,192,157381,1,0,0:0:0:0:
448,192,157581,128,0,157714:0:0:0:0:
320,192,157714,1,0,0:0:0:0:
192,192,157781,1,0,0:0:0:0:
64,192,157781,1,0,0:0:0:0:
448,192,157914,1,0,0:0:0:0:
320,192,157981,1,0,0:0:0:0:
64,192,158114,1,0,0:0:0:0:
448,192,158181,1,0,0:0:0:0:
320,192,158181,1,0,0:0:0:0:
192,192,158314,1,0,0:0:0:0:
448,192,158381,1,0,0:0:0:0:
320,192,158514,1,0,0:0:0:0:
192,192,158581,1,0,0:0:0:0:
64,192,158581,128,0,158781:0:0:0:0:
448,192,158714,1,0,0:0:0:0:
320,192,158781,1,0,0:0:0:0:
448,192,158914,1,0,0:0:0:0:
192,192,158981,1,0,0:0:0:0:
64,192,158981,1,0,0:0:0:0:
320,192,159114,1,0,0:0:0:0:
64,192,159181,128,0,159314:0:0:0:0:
192,192,159314,1,0,0:0:0:0:
320,192,159381,1,0,0:0:0:0:
448,192,159381,1,0,0:0:0:0:
64,192,159514,1,0,0:0:0:0:
448,192,159581,1,0,0:0:0:0:
192,192,159714,1,0,0:0:0:0:
320,192,159781,1,0,0:0:0:0:
448,192,159781,1,0,0:0:0:0:
64,192,159981,128,0,160181:0:0:0:0:
192,192,160114,1,0,0:0:0:0:
448,192,160181,1,0,0:0:0:0:
320,192,160181,1,0,0:0:0:0:
64,192,160314,1,0,0:0:0:0:
320,192,160381,1,0,0:0:0:0:
192,192,160514,1,0,0:0:0:0:
64,192,160581,1,0,0:0:0:0:
448,192,160581,1,0,0:0:0:0:
320,192,160714,1,0,0:0:0:0:
192,192,160781,128,0,160914:0:0:0:0:
448,192,160914,1,0,0:0:0:0:
320,192,160981,1,0,0:0:0:0:
64,192,160981,1,0,0:0:0:0:
192,192,161114,1,0,0:0:0:0:
448,192,161181,1,0,0:0:0:0:
320,192,161314,1,0,0:0:0:0:
192,192,161381,1,0,0:0:0:0:
64,192,161381,1,0,0:0:0:0:
448,192,161581,1,0,0:0:0:0:
192,192,161581,1,0,0:0:0:0:
448,192,161781,1,0,0:0:0:0:
320,192,161781,1,0,0:0:0:0:
64,192,161914,1,0,0:0:0:0:
320,192,161981,1,0,0:0:0:0:
192,192,162114,1,0,0:0:0:0:
64,192,162181,1,0,0:0:0:0:
448,192,162181,1,0,0:0:0:0:
320,192,162381,1,0,0:0:0:0:
192,192,162514,1,0,0:0:0:0:
448,192,162581,1,0,0:0:0:0:
320,192,162581,1,0,0:0:0:0:
64,192,162714,1,0,0:0:0:0:
448,192,162781,1,0,0:0:0:0:
192,192,162914,1,0,0:0:0:0:
320,192,162981,1,0,0:0:0:0:
448,192,162981,1,0,0:0:0:0:
192,192,163114,1,0,0:0:0:0:
64,192,163181,128,0,163381:0:0:0:0:
320,192,163381,1,0,0:0:0:0:
448,192,163381,128,0,163581:0:0:0:0:
64,192,163514,1,0,0:0:0:0:
192,192,163581,128,0,163781:0:0:0:0:
448,192,163714,1,0,0:0:0:0:
320,192,163781,128,0,163981:0:0:0:0:
64,192,163781,1,0,0:0:0:0:
448,192,163914,1,0,0:0:0:0:
64,192,163981,128,0,164114:0:0:0:0:
192,192,164114,1,0,0:0:0:0:
320,192,164181,1,0,0:0:0:0:
448,192,164181,1,0,0:0:0:0:
192,192,164314,1,0,0:0:0:0:
448,192,164381,1,0,0:0:0:0:
320,192,164514,1,0,0:0:0:0:
192,192,164581,1,0,0:0:0:0:
64,192,164581,1,0,0:0:0:0:
448,192,164714,1,0,0:0:0:0:
320,192,164781,1,0,0:0:0:0:
192,192,164914,1,0,0:0:0:0:
320,192,164981,1,0,0:0:0:0:
448,192,164981,128,0,165181:0:0:0:0:
64,192,165114,1,0,0:0:0:0:
192,192,165181,1,0,0:0:0:0:
320,192,165314,1,0,0:0:0:0:
64,192,165381,1,0,0:0:0:0:
448,192,165381,1,0,0:0:0:0:
320,192,165581,128,0,165714:0:0:0:0:
448,192,165714,1,0,0:0:0:0:
64,192,165781,1,0,0:0:0:0:
192,192,165781,1,0,0:0:0:0:
320,192,165914,1,0,0:0:0:0:
64,192,165981,1,0,0:0:0:0:
192,192,166114,1,0,0:0:0:0:
320,192,166181,1,0,0:0:0:0:
448,192,166181,1,0,0:0:0:0:
64,192,166381,128,0,166581:0:0:0:0:
320,192,166514,1,0,0:0:0:0:
192,192,166581,1,0,0:0:0:0:
448,192,166581,1,0,0:0:0:0:
320,192,166714,1,0,0:0:0:0:
64,192,166781,1,0,0:0:0:0:
192,192,166914,1,0,0:0:0:0:
448,192,166981,1,0,0:0:0:0:
320,192,166981,1,0,0:0:0:0:
64,192,167114,1,0,0:0:0:0:
192,192,167181,128,0,167314:0:0:0:0:
448,192,167314,1,0,0:0:0:0:
64,192,167381,1,0,0:0:0:0:
320,192,167381,1,0,0:0:0:0:
192,192,167514,1,0,0:0:0:0:
448,192,167581,1,0,0:0:0:0:
64,192,167714,1,0,0:0:0:0:
320,192,167781,1,0,0:0:0:0:
448,192,167781,1,0,0:0:0:0:
320,192,167981,1,0,0:0:0:0:
64,192,167981,1,0,0:0:0:0:
448,192,168181,1,0,0:0:0:0:
320,192,168231,1,0,0:0:0:0:
192,192,168281,1,0,0:0:0:0:
64,192,168331,1,0,0:0:0:0:
320,192,168381,1,0,0:0:0:0:
448,192,168431,1,0,0:0:0:0:
192,192,168581,1,0,0:0:0:0:
64,192,168581,1,0,0:0:0:0:
320,192,168781,1,0,0:0:0:0:
448,192,168914,1,0,0:0:0:0:
192,192,168981,1,0,0:0:0:0:
64,192,168981,1,0,0:0:0:0:
320,192,169114,1,0,0:0:0:0:
192,192,169181,1,0,0:0:0:0:
64,192,169314,1,0,0:0:0:0:
320,192,169381,1,0,0:0:0:0:
448,192,169381,1,0,0:0:0:0:
192,192,169514,1,0,0:0:0:0:
448,192,169581,128,0,169781:0:0:0:0:
192,192,169781,1,0,0:0:0:0:
64,192,169781,128,0,169981:0:0:0:0:
448,192,169914,1,0,0:0:0:0:
320,192,169981,128,0,170181:0:0:0:0:
64,192,170114,1,0,0:0:0:0:
192,192,170181,128,0,170381:0:0:0:0:
448,192,170181,1,0,0:0:0:0:
448,192,170381,128,0,170514:0:0:0:0:
320,192,170514,1,0,0:0:0:0:
192,192,170581,1,0,0:0:0:0:
64,192,170581,1,0,0:0:0:0:
448,192,170714,1,0,0:0:0:0:
320,192,170781,1,0,0:0:0:0:
64,192,170914,1,0,0:0:0:0:
448,192,170981,1,0,0:0:0:0:
320,192,170981,1,0,0:0:0:0:
192,192,171114,1,0,0:0:0:0:
448,192,171181,1,0,0:0:0:0:
320,192,171314,1,0,0:0:0:0:
192,192,171381,1,0,0:0:0:0:
64,192,171381,128,0,171581:0:0:0:0:
448,192,171514,1,0,0:0:0:0:
320,192,171581,1,0,0:0:0:0:
448,192,171714,1,0,0:0:0:0:
192,192,171781,1,0,0:0:0:0:
64,192,171781,1,0,0:0:0:0:
320,192,171914,1,0,0:0:0:0:
64,192,171981,128,0,172114:0:0:0:0:
192,192,172114,1,0,0:0:0:0:
320,192,172181,1,0,0:0:0:0:
448,192,172181,1,0,0:0:0:0:
64,192,172314,1,0,0:0:0:0:
448,192,172381,1,0,0:0:0:0:
192,192,172514,1,0,0:0:0:0:
320,192,172581,1,0,0:0:0:0:
448,192,172581,1,0,0:0:0:0:
64,192,172781,128,0,172981:0:0:0:0:
192,192,172914,1,0,0:0:0:0:
448,192,172981,1,0,0:0:0:0:
320,192,172981,1,0,0:0:0:0:
64,192,173114,1,0,0:0:0:0:
320,192,173181,1,0,0:0:0:0:
192,192,173314,1,0,0:0:0:0:
64,192,173381,1,0,0:0:0:0:
448,192,173381,1,0,0:0:0:0:
320,192,173514,1,0,0:0:0:0:
192,192,173581,128,0,173714:0:0:0:0:
448,192,173714,1,0,0:0:0:0:
320,192,173781,1,0,0:0:0:0:
64,192,173781,1,0,0:0:0:0:
192,192,173914,1,0,0:0:0:0:
448,192,173981,1,0,0:0:0:0:
320,192,174114,1,0,0:0:0:0:
192,192,174181,1,0,0:0:0:0:
64,192,174181,1,0,0:0:0:0:
448,192,174381,1,0,0:0:0:0:
192,192,174381,1,0,0:0:0:0:
448,192,174581,1,0,0:0:0:0:
320,192,174581,1,0,0:0:0:0:
64,192,174714,1,0,0:0:0:0:
320,192,174781,1,0,0:0:0:0:
192,192,174914,1,0,0:0:0:0:
64,192,174981,1,0,0:0:0:0:
448,192,174981,1,0,0:0:0:0:
320,192,175181,1,0,0:0:0:0:
192,192,175314,1,0,0:0:0:0:
448,192,175381,1,0,0:0:0:0:
320,192,175381,1,0,0:0:0:0:
64,192,175514,1,0,0:0:0:0:
448,192,175581,1,0,0:0:0:0:
192,192,175714,1,0,0:0:0:0:
320,192,175781,1,0,0:0:0:0:
448,192,175781,1,0,0:0:0:0:
192,192,175914,1,0,0:0:0:0:
64,192,175981,128,0,176181:0:0:0:0:
320,192,176181,1,0,0:0:0:0:
448,192,176181,128,0,176381:0:0:0:0:
64,192,176314,1,0,0:0:0:0:
192,192,176381,128,0,176581:0:0:0:0:
448,192,176514,1,0,0:0:0:0:
320,192,176581,128,0,176781:0:0:0:0:
64,192,176581,1,0,0:0:0:0:
448,192,176714,1,0,0:0:0:0:
64,192,176781,128,0,176914:0:0:0:0:
192,192,176914,1,0,0:0:0:0:
320,192,176981,1,0,0:0:0:0:
448,192,176981,1,0,0:0:0:0:
192,192,177114,1,0,0:0:0:0:
448,192,177181,1,0,0:0:0:0:
320,192,177314,1,0,0:0:0:0:
192,192,177381,1,0,0:0:0:0:
64,192,177381,1,0,0:0:0:0:
448,192,177514,1,0,0:0:0:0:
320,192,177581,1,0,0:0:0:0:
192,192,177714,1,0,0:0:0:0:
320,192,177781,1,0,0:0:0:0:
448,192,177781,128,0,177981:0:0:0:0:
64,192,177914,1,0,0:0:0:0:
192,192,177981,1,0,0:0:0:0:
320,192,178114,1,0,0:0:0:0:
64,192,178181,1,0,0:0:0:0:
448,192,178181,1,0,0:0:0:0:
320,192,178381,128,0,178514:0:0:0:0:
448,192,178514,1,0,0:0:0:0:
64,192,178581,1,0,0:0:0:0:
192,192,178581,1,0,0:0:0:0:
320,192,178714,5,0,0:0:0:0:
64,192,178781,1,0,0:0:0:0:
192,192,178914,1,0,0:0:0:0:
320,192,178981,1,0,0:0:0:0:
448,192,178981,1,0,0:0:0:0:
64,192,179181,128,0,179381:0:0:0:0:
320,192,179314,1,0,0:0:0:0:
192,192,179381,1,0,0:0:0:0:
448,192,179381,1,0,0:0:0:0:
320,192,179514,1,0,0:0:0:0:
64,192,179581,1,0,0:0:0:0:
192,192,179714,1,0,0:0:0:0:
320,192,179781,1,0,0:0:0:0:
448,192,179781,1,0,0:0:0:0:
64,192,179914,1,0,0:0:0:0:
320,192,179981,128,0,180114:0:0:0:0:
192,192,180114,1,0,0:0:0:0:
64,192,180181,1,0,0:0:0:0:
448,192,180181,1,0,0:0:0:0:
192,192,180314,1,0,0:0:0:0:
320,192,180381,1,0,0:0:0:0:
64,192,180514,1,0,0:0:0:0:
192,192,180581,1,0,0:0:0:0:
448,192,180581,1,0,0:0:0:0:
320,192,180781,1,0,0:0:0:0:
64,192,180781,1,0,0:0:0:0:
448,192,180981,128,0,181247:0:0:0:0:
320,192,180981,128,0,181081:0:0:0:0:
64,192,181181,1,0,0:0:0:0:
448,192,181381,128,0,181647:0:0:0:0:
320,192,181381,128,0,181481:0:0:0:0:
192,192,181581,1,0,0:0:0:0:
320,192,181714,1,0,0:0:0:0:
192,192,181781,1,0,0:0:0:0:
64,192,181781,1,0,0:0:0:0:
448,192,181914,1,0,0:0:0:0:
320,192,181981,1,0,0:0:0:0:
64,192,182114,1,0,0:0:0:0:
320,192,182181,1,0,0:0:0:0:
448,192,182181,1,0,0:0:0:0:
448,192,182381,1,0,0:0:0:0:
192,192,182381,1,0,0:0:0:0:
64,192,182581,128,0,182847:0:0:0:0:
192,192,182581,128,0,182681:0:0:0:0:
448,192,182781,1,0,0:0:0:0:
64,192,182981,128,0,183247:0:0:0:0:
192,192,182981,128,0,183081:0:0:0:0:
320,192,183181,1,0,0:0:0:0:
192,192,183314,1,0,0:0:0:0:
320,192,183381,1,0,0:0:0:0:
448,192,183381,1,0,0:0:0:0:
64,192,183514,1,0,0:0:0:0:
448,192,183581,1,0,0:0:0:0:
320,192,183714,1,0,0:0:0:0:
192,192,183781,1,0,0:0:0:0:
64,192,183781,1,0,0:0:0:0:
320,192,183981,1,0,0:0:0:0:
64,192,183981,1,0,0:0:0:0:
192,192,184181,128,0,184447:0:0:0:0:
320,192,184181,128,0,184281:0:0:0:0:
64,192,184381,1,0,0:0:0:0:
192,192,184581,128,0,184847:0:0:0:0:
320,192,184581,128,0,184681:0:0:0:0:
448,192,184781,1,0,0:0:0:0:
320,192,184914,1,0,0:0:0:0:
192,192,184981,1,0,0:0:0:0:
64,192,184981,1,0,0:0:0:0:
448,192,185114,1,0,0:0:0:0:
320,192,185181,1,0,0:0:0:0:
64,192,185314,1,0,0:0:0:0:
320,192,185381,1,0,0:0:0:0:
448,192,185381,1,0,0:0:0:0:
448,192,185581,1,0,0:0:0:0:
64,192,185581,1,0,0:0:0:0:
320,192,185781,128,0,186047:0:0:0:0:
192,192,185781,128,0,185881:0:0:0:0:
64,192,185981,1,0,0:0:0:0:
448,192,186114,1,0,0:0:0:0:
320,192,186181,128,0,186447:0:0:0:0:
192,192,186181,128,0,186281:0:0:0:0:
64,192,186314,1,0,0:0:0:0:
192,192,186381,1,0,0:0:0:0:
64,192,186514,1,0,0:0:0:0:
320,192,186581,1,0,0:0:0:0:
448,192,186581,1,0,0:0:0:0:
192,192,186714,1,0,0:0:0:0:
320,192,186781,1,0,0:0:0:0:
320,192,186914,1,0,0:0:0:0:
448,192,186981,128,0,187181:0:0:0:0:
64,192,186981,1,0,0:0:0:0:
64,192,187181,128,0,187381:0:0:0:0:
192,192,187181,1,0,0:0:0:0:
448,192,187381,128,0,187647:0:0:0:0:
320,192,187381,128,0,187481:0:0:0:0:
64,192,187581,1,0,0:0:0:0:
448,192,187781,128,0,188047:0:0:0:0:
320,192,187781,128,0,187881:0:0:0:0:
192,192,187981,1,0,0:0:0:0:
320,192,188114,1,0,0:0:0:0:
192,192,188181,1,0,0:0:0:0:
64,192,188181,1,0,0:0:0:0:
448,192,188314,1,0,0:0:0:0:
320,192,188381,1,0,0:0:0:0:
64,192,188514,1,0,0:0:0:0:
320,192,188581,1,0,0:0:0:0:
448,192,188581,1,0,0:0:0:0:
448,192,188781,1,0,0:0:0:0:
192,192,188781,1,0,0:0:0:0:
64,192,188981,128,0,189247:0:0:0:0:
192,192,188981,128,0,189081:0:0:0:0:
448,192,189181,1,0,0:0:0:0:
64,192,189381,128,0,189647:0:0:0:0:
192,192,189381,128,0,189481:0:0:0:0:
320,192,189581,1,0,0:0:0:0:
192,192,189714,1,0,0:0:0:0:
320,192,189781,1,0,0:0:0:0:
448,192,189781,1,0,0:0:0:0:
64,192,189914,1,0,0:0:0:0:
448,192,189981,1,0,0:0:0:0:
320,192,190114,1,0,0:0:0:0:
192,192,190181,1,0,0:0:0:0:
64,192,190181,1,0,0:0:0:0:
320,192,190381,1,0,0:0:0:0:
64,192,190381,1,0,0:0:0:0:
192,192,190581,128,0,190847:0:0:0:0:
320,192,190581,128,0,190681:0:0:0:0:
64,192,190781,1,0,0:0:0:0:
192,192,190981,128,0,191247:0:0:0:0:
320,192,190981,128,0,191081:0:0:0:0:
448,192,191181,1,0,0:0:0:0:
320,192,191314,1,0,0:0:0:0:
192,192,191381,1,0,0:0:0:0:
64,192,191381,1,0,0:0:0:0:
448,192,191514,1,0,0:0:0:0:
320,192,191581,1,0,0:0:0:0:
64,192,191714,1,0,0:0:0:0:
320,192,191781,1,0,0:0:0:0:
448,192,191781,1,0,0:0:0:0:
448,192,191981,1,0,0:0:0:0:
64,192,191981,1,0,0:0:0:0:
320,192,192181,128,0,192447:0:0:0:0:
192,192,192181,128,0,192281:0:0:0:0:
64,192,192381,1,0,0:0:0:0:
448,192,192514,1,0,0:0:0:0:
320,192,192581,128,0,192847:0:0:0:0:
192,192,192581,128,0,192681:0:0:0:0:
64,192,192714,1,0,0:0:0:0:
192,192,192781,1,0,0:0:0:0:
64,192,192914,1,0,0:0:0:0:
320,192,192981,1,0,0:0:0:0:
448,192,192981,1,0,0:0:0:0:
192,192,193114,1,0,0:0:0:0:
320,192,193181,1,0,0:0:0:0:
320,192,193314,1,0,0:0:0:0:
64,192,193381,128,0,193581:0:0:0:0:
448,192,193381,1,0,0:0:0:0:
448,192,193581,128,0,193781:0:0:0:0:
320,192,193581,1,0,0:0:0:0:
64,192,193781,1,0,0:0:0:0:
192,192,193831,1,0,0:0:0:0:
320,192,193881,1,0,0:0:0:0:
448,192,193931,1,0,0:0:0:0:
192,192,193981,1,0,0:0:0:0:
64,192,194031,1,0,0:0:0:0:
448,192,194181,128,0,194447:0:0:0:0:
320,192,194181,128,0,194281:0:0:0:0:
64,192,194381,1,0,0:0:0:0:
192,192,194581,1,0,0:0:0:0:
64,192,194581,1,0,0:0:0:0:
320,192,194781,1,0,0:0:0:0:
64,192,194914,1,0,0:0:0:0:
320,192,194981,1,0,0:0:0:0:
448,192,194981,1,0,0:0:0:0:
448,192,195181,1,0,0:0:0:0:
192,192,195181,1,0,0:0:0:0:
64,192,195381,128,0,195647:0:0:0:0:
192,192,195381,128,0,195481:0:0:0:0:
448,192,195581,1,0,0:0:0:0:
64,192,195781,128,0,196047:0:0:0:0:
192,192,195781,128,0,195881:0:0:0:0:
320,192,195981,1,0,0:0:0:0:
320,192,196181,1,0,0:0:0:0:
64,192,196181,1,0,0:0:0:0:
192,192,196381,1,0,0:0:0:0:
448,192,196514,1,0,0:0:0:0:
320,192,196581,1,0,0:0:0:0:
64,192,196581,1,0,0:0:0:0:
448,192,196781,1,0,0:0:0:0:
192,192,196781,1,0,0:0:0:0:
192,192,196981,128,0,197247:0:0:0:0:
320,192,196981,128,0,197081:0:0:0:0:
64,192,197181,1,0,0:0:0:0:
192,192,197381,128,0,197647:0:0:0:0:
320,192,197381,128,0,197481:0:0:0:0:
448,192,197581,1,0,0:0:0:0:
448,192,197781,1,0,0:0:0:0:
64,192,197781,1,0,0:0:0:0:
192,192,197981,1,0,0:0:0:0:
64,192,198114,1,0,0:0:0:0:
320,192,198181,1,0,0:0:0:0:
448,192,198181,1,0,0:0:0:0:
448,192,198381,1,0,0:0:0:0:
64,192,198381,1,0,0:0:0:0:
320,192,198581,128,0,198847:0:0:0:0:
192,192,198581,128,0,198681:0:0:0:0:
64,192,198781,1,0,0:0:0:0:
320,192,198981,128,0,199247:0:0:0:0:
192,192,198981,128,0,199081:0:0:0:0:
64,192,199181,1,0,0:0:0:0:
320,192,199381,1,0,0:0:0:0:
448,192,199381,1,0,0:0:0:0:
192,192,199581,1,0,0:0:0:0:
320,192,199714,1,0,0:0:0:0:
448,192,199781,128,0,199981:0:0:0:0:
64,192,199781,1,0,0:0:0:0:
64,192,199981,128,0,200181:0:0:0:0:
192,192,199981,1,0,0:0:0:0:
448,192,200181,128,0,200447:0:0:0:0:
320,192,200181,128,0,200281:0:0:0:0:
192,192,200381,1,0,0:0:0:0:
448,192,200581,128,0,200847:0:0:0:0:
320,192,200581,128,0,200681:0:0:0:0:
64,192,200781,1,0,0:0:0:0:
192,192,200981,1,0,0:0:0:0:
64,192,200981,1,0,0:0:0:0:
320,192,201181,1,0,0:0:0:0:
64,192,201314,1,0,0:0:0:0:
320,192,201381,1,0,0:0:0:0:
448,192,201381,1,0,0:0:0:0:
448,192,201581,1,0,0:0:0:0:
192,192,201581,1,0,0:0:0:0:
64,192,201781,128,0,202047:0:0:0:0:
192,192,201781,128,0,201881:0:0:0:0:
448,192,201981,1,0,0:0:0:0:
64,192,202181,128,0,202447:0:0:0:0:
192,192,202181,128,0,202281:0:0:0:0:
320,192,202381,1,0,0:0:0:0:
320,192,202581,1,0,0:0:0:0:
64,192,202581,1,0,0:0:0:0:
192,192,202781,1,0,0:0:0:0:
448,192,202914,1,0,0:0:0:0:
320,192,202981,1,0,0:0:0:0:
64,192,202981,1,0,0:0:0:0:
448,192,203181,1,0,0:0:0:0:
192,192,203181,1,0,0:0:0:0:
192,192,203381,128,0,203647:0:0:0:0:
320,192,203381,128,0,203481:0:0:0:0:
64,192,203581,1,0,0:0:0:0:
192,192,203781,128,0,204047:0:0:0:0:
320,192,203781,128,0,203881:0:0:0:0:
448,192,203981,1,0,0:0:0:0:
448,192,204181,1,0,0:0:0:0:
64,192,204181,1,0,0:0:0:0:
192,192,204381,1,0,0:0:0:0:
64,192,204514,1,0,0:0:0:0:
320,192,204581,1,0,0:0:0:0:
448,192,204581,1,0,0:0:0:0:
448,192,204781,1,0,0:0:0:0:
64,192,204781,1,0,0:0:0:0:
320,192,204981,128,0,205247:0:0:0:0:
192,192,204981,128,0,205081:0:0:0:0:
64,192,205181,1,0,0:0:0:0:
320,192,205381,128,0,205647:0:0:0:0:
192,192,205381,1,0,0:0:0:0:
64,192,205581,1,0,0:0:0:0:
448,192,205781,1,0,0:0:0:0:
192,192,205981,1,0,0:0:0:0:
320,192,206114,1,0,0:0:0:0:
64,192,206181,128,0,206281:0:0:0:0:
64,192,206381,128,0,206581:0:0:0:0:
320,192,206581,1,0,0:0:0:0:
448,192,206581,1,0,0:0:0:0:
