osu file format v14

[General]
AudioFilename: audio.mp3
AudioLeadIn: 0
PreviewTime: 38581
Countdown: 0
SampleSet: Soft
StackLeniency: 0.7
Mode: 3
LetterboxInBreaks: 0
SpecialStyle: 0
WidescreenStoryboard: 1

[Editor]
Bookmarks: 14581,27381,40181,65781,91381,104181,116981,129781,155381,180981,193781,206581
DistanceSpacing: 2.4
BeatDivisor: 4
GridSize: 8
TimelineZoom: 2.3

[Metadata]
Title:Gloomy Flash feat. mami
TitleUnicode:Gloomy Flash feat. mami
Artist:Zekk & poplavor
ArtistUnicode:Zekk & poplavor
Creator:AelSan
Version:Easy
Source:
Tags:fa featured artist mg mappers' guild electronic japanese speed garage SPD GAR 002 megarex hybrid ln long note muse dash retrocity retro city
BeatmapID:4364548
BeatmapSetID:2025404

[Difficulty]
HPDrainRate:6
CircleSize:4
OverallDifficulty:6
ApproachRate:5
SliderMultiplier:1.4
SliderTickRate:1

[Events]
//Background and Video events
0,0,"83319109_p0.jpg",0,0
//Break Periods
//Storyboard Layer 0 (Background)
//Storyboard Layer 1 (Fail)
//Storyboard Layer 2 (Pass)
//Storyboard Layer 3 (Foreground)
//Storyboard Layer 4 (Overlay)
//Storyboard Sound Samples

[TimingPoints]
1781,400,4,2,1,40,1,0

[HitObjects]
64,192,1781,128,0,2181:0:0:0:0:
448,192,1781,1,0,0:0:0:0:
320,192,2181,1,0,0:0:0:0:
448,192,2581,128,0,2981:0:0:0:0:
192,192,2981,128,0,3381:0:0:0:0:
320,192,3381,128,0,3981:0:0:0:0:
64,192,3981,1,0,0:0:0:0:
448,192,4581,128,0,4981:0:0:0:0:
192,192,4981,128,0,5381:0:0:0:0:
320,192,4981,1,0,0:0:0:0:
448,192,5381,1,0,0:0:0:0:
320,192,5781,128,0,6181:0:0:0:0:
64,192,6181,128,0,6581:0:0:0:0:
320,192,6581,128,0,7181:0:0:0:0:
192,192,7181,1,0,0:0:0:0:
64,192,7581,1,0,0:0:0:0:
448,192,7781,1,0,0:0:0:0:
64,192,8181,128,0,8581:0:0:0:0:
448,192,8181,1,0,0:0:0:0:
320,192,8581,1,0,0:0:0:0:
192,192,8981,1,0,0:0:0:0:
320,192,9181,1,0,0:0:0:0:
448,192,9781,128,0,10181:0:0:0:0:
64,192,9781,1,0,0:0:0:0:
192,192,10181,1,0,0:0:0:0:
320,192,10581,1,0,0:0:0:0:
192,192,10781,1,0,0:0:0:0:
448,192,11181,1,0,0:0:0:0:
64,192,11381,128,0,11781:0:0:0:0:
320,192,11381,1,0,0:0:0:0:
320,192,11781,128,0,12181:0:0:0:0:
64,192,12181,128,0,12581:0:0:0:0:
448,192,12581,128,0,12981:0:0:0:0:
192,192,12981,128,0,13581:0:0:0:0:
320,192,13581,128,0,14181:0:0:0:0:
64,192,14181,1,0,0:0:0:0:
192,192,14581,1,0,0:0:0:0:
448,192,14581,128,0,14981:0:0:0:0:
320,192,14981,128,0,15381:0:0:0:0:
64,192,14981,1,0,0:0:0:0:
192,192,15381,1,0,0:0:0:0:
320,192,15781,1,0,0:0:0:0:
64,192,15781,1,0,0:0:0:0:
192,192,16181,128,0,16581:0:0:0:0:
320,192,16581,128,0,16981:0:0:0:0:
448,192,16581,1,0,0:0:0:0:
64,192,16981,1,0,0:0:0:0:
192,192,17381,128,0,17781:0:0:0:0:
448,192,17381,1,0,0:0:0:0:
448,192,17781,128,0,18181:0:0:0:0:
320,192,18181,1,0,0:0:0:0:
64,192,18181,1,0,0:0:0:0:
192,192,18381,128,0,18981:0:0:0:0:
448,192,18581,1,0,0:0:0:0:
320,192,18981,1,0,0:0:0:0:
448,192,18981,1,0,0:0:0:0:
64,192,19381,128,0,19781:0:0:0:0:
320,192,19781,128,0,20181:0:0:0:0:
448,192,19781,1,0,0:0:0:0:
64,192,20181,1,0,0:0:0:0:
448,192,20581,1,0,0:0:0:0:
320,192,20581,1,0,0:0:0:0:
192,192,20981,128,0,21381:0:0:0:0:
320,192,21381,128,0,21781:0:0:0:0:
64,192,21381,1,0,0:0:0:0:
192,192,21781,128,0,22181:0:0:0:0:
448,192,22181,1,0,0:0:0:0:
320,192,22181,1,0,0:0:0:0:
320,192,22581,128,0,22981:0:0:0:0:
192,192,22981,128,0,23381:0:0:0:0:
448,192,22981,1,0,0:0:0:0:
448,192,23381,128,0,23781:0:0:0:0:
64,192,23781,1,0,0:0:0:0:
192,192,23781,1,0,0:0:0:0:
320,192,24181,128,0,24581:0:0:0:0:
64,192,24581,128,0,24981:0:0:0:0:
448,192,24581,1,0,0:0:0:0:
320,192,24981,1,0,0:0:0:0:
448,192,25381,1,0,0:0:0:0:
320,192,25381,1,0,0:0:0:0:
192,192,25781,128,0,26381:0:0:0:0:
320,192,26381,128,0,26981:0:0:0:0:
64,192,27381,1,0,0:0:0:0:
448,192,27381,1,0,0:0:0:0:
192,192,27781,128,0,28181:0:0:0:0:
448,192,28181,128,0,28781:0:0:0:0:
64,192,28781,1,0,0:0:0:0:
448,192,28981,1,0,0:0:0:0:
320,192,28981,1,0,0:0:0:0:
192,192,29381,128,0,29781:0:0:0:0:
64,192,29381,1,0,0:0:0:0:
448,192,29781,128,0,30181:0:0:0:0:
64,192,30181,128,0,30581:0:0:0:0:
320,192,30581,1,0,0:0:0:0:
448,192,30581,128,0,31781:0:0:0:0:
192,192,31381,1,0,0:0:0:0:
320,192,31981,1,0,0:0:0:0:
64,192,32181,128,0,33381:0:0:0:0:
448,192,32181,1,0,0:0:0:0:
320,192,32581,1,0,0:0:0:0:
448,192,32981,1,0,0:0:0:0:
192,192,33381,1,0,0:0:0:0:
320,192,33781,1,0,0:0:0:0:
448,192,33781,1,0,0:0:0:0:
320,192,34181,128,0,34581:0:0:0:0:
64,192,34181,1,0,0:0:0:0:
64,192,34581,128,0,35181:0:0:0:0:
448,192,34581,1,0,0:0:0:0:
320,192,34981,1,0,0:0:0:0:
448,192,35181,1,0,0:0:0:0:
192,192,35381,1,0,0:0:0:0:
64,192,35381,1,0,0:0:0:0:
320,192,35781,128,0,36181:0:0:0:0:
448,192,35781,1,0,0:0:0:0:
448,192,36181,128,0,36581:0:0:0:0:
64,192,36181,1,0,0:0:0:0:
64,192,36581,128,0,36981:0:0:0:0:
192,192,36581,1,0,0:0:0:0:
448,192,36981,1,0,0:0:0:0:
320,192,36981,1,0,0:0:0:0:
192,192,37181,1,0,0:0:0:0:
448,192,37381,1,0,0:0:0:0:
320,192,37581,1,0,0:0:0:0:
192,192,37781,1,0,0:0:0:0:
64,192,37781,128,0,38181:0:0:0:0:
448,192,38181,128,0,38581:0:0:0:0:
192,192,38581,1,0,0:0:0:0:
64,192,38581,1,0,0:0:0:0:
192,192,39181,1,0,0:0:0:0:
448,192,39381,1,0,0:0:0:0:
320,192,39581,1,0,0:0:0:0:
64,192,39781,1,0,0:0:0:0:
448,192,40181,1,0,0:0:0:0:
320,192,40181,1,0,0:0:0:0:
64,192,40381,1,0,0:0:0:0:
448,192,40581,128,0,40981:0:0:0:0:
192,192,40581,1,0,0:0:0:0:
192,192,40981,128,0,41381:0:0:0:0:
448,192,41381,1,0,0:0:0:0:
320,192,41381,1,0,0:0:0:0:
320,192,41581,1,0,0:0:0:0:
64,192,41781,1,0,0:0:0:0:
448,192,41981,1,0,0:0:0:0:
320,192,42181,1,0,0:0:0:0:
64,192,42181,128,0,42581:0:0:0:0:
320,192,42581,128,0,42981:0:0:0:0:
192,192,42981,1,0,0:0:0:0:
64,192,42981,1,0,0:0:0:0:
192,192,43181,1,0,0:0:0:0:
448,192,43381,1,0,0:0:0:0:
64,192,43581,1,0,0:0:0:0:
448,192,43781,128,0,44181:0:0:0:0:
192,192,43781,1,0,0:0:0:0:
192,192,44181,128,0,44581:0:0:0:0:
448,192,44581,1,0,0:0:0:0:
320,192,44581,1,0,0:0:0:0:
320,192,44781,1,0,0:0:0:0:
64,192,44981,1,0,0:0:0:0:
448,192,45381,1,0,0:0:0:0:
64,192,45381,1,0,0:0:0:0:
320,192,45581,1,0,0:0:0:0:
64,192,45781,128,0,46181:0:0:0:0:
320,192,46181,128,0,46581:0:0:0:0:
448,192,46181,1,0,0:0:0:0:
192,192,46581,1,0,0:0:0:0:
448,192,46781,1,0,0:0:0:0:
64,192,46981,128,0,47381:0:0:0:0:
320,192,46981,1,0,0:0:0:0:
320,192,47381,128,0,47781:0:0:0:0:
64,192,47781,1,0,0:0:0:0:
192,192,47781,1,0,0:0:0:0:
192,192,47981,1,0,0:0:0:0:
448,192,48181,1,0,0:0:0:0:
64,192,48381,1,0,0:0:0:0:
192,192,48581,1,0,0:0:0:0:
448,192,48581,128,0,48981:0:0:0:0:
192,192,48981,128,0,49381:0:0:0:0:
320,192,49381,1,0,0:0:0:0:
448,192,49381,1,0,0:0:0:0:
320,192,49581,1,0,0:0:0:0:
64,192,49781,1,0,0:0:0:0:
448,192,49981,1,0,0:0:0:0:
64,192,50181,128,0,50581:0:0:0:0:
320,192,50181,1,0,0:0:0:0:
320,192,50581,128,0,50981:0:0:0:0:
64,192,50981,1,0,0:0:0:0:
192,192,50981,1,0,0:0:0:0:
192,192,51181,1,0,0:0:0:0:
320,192,51381,1,0,0:0:0:0:
64,192,51781,1,0,0:0:0:0:
448,192,51781,1,0,0:0:0:0:
192,192,51981,1,0,0:0:0:0:
448,192,52181,128,0,52581:0:0:0:0:
192,192,52581,128,0,52981:0:0:0:0:
64,192,52581,1,0,0:0:0:0:
448,192,52981,128,0,53381:0:0:0:0:
64,192,53381,128,0,53781:0:0:0:0:
320,192,53381,1,0,0:0:0:0:
192,192,53781,128,0,54181:0:0:0:0:
320,192,54181,1,0,0:0:0:0:
448,192,54181,1,0,0:0:0:0:
320,192,54381,1,0,0:0:0:0:
64,192,54581,1,0,0:0:0:0:
448,192,54781,1,0,0:0:0:0:
64,192,54981,128,0,55381:0:0:0:0:
320,192,54981,1,0,0:0:0:0:
320,192,55381,128,0,55781:0:0:0:0:
64,192,55781,1,0,0:0:0:0:
192,192,55781,1,0,0:0:0:0:
192,192,55981,1,0,0:0:0:0:
448,192,56181,1,0,0:0:0:0:
64,192,56381,1,0,0:0:0:0:
192,192,56581,1,0,0:0:0:0:
448,192,56581,128,0,56981:0:0:0:0:
192,192,56981,128,0,57381:0:0:0:0:
320,192,57381,1,0,0:0:0:0:
448,192,57381,1,0,0:0:0:0:
320,192,57581,1,0,0:0:0:0:
192,192,57781,1,0,0:0:0:0:
64,192,58181,1,0,0:0:0:0:
448,192,58181,1,0,0:0:0:0:
320,192,58381,1,0,0:0:0:0:
64,192,58581,128,0,58981:0:0:0:0:
320,192,58981,128,0,59381:0:0:0:0:
448,192,58981,1,0,0:0:0:0:
192,192,59381,1,0,0:0:0:0:
448,192,59581,1,0,0:0:0:0:
64,192,59781,128,0,60181:0:0:0:0:
320,192,59781,1,0,0:0:0:0:
320,192,60181,128,0,60581:0:0:0:0:
64,192,60581,1,0,0:0:0:0:
192,192,60581,1,0,0:0:0:0:
192,192,60781,1,0,0:0:0:0:
448,192,60981,1,0,0:0:0:0:
64,192,61181,1,0,0:0:0:0:
192,192,61381,1,0,0:0:0:0:
448,192,61381,128,0,61781:0:0:0:0:
192,192,61781,128,0,62181:0:0:0:0:
320,192,62181,1,0,0:0:0:0:
448,192,62181,1,0,0:0:0:0:
320,192,62381,1,0,0:0:0:0:
64,192,62581,1,0,0:0:0:0:
448,192,62781,1,0,0:0:0:0:
64,192,62981,128,0,63381:0:0:0:0:
320,192,62981,1,0,0:0:0:0:
320,192,63381,128,0,63781:0:0:0:0:
64,192,63781,1,0,0:0:0:0:
192,192,63781,1,0,0:0:0:0:
192,192,63981,1,0,0:0:0:0:
320,192,64181,1,0,0:0:0:0:
64,192,64581,1,0,0:0:0:0:
448,192,64581,1,0,0:0:0:0:
192,192,64781,1,0,0:0:0:0:
448,192,64981,1,0,0:0:0:0:
64,192,65381,128,0,65781:0:0:0:0:
320,192,65381,1,0,0:0:0:0:
448,192,65781,1,0,0:0:0:0:
192,192,65781,1,0,0:0:0:0:
320,192,66181,1,0,0:0:0:0:
64,192,66181,128,0,66581:0:0:0:0:
320,192,66581,128,0,66981:0:0:0:0:
64,192,66981,1,0,0:0:0:0:
192,192,66981,1,0,0:0:0:0:
448,192,67181,1,0,0:0:0:0:
320,192,67381,1,0,0:0:0:0:
320,192,67781,1,0,0:0:0:0:
64,192,67781,128,0,68181:0:0:0:0:
320,192,68181,128,0,68581:0:0:0:0:
64,192,68581,1,0,0:0:0:0:
192,192,68581,1,0,0:0:0:0:
448,192,68781,1,0,0:0:0:0:
64,192,68981,1,0,0:0:0:0:
192,192,69181,1,0,0:0:0:0:
448,192,69381,1,0,0:0:0:0:
320,192,69381,1,0,0:0:0:0:
64,192,69781,1,0,0:0:0:0:
448,192,70181,1,0,0:0:0:0:
320,192,70181,1,0,0:0:0:0:
192,192,70381,1,0,0:0:0:0:
64,192,70581,1,0,0:0:0:0:
320,192,70781,1,0,0:0:0:0:
192,192,70981,1,0,0:0:0:0:
64,192,70981,1,0,0:0:0:0:
448,192,71381,1,0,0:0:0:0:
320,192,71781,1,0,0:0:0:0:
192,192,71781,128,0,72181:0:0:0:0:
448,192,72181,1,0,0:0:0:0:
64,192,72181,1,0,0:0:0:0:
320,192,72581,1,0,0:0:0:0:
64,192,72581,128,0,72981:0:0:0:0:
320,192,72981,128,0,73381:0:0:0:0:
64,192,73381,1,0,0:0:0:0:
192,192,73381,1,0,0:0:0:0:
448,192,73581,1,0,0:0:0:0:
192,192,73781,1,0,0:0:0:0:
320,192,74181,1,0,0:0:0:0:
64,192,74181,128,0,74581:0:0:0:0:
320,192,74581,128,0,74981:0:0:0:0:
64,192,74981,1,0,0:0:0:0:
192,192,74981,1,0,0:0:0:0:
448,192,75181,1,0,0:0:0:0:
64,192,75381,1,0,0:0:0:0:
192,192,75581,1,0,0:0:0:0:
448,192,75781,1,0,0:0:0:0:
320,192,75781,1,0,0:0:0:0:
64,192,76181,1,0,0:0:0:0:
448,192,76581,1,0,0:0:0:0:
320,192,76581,1,0,0:0:0:0:
192,192,76781,1,0,0:0:0:0:
64,192,76981,1,0,0:0:0:0:
320,192,77181,1,0,0:0:0:0:
192,192,77381,1,0,0:0:0:0:
64,192,77381,1,0,0:0:0:0:
448,192,77781,1,0,0:0:0:0:
320,192,78181,1,0,0:0:0:0:
192,192,78181,128,0,78581:0:0:0:0:
64,192,78581,1,0,0:0:0:0:
192,192,78981,1,0,0:0:0:0:
448,192,78981,128,0,79381:0:0:0:0:
192,192,79381,128,0,79781:0:0:0:0:
448,192,79781,1,0,0:0:0:0:
320,192,79781,1,0,0:0:0:0:
64,192,79981,1,0,0:0:0:0:
320,192,80181,1,0,0:0:0:0:
192,192,80581,1,0,0:0:0:0:
448,192,80581,128,0,80981:0:0:0:0:
192,192,80981,128,0,81381:0:0:0:0:
448,192,81381,1,0,0:0:0:0:
320,192,81381,1,0,0:0:0:0:
64,192,81581,1,0,0:0:0:0:
448,192,81781,1,0,0:0:0:0:
320,192,81981,1,0,0:0:0:0:
64,192,82181,1,0,0:0:0:0:
192,192,82181,1,0,0:0:0:0:
448,192,82581,1,0,0:0:0:0:
64,192,82981,1,0,0:0:0:0:
192,192,82981,1,0,0:0:0:0:
320,192,83181,1,0,0:0:0:0:
448,192,83381,1,0,0:0:0:0:
192,192,83581,1,0,0:0:0:0:
320,192,83781,1,0,0:0:0:0:
448,192,83781,1,0,0:0:0:0:
64,192,84181,1,0,0:0:0:0:
192,192,84581,1,0,0:0:0:0:
320,192,84581,128,0,84981:0:0:0:0:
64,192,84981,1,0,0:0:0:0:
448,192,84981,1,0,0:0:0:0:
192,192,85381,1,0,0:0:0:0:
448,192,85381,128,0,85781:0:0:0:0:
192,192,85781,128,0,86181:0:0:0:0:
448,192,86181,1,0,0:0:0:0:
320,192,86181,1,0,0:0:0:0:
64,192,86381,1,0,0:0:0:0:
320,192,86581,1,0,0:0:0:0:
192,192,86981,1,0,0:0:0:0:
448,192,86981,128,0,87381:0:0:0:0:
192,192,87381,128,0,87781:0:0:0:0:
448,192,87781,1,0,0:0:0:0:
320,192,87781,1,0,0:0:0:0:
448,192,87981,1,0,0:0:0:0:
64,192,88181,1,0,0:0:0:0:
320,192,88381,1,0,0:0:0:0:
64,192,88581,1,0,0:0:0:0:
192,192,88581,1,0,0:0:0:0:
448,192,88981,1,0,0:0:0:0:
64,192,89381,1,0,0:0:0:0:
192,192,89381,1,0,0:0:0:0:
320,192,89581,1,0,0:0:0:0:
448,192,89781,1,0,0:0:0:0:
192,192,89981,1,0,0:0:0:0:
320,192,90181,1,0,0:0:0:0:
448,192,90181,1,0,0:0:0:0:
64,192,90581,1,0,0:0:0:0:
192,192,90981,1,0,0:0:0:0:
448,192,90981,128,0,91381:0:0:0:0:
64,192,91381,1,0,0:0:0:0:
192,192,91381,1,0,0:0:0:0:
320,192,91781,128,0,92181:0:0:0:0:
64,192,92181,1,0,0:0:0:0:
448,192,92581,1,0,0:0:0:0:
192,192,92581,1,0,0:0:0:0:
64,192,92981,128,0,93381:0:0:0:0:
320,192,93381,128,0,93781:0:0:0:0:
448,192,93381,1,0,0:0:0:0:
64,192,93781,1,0,0:0:0:0:
320,192,94181,1,0,0:0:0:0:
192,192,94181,1,0,0:0:0:0:
448,192,94581,128,0,94981:0:0:0:0:
192,192,94981,1,0,0:0:0:0:
64,192,94981,1,0,0:0:0:0:
320,192,95181,128,0,95781:0:0:0:0:
448,192,95781,1,0,0:0:0:0:
64,192,95781,1,0,0:0:0:0:
192,192,96181,128,0,96581:0:0:0:0:
448,192,96581,128,0,96981:0:0:0:0:
320,192,96581,1,0,0:0:0:0:
64,192,96981,1,0,0:0:0:0:
448,192,97381,1,0,0:0:0:0:
320,192,97381,1,0,0:0:0:0:
64,192,97781,128,0,98181:0:0:0:0:
320,192,98181,128,0,98581:0:0:0:0:
448,192,98181,1,0,0:0:0:0:
64,192,98581,128,0,98981:0:0:0:0:
448,192,98981,1,0,0:0:0:0:
192,192,98981,1,0,0:0:0:0:
448,192,99381,128,0,99781:0:0:0:0:
192,192,99781,128,0,100181:0:0:0:0:
320,192,99781,1,0,0:0:0:0:
448,192,100181,128,0,100581:0:0:0:0:
192,192,100581,1,0,0:0:0:0:
64,192,100581,1,0,0:0:0:0:
320,192,100981,128,0,101381:0:0:0:0:
448,192,101381,1,0,0:0:0:0:
64,192,101381,1,0,0:0:0:0:
192,192,101581,128,0,102181:0:0:0:0:
448,192,101781,1,0,0:0:0:0:
320,192,102181,1,0,0:0:0:0:
64,192,102181,1,0,0:0:0:0:
448,192,102581,128,0,103181:0:0:0:0:
64,192,102581,1,0,0:0:0:0:
192,192,103181,128,0,103781:0:0:0:0:
448,192,103781,1,0,0:0:0:0:
320,192,104181,1,0,0:0:0:0:
64,192,104181,1,0,0:0:0:0:
448,192,104581,1,0,0:0:0:0:
192,192,104581,1,0,0:0:0:0:
320,192,104981,1,0,0:0:0:0:
448,192,105381,1,0,0:0:0:0:
64,192,105381,1,0,0:0:0:0:
192,192,105781,1,0,0:0:0:0:
448,192,106181,1,0,0:0:0:0:
320,192,106181,1,0,0:0:0:0:
64,192,106381,1,0,0:0:0:0:
192,192,106581,1,0,0:0:0:0:
448,192,106981,1,0,0:0:0:0:
64,192,106981,1,0,0:0:0:0:
320,192,107181,1,0,0:0:0:0:
192,192,107381,1,0,0:0:0:0:
448,192,107781,1,0,0:0:0:0:
320,192,107781,1,0,0:0:0:0:
64,192,108181,1,0,0:0:0:0:
448,192,108581,1,0,0:0:0:0:
192,192,108581,1,0,0:0:0:0:
64,192,108981,1,0,0:0:0:0:
320,192,109381,1,0,0:0:0:0:
192,192,109381,1,0,0:0:0:0:
448,192,109781,1,0,0:0:0:0:
192,192,109981,1,0,0:0:0:0:
64,192,110181,1,0,0:0:0:0:
448,192,110381,1,0,0:0:0:0:
320,192,110581,1,0,0:0:0:0:
192,192,110981,1,0,0:0:0:0:
64,192,110981,1,0,0:0:0:0:
448,192,111381,1,0,0:0:0:0:
192,192,111781,1,0,0:0:0:0:
320,192,111781,1,0,0:0:0:0:
64,192,112181,1,0,0:0:0:0:
448,192,112581,1,0,0:0:0:0:
192,192,112581,1,0,0:0:0:0:
64,192,112781,1,0,0:0:0:0:
320,192,112981,1,0,0:0:0:0:
448,192,113381,1,0,0:0:0:0:
64,192,113381,1,0,0:0:0:0:
320,192,113581,1,0,0:0:0:0:
192,192,113781,1,0,0:0:0:0:
448,192,114181,1,0,0:0:0:0:
320,192,114181,1,0,0:0:0:0:
64,192,114581,1,0,0:0:0:0:
320,192,114981,1,0,0:0:0:0:
192,192,114981,1,0,0:0:0:0:
448,192,115381,128,0,116581:0:0:0:0:
64,192,115381,1,0,0:0:0:0:
192,192,115781,1,0,0:0:0:0:
320,192,116181,1,0,0:0:0:0:
64,192,116581,1,0,0:0:0:0:
64,192,116981,1,0,0:0:0:0:
448,192,116981,1,0,0:0:0:0:
192,192,117381,128,0,117781:0:0:0:0:
448,192,117781,128,0,118381:0:0:0:0:
64,192,118381,1,0,0:0:0:0:
448,192,118581,1,0,0:0:0:0:
320,192,118581,1,0,0:0:0:0:
192,192,118981,128,0,119381:0:0:0:0:
64,192,118981,1,0,0:0:0:0:
448,192,119381,128,0,119781:0:0:0:0:
64,192,119781,128,0,120181:0:0:0:0:
320,192,120181,1,0,0:0:0:0:
448,192,120181,128,0,121381:0:0:0:0:
192,192,120981,1,0,0:0:0:0:
320,192,121581,1,0,0:0:0:0:
64,192,121781,128,0,122981:0:0:0:0:
448,192,121781,1,0,0:0:0:0:
320,192,122181,1,0,0:0:0:0:
448,192,122581,1,0,0:0:0:0:
192,192,122981,1,0,0:0:0:0:
320,192,123381,1,0,0:0:0:0:
448,192,123381,1,0,0:0:0:0:
320,192,123781,128,0,124181:0:0:0:0:
64,192,123781,1,0,0:0:0:0:
64,192,124181,128,0,124781:0:0:0:0:
448,192,124181,1,0,0:0:0:0:
320,192,124581,1,0,0:0:0:0:
448,192,124781,1,0,0:0:0:0:
192,192,124981,1,0,0:0:0:0:
64,192,124981,1,0,0:0:0:0:
320,192,125381,128,0,125781:0:0:0:0:
448,192,125381,1,0,0:0:0:0:
448,192,125781,128,0,126181:0:0:0:0:
64,192,125781,1,0,0:0:0:0:
64,192,126181,128,0,126581:0:0:0:0:
192,192,126181,1,0,0:0:0:0:
448,192,126581,1,0,0:0:0:0:
320,192,126581,1,0,0:0:0:0:
192,192,126781,1,0,0:0:0:0:
448,192,126981,1,0,0:0:0:0:
320,192,127181,1,0,0:0:0:0:
192,192,127381,1,0,0:0:0:0:
64,192,127381,128,0,127781:0:0:0:0:
448,192,127781,128,0,128181:0:0:0:0:
192,192,128181,1,0,0:0:0:0:
64,192,128181,1,0,0:0:0:0:
192,192,128781,1,0,0:0:0:0:
448,192,128981,1,0,0:0:0:0:
320,192,129181,1,0,0:0:0:0:
64,192,129381,1,0,0:0:0:0:
448,192,129781,1,0,0:0:0:0:
320,192,129781,1,0,0:0:0:0:
64,192,129981,1,0,0:0:0:0:
448,192,130181,128,0,130581:0:0:0:0:
192,192,130181,1,0,0:0:0:0:
192,192,130581,128,0,130981:0:0:0:0:
448,192,130981,1,0,0:0:0:0:
320,192,130981,1,0,0:0:0:0:
448,192,131181,1,0,0:0:0:0:
192,192,131381,1,0,0:0:0:0:
448,192,131581,1,0,0:0:0:0:
320,192,131781,1,0,0:0:0:0:
64,192,131781,128,0,132181:0:0:0:0:
320,192,132181,128,0,132581:0:0:0:0:
192,192,132581,1,0,0:0:0:0:
64,192,132581,1,0,0:0:0:0:
64,192,132781,1,0,0:0:0:0:
320,192,132981,1,0,0:0:0:0:
192,192,133181,1,0,0:0:0:0:
448,192,133381,128,0,133781:0:0:0:0:
64,192,133381,1,0,0:0:0:0:
192,192,133781,128,0,134181:0:0:0:0:
448,192,134181,1,0,0:0:0:0:
320,192,134181,1,0,0:0:0:0:
448,192,134381,1,0,0:0:0:0:
192,192,134581,1,0,0:0:0:0:
448,192,134981,1,0,0:0:0:0:
64,192,134981,1,0,0:0:0:0:
320,192,135181,1,0,0:0:0:0:
64,192,135381,128,0,135781:0:0:0:0:
320,192,135781,128,0,136181:0:0:0:0:
448,192,135781,1,0,0:0:0:0:
192,192,136181,1,0,0:0:0:0:
448,192,136381,1,0,0:0:0:0:
64,192,136581,128,0,136981:0:0:0:0:
320,192,136581,1,0,0:0:0:0:
320,192,136981,128,0,137381:0:0:0:0:
64,192,137381,1,0,0:0:0:0:
192,192,137381,1,0,0:0:0:0:
64,192,137581,1,0,0:0:0:0:
320,192,137781,1,0,0:0:0:0:
64,192,137981,1,0,0:0:0:0:
192,192,138181,1,0,0:0:0:0:
448,192,138181,128,0,138581:0:0:0:0:
192,192,138581,128,0,138981:0:0:0:0:
320,192,138981,1,0,0:0:0:0:
448,192,138981,1,0,0:0:0:0:
448,192,139181,1,0,0:0:0:0:
192,192,139381,1,0,0:0:0:0:
448,192,139581,1,0,0:0:0:0:
64,192,139781,128,0,140181:0:0:0:0:
320,192,139781,1,0,0:0:0:0:
320,192,140181,128,0,140581:0:0:0:0:
64,192,140581,1,0,0:0:0:0:
192,192,140581,1,0,0:0:0:0:
64,192,140781,1,0,0:0:0:0:
320,192,140981,1,0,0:0:0:0:
64,192,141381,1,0,0:0:0:0:
448,192,141381,1,0,0:0:0:0:
192,192,141581,1,0,0:0:0:0:
448,192,141781,128,0,142181:0:0:0:0:
192,192,142181,128,0,142581:0:0:0:0:
64,192,142181,1,0,0:0:0:0:
448,192,142581,128,0,142981:0:0:0:0:
64,192,142981,128,0,143381:0:0:0:0:
320,192,142981,1,0,0:0:0:0:
192,192,143381,128,0,143781:0:0:0:0:
320,192,143781,1,0,0:0:0:0:
448,192,143781,1,0,0:0:0:0:
448,192,143981,1,0,0:0:0:0:
192,192,144181,1,0,0:0:0:0:
448,192,144381,1,0,0:0:0:0:
64,192,144581,128,0,144981:0:0:0:0:
320,192,144581,1,0,0:0:0:0:
320,192,144981,128,0,145381:0:0:0:0:
64,192,145381,1,0,0:0:0:0:
192,192,145381,1,0,0:0:0:0:
64,192,145581,1,0,0:0:0:0:
320,192,145781,1,0,0:0:0:0:
64,192,145981,1,0,0:0:0:0:
192,192,146181,1,0,0:0:0:0:
448,192,146181,128,0,146581:0:0:0:0:
192,192,146581,128,0,146981:0:0:0:0:
320,192,146981,1,0,0:0:0:0:
448,192,146981,1,0,0:0:0:0:
448,192,147181,1,0,0:0:0:0:
192,192,147381,1,0,0:0:0:0:
448,192,147781,1,0,0:0:0:0:
64,192,147781,1,0,0:0:0:0:
320,192,147981,1,0,0:0:0:0:
64,192,148181,128,0,148581:0:0:0:0:
320,192,148581,128,0,148981:0:0:0:0:
448,192,148581,1,0,0:0:0:0:
192,192,148981,1,0,0:0:0:0:
448,192,149181,1,0,0:0:0:0:
64,192,149381,128,0,149781:0:0:0:0:
320,192,149381,1,0,0:0:0:0:
320,192,149781,128,0,150181:0:0:0:0:
64,192,150181,1,0,0:0:0:0:
192,192,150181,1,0,0:0:0:0:
64,192,150381,1,0,0:0:0:0:
320,192,150581,1,0,0:0:0:0:
64,192,150781,1,0,0:0:0:0:
192,192,150981,1,0,0:0:0:0:
448,192,150981,128,0,151381:0:0:0:0:
192,192,151381,128,0,151781:0:0:0:0:
320,192,151781,1,0,0:0:0:0:
448,192,151781,1,0,0:0:0:0:
448,192,151981,1,0,0:0:0:0:
192,192,152181,1,0,0:0:0:0:
448,192,152381,1,0,0:0:0:0:
64,192,152581,128,0,152981:0:0:0:0:
320,192,152581,1,0,0:0:0:0:
320,192,152981,128,0,153381:0:0:0:0:
64,192,153381,1,0,0:0:0:0:
192,192,153381,1,0,0:0:0:0:
64,192,153581,1,0,0:0:0:0:
320,192,153781,1,0,0:0:0:0:
64,192,154181,1,0,0:0:0:0:
448,192,154181,1,0,0:0:0:0:
192,192,154381,1,0,0:0:0:0:
448,192,154581,1,0,0:0:0:0:
64,192,154981,128,0,155381:0:0:0:0:
320,192,154981,1,0,0:0:0:0:
192,192,155381,1,0,0:0:0:0:
448,192,155381,1,0,0:0:0:0:
192,192,155781,1,0,0:0:0:0:
64,192,155781,1,0,0:0:0:0:
448,192,156181,1,0,0:0:0:0:
192,192,156581,1,0,0:0:0:0:
320,192,156581,1,0,0:0:0:0:
64,192,156781,1,0,0:0:0:0:
320,192,156981,1,0,0:0:0:0:
448,192,157381,1,0,0:0:0:0:
192,192,157381,1,0,0:0:0:0:
64,192,157781,1,0,0:0:0:0:
320,192,158181,1,0,0:0:0:0:
192,192,158181,1,0,0:0:0:0:
448,192,158381,1,0,0:0:0:0:
192,192,158581,1,0,0:0:0:0:
448,192,158981,1,0,0:0:0:0:
320,192,158981,1,0,0:0:0:0:
64,192,159381,1,0,0:0:0:0:
192,192,159781,1,0,0:0:0:0:
64,192,159781,1,0,0:0:0:0:
448,192,160181,1,0,0:0:0:0:
64,192,160381,1,0,0:0:0:0:
448,192,160581,1,0,0:0:0:0:
192,192,160581,1,0,0:0:0:0:
64,192,160981,1,0,0:0:0:0:
448,192,161181,1,0,0:0:0:0:
64,192,161381,1,0,0:0:0:0:
320,192,161381,1,0,0:0:0:0:
192,192,161781,1,0,0:0:0:0:
448,192,162181,1,0,0:0:0:0:
320,192,162181,1,0,0:0:0:0:
64,192,162581,1,0,0:0:0:0:
320,192,162981,1,0,0:0:0:0:
192,192,162981,1,0,0:0:0:0:
448,192,163181,1,0,0:0:0:0:
192,192,163381,1,0,0:0:0:0:
448,192,163781,1,0,0:0:0:0:
64,192,163781,1,0,0:0:0:0:
320,192,164181,1,0,0:0:0:0:
192,192,164581,1,0,0:0:0:0:
64,192,164581,1,0,0:0:0:0:
320,192,164781,1,0,0:0:0:0:
64,192,164981,1,0,0:0:0:0:
448,192,165381,1,0,0:0:0:0:
320,192,165381,1,0,0:0:0:0:
64,192,165781,1,0,0:0:0:0:
192,192,166181,1,0,0:0:0:0:
64,192,166181,1,0,0:0:0:0:
320,192,166581,1,0,0:0:0:0:
448,192,166781,1,0,0:0:0:0:
192,192,166981,1,0,0:0:0:0:
64,192,166981,1,0,0:0:0:0:
192,192,167381,1,0,0:0:0:0:
64,192,167581,1,0,0:0:0:0:
320,192,167781,1,0,0:0:0:0:
448,192,167781,1,0,0:0:0:0:
64,192,168181,128,0,168581:0:0:0:0:
192,192,168581,1,0,0:0:0:0:
320,192,168581,1,0,0:0:0:0:
64,192,168981,1,0,0:0:0:0:
320,192,169381,1,0,0:0:0:0:
192,192,169381,1,0,0:0:0:0:
448,192,169581,1,0,0:0:0:0:
192,192,169781,1,0,0:0:0:0:
64,192,170181,1,0,0:0:0:0:
320,192,170181,1,0,0:0:0:0:
448,192,170581,1,0,0:0:0:0:
192,192,170981,1,0,0:0:0:0:
320,192,170981,1,0,0:0:0:0:
64,192,171181,1,0,0:0:0:0:
320,192,171381,1,0,0:0:0:0:
64,192,171781,1,0,0:0:0:0:
192,192,171781,1,0,0:0:0:0:
448,192,172181,1,0,0:0:0:0:
320,192,172581,1,0,0:0:0:0:
448,192,172581,1,0,0:0:0:0:
64,192,172981,1,0,0:0:0:0:
448,192,173181,1,0,0:0:0:0:
64,192,173381,1,0,0:0:0:0:
320,192,173381,1,0,0:0:0:0:
448,192,173781,1,0,0:0:0:0:
64,192,173981,1,0,0:0:0:0:
448,192,174181,1,0,0:0:0:0:
192,192,174181,1,0,0:0:0:0:
320,192,174581,1,0,0:0:0:0:
64,192,174981,1,0,0:0:0:0:
192,192,174981,1,0,0:0:0:0:
448,192,175381,1,0,0:0:0:0:
192,192,175781,1,0,0:0:0:0:
320,192,175781,1,0,0:0:0:0:
64,192,175981,1,0,0:0:0:0:
320,192,176181,1,0,0:0:0:0:
64,192,176581,1,0,0:0:0:0:
448,192,176581,1,0,0:0:0:0:
192,192,176981,1,0,0:0:0:0:
320,192,177381,1,0,0:0:0:0:
448,192,177381,1,0,0:0:0:0:
64,192,177581,1,0,0:0:0:0:
320,192,177781,1,0,0:0:0:0:
64,192,178181,1,0,0:0:0:0:
192,192,178181,1,0,0:0:0:0:
448,192,178581,1,0,0:0:0:0:
320,192,178981,1,0,0:0:0:0:
448,192,178981,1,0,0:0:0:0:
192,192,179381,1,0,0:0:0:0:
64,192,179581,1,0,0:0:0:0:
320,192,179781,1,0,0:0:0:0:
448,192,179781,1,0,0:0:0:0:
320,192,180181,1,0,0:0:0:0:
448,192,180381,1,0,0:0:0:0:
192,192,180581,1,0,0:0:0:0:
64,192,180581,1,0,0:0:0:0:
320,192,180981,1,0,0:0:0:0:
64,192,180981,1,0,0:0:0:0:
320,192,181381,1,0,0:0:0:0:
64,192,181381,1,0,0:0:0:0:
448,192,181781,1,0,0:0:0:0:
64,192,182181,1,0,0:0:0:0:
320,192,182381,1,0,0:0:0:0:
448,192,182581,1,0,0:0:0:0:
192,192,182581,1,0,0:0:0:0:
448,192,182981,1,0,0:0:0:0:
192,192,182981,1,0,0:0:0:0:
64,192,183381,1,0,0:0:0:0:
448,192,183781,1,0,0:0:0:0:
64,192,183981,1,0,0:0:0:0:
192,192,184181,1,0,0:0:0:0:
320,192,184181,1,0,0:0:0:0:
320,192,184581,1,0,0:0:0:0:
192,192,184581,1,0,0:0:0:0:
448,192,184981,1,0,0:0:0:0:
320,192,185381,1,0,0:0:0:0:
192,192,185581,1,0,0:0:0:0:
448,192,185781,1,0,0:0:0:0:
64,192,185781,1,0,0:0:0:0:
448,192,186181,1,0,0:0:0:0:
64,192,186181,1,0,0:0:0:0:
320,192,186581,1,0,0:0:0:0:
192,192,186981,1,0,0:0:0:0:
448,192,187181,1,0,0:0:0:0:
320,192,187381,1,0,0:0:0:0:
64,192,187381,1,0,0:0:0:0:
320,192,187781,1,0,0:0:0:0:
64,192,187781,1,0,0:0:0:0:
448,192,188181,1,0,0:0:0:0:
64,192,188581,1,0,0:0:0:0:
320,192,188781,1,0,0:0:0:0:
448,192,188981,1,0,0:0:0:0:
192,192,188981,1,0,0:0:0:0:
448,192,189381,1,0,0:0:0:0:
192,192,189381,1,0,0:0:0:0:
64,192,189781,1,0,0:0:0:0:
448,192,190181,1,0,0:0:0:0:
64,192,190381,1,0,0:0:0:0:
192,192,190581,1,0,0:0:0:0:
320,192,190581,1,0,0:0:0:0:
320,192,190981,1,0,0:0:0:0:
192,192,190981,1,0,0:0:0:0:
448,192,191381,1,0,0:0:0:0:
320,192,191781,1,0,0:0:0:0:
192,192,191981,1,0,0:0:0:0:
448,192,192181,1,0,0:0:0:0:
64,192,192181,1,0,0:0:0:0:
448,192,192581,1,0,0:0:0:0:
64,192,192581,1,0,0:0:0:0:
320,192,192981,1,0,0:0:0:0:
64,192,193381,1,0,0:0:0:0:
448,192,193581,1,0,0:0:0:0:
192,192,193781,128,0,194181:0:0:0:0:
320,192,194181,1,0,0:0:0:0:
448,192,194181,1,0,0:0:0:0:
64,192,194581,1,0,0:0:0:0:
448,192,194981,1,0,0:0:0:0:
320,192,194981,1,0,0:0:0:0:
192,192,195181,1,0,0:0:0:0:
64,192,195381,1,0,0:0:0:0:
192,192,195781,1,0,0:0:0:0:
320,192,195781,1,0,0:0:0:0:
64,192,196181,1,0,0:0:0:0:
448,192,196581,1,0,0:0:0:0:
320,192,196581,1,0,0:0:0:0:
192,192,196781,1,0,0:0:0:0:
448,192,196981,1,0,0:0:0:0:
192,192,197381,1,0,0:0:0:0:
320,192,197381,1,0,0:0:0:0:
448,192,197781,1,0,0:0:0:0:
192,192,198181,1,0,0:0:0:0:
64,192,198181,1,0,0:0:0:0:
448,192,198381,1,0,0:0:0:0:
320,192,198581,1,0,0:0:0:0:
448,192,198981,1,0,0:0:0:0:
192,192,198981,1,0,0:0:0:0:
320,192,199381,1,0,0:0:0:0:
64,192,199781,1,0,0:0:0:0:
192,192,199781,1,0,0:0:0:0:
320,192,199981,1,0,0:0:0:0:
64,192,200181,1,0,0:0:0:0:
448,192,200581,1,0,0:0:0:0:
192,192,200581,1,0,0:0:0:0:
64,192,200981,1,0,0:0:0:0:
448,192,201381,1,0,0:0:0:0:
320,192,201381,1,0,0:0:0:0:
192,192,201581,1,0,0:0:0:0:
64,192,201781,1,0,0:0:0:0:
192,192,202181,1,0,0:0:0:0:
320,192,202181,1,0,0:0:0:0:
64,192,202581,1,0,0:0:0:0:
448,192,202981,1,0,0:0:0:0:
320,192,202981,1,0,0:0:0:0:
192,192,203181,1,0,0:0:0:0:
448,192,203381,1,0,0:0:0:0:
192,192,203781,1,0,0:0:0:0:
320,192,203781,1,0,0:0:0:0:
448,192,204181,1,0,0:0:0:0:
192,192,204581,1,0,0:0:0:0:
64,192,204581,1,0,0:0:0:0:
448,192,204781,1,0,0:0:0:0:
320,192,204981,1,0,0:0:0:0:
192,192,205381,1,0,0:0:0:0:
320,192,205781,1,0,0:0:0:0:
64,192,206181,1,0,0:0:0:0:
448,192,206381,1,0,0:0:0:0:
192,192,206581,1,0,0:0:0:0:
64,192,206581,1,0,0:0:0:0:
