osu file format v14

[General]
AudioFilename: audio.mp3
AudioLeadIn: 0
PreviewTime: 66485
Countdown: 0
SampleSet: Drum
StackLeniency: 0.7
Mode: 3
LetterboxInBreaks: 0
SpecialStyle: 0
WidescreenStoryboard: 0

[Editor]
Bookmarks: 499,2499,18499,34499,50499,66499,82499,98499,114499,130499,132499,148499,164499,179499
DistanceSpacing: 0.8
BeatDivisor: 4
GridSize: 32
TimelineZoom: 2.799999

[Metadata]
Title:DROPS (feat. Such)
TitleUnicode:DROPS (feat. Such)
Artist:Zekk & poplavor
ArtistUnicode:Zekk & poplavor
Creator:Feraligatr
Version:Palette
Source:
Tags:encore emotional vocal pop 02 jpop j-pop pop japanese MEGAREX Electronic MRX-074 diamant66 BadDragon Dergo Kamuy Nimis Drago Muse Dash Starri 星動旋律 maimai でらっくす FESTiVAL PLUS DX
BeatmapID:4153424
BeatmapSetID:1998231

[Difficulty]
HPDrainRate:7.9
CircleSize:4
OverallDifficulty:7.7
ApproachRate:5
SliderMultiplier:1.4
SliderTickRate:1

[Events]
//Background and Video events
0,0,"89686263_p0.jpg",0,0
//Break Periods
//Storyboard Layer 0 (Background)
//Storyboard Layer 1 (Fail)
//Storyboard Layer 2 (Pass)
//Storyboard Layer 3 (Foreground)
//Storyboard Layer 4 (Overlay)
//Storyboard Sound Samples

[TimingPoints]
485,500,4,3,1,50,1,0

[HitObjects]
320,192,485,5,0,0:0:0:0:
448,192,505,5,0,0:0:0:0:
448,192,735,1,0,0:0:0:0:
320,192,755,1,0,0:0:0:0:
320,192,985,1,0,0:0:0:0:
448,192,1005,1,0,0:0:0:0:
448,192,1235,1,0,0:0:0:0:
320,192,1255,1,0,0:0:0:0:
320,192,1485,1,0,0:0:0:0:
448,192,1485,1,0,0:0:0:0:
192,192,1610,1,0,0:0:0:0:
320,192,1672,1,0,0:0:0:0:
448,192,1672,1,0,0:0:0:0:
192,192,1735,1,0,0:0:0:0:
64,192,1735,1,0,0:0:0:0:
320,192,1776,1,0,0:0:0:0:
448,192,1818,1,0,0:0:0:0:
64,192,1860,1,0,0:0:0:0:
192,192,1901,1,0,0:0:0:0:
320,192,1943,1,0,0:0:0:0:
64,192,1985,1,0,0:0:0:0:
448,192,1985,1,0,0:0:0:0:
192,192,2110,1,0,0:0:0:0:
320,192,2110,1,0,0:0:0:0:
64,192,2235,128,0,2360:0:0:0:0:
448,192,2360,128,0,2485:0:0:0:0:
192,192,2485,1,0,0:0:0:0:
64,192,2485,1,0,0:0:0:0:
320,192,2526,1,0,0:0:0:0:
192,192,2735,1,0,0:0:0:0:
320,192,2735,1,0,0:0:0:0:
192,192,2860,1,0,0:0:0:0:
448,192,2985,1,0,0:0:0:0:
320,192,2985,1,0,0:0:0:0:
64,192,2985,1,0,0:0:0:0:
448,192,3235,1,0,0:0:0:0:
320,192,3235,1,0,0:0:0:0:
320,192,3485,128,0,3610:0:0:0:0:
64,192,3485,128,0,3610:0:0:0:0:
192,192,3610,1,0,0:0:0:0:
448,192,3610,1,0,0:0:0:0:
320,192,3860,1,0,0:0:0:0:
64,192,3860,1,0,0:0:0:0:
192,192,4110,128,0,4235:0:0:0:0:
64,192,4110,128,0,4235:0:0:0:0:
320,192,4235,1,0,0:0:0:0:
448,192,4235,1,0,0:0:0:0:
64,192,4485,1,0,0:0:0:0:
448,192,4485,1,0,0:0:0:0:
64,192,4735,128,0,4985:0:0:0:0:
192,192,4735,128,0,4985:0:0:0:0:
320,192,5110,128,0,5235:0:0:0:0:
192,192,5110,128,0,5193:0:0:0:0:
320,192,5360,128,0,5610:0:0:0:0:
448,192,5401,128,0,5610:0:0:0:0:
192,192,5735,1,0,0:0:0:0:
448,192,5735,1,0,0:0:0:0:
64,192,5985,1,0,0:0:0:0:
320,192,5985,1,0,0:0:0:0:
448,192,6047,1,0,0:0:0:0:
192,192,6110,1,0,0:0:0:0:
192,192,6235,1,0,0:0:0:0:
320,192,6235,1,0,0:0:0:0:
64,192,6485,128,0,6735:0:0:0:0:
192,192,6485,128,0,6735:0:0:0:0:
192,192,6943,1,0,0:0:0:0:
320,192,6985,128,0,7235:0:0:0:0:
448,192,6985,128,0,7235:0:0:0:0:
320,192,7485,128,0,7610:0:0:0:0:
64,192,7485,128,0,7610:0:0:0:0:
192,192,7610,1,0,0:0:0:0:
448,192,7610,1,0,0:0:0:0:
448,192,7860,1,0,0:0:0:0:
64,192,7860,1,0,0:0:0:0:
64,192,8235,128,0,8610:0:0:0:0:
320,192,8235,128,0,8360:0:0:0:0:
192,192,8485,1,0,0:0:0:0:
320,192,8485,128,0,8860:0:0:0:0:
448,192,8610,128,0,8985:0:0:0:0:
64,192,8860,1,0,0:0:0:0:
192,192,8860,128,0,9235:0:0:0:0:
320,192,8985,128,0,9360:0:0:0:0:
448,192,9235,1,0,0:0:0:0:
64,192,9235,128,0,9485:0:0:0:0:
192,192,9360,128,0,9610:0:0:0:0:
320,192,9610,1,0,0:0:0:0:
64,192,9610,128,0,9735:0:0:0:0:
192,192,9735,128,0,9860:0:0:0:0:
320,192,9860,128,0,9985:0:0:0:0:
64,192,9985,128,0,10110:0:0:0:0:
448,192,10110,128,0,10235:0:0:0:0:
192,192,10235,128,0,10360:0:0:0:0:
320,192,10360,128,0,10485:0:0:0:0:
64,192,10485,128,0,10860:0:0:0:0:
448,192,10485,128,0,10860:0:0:0:0:
320,192,10985,1,0,0:0:0:0:
448,192,10985,1,0,0:0:0:0:
64,192,10985,1,0,0:0:0:0:
64,192,11235,1,0,0:0:0:0:
192,192,11235,1,0,0:0:0:0:
448,192,11235,1,0,0:0:0:0:
320,192,11485,128,0,11610:0:0:0:0:
64,192,11485,128,0,11610:0:0:0:0:
192,192,11610,1,0,0:0:0:0:
448,192,11610,1,0,0:0:0:0:
320,192,11860,1,0,0:0:0:0:
64,192,11860,1,0,0:0:0:0:
192,192,12110,1,0,0:0:0:0:
64,192,12110,1,0,0:0:0:0:
320,192,12360,1,0,0:0:0:0:
448,192,12401,128,0,12610:0:0:0:0:
192,192,12401,128,0,12610:0:0:0:0:
192,192,12735,128,0,12860:0:0:0:0:
448,192,12735,128,0,12860:0:0:0:0:
320,192,12860,1,0,0:0:0:0:
64,192,12860,1,0,0:0:0:0:
192,192,13110,1,0,0:0:0:0:
320,192,13110,1,0,0:0:0:0:
192,192,13360,128,0,13610:0:0:0:0:
64,192,13360,128,0,13610:0:0:0:0:
192,192,13735,1,0,0:0:0:0:
448,192,13735,1,0,0:0:0:0:
320,192,13985,1,0,0:0:0:0:
64,192,13985,1,0,0:0:0:0:
448,192,14047,1,0,0:0:0:0:
192,192,14110,1,0,0:0:0:0:
192,192,14235,1,0,0:0:0:0:
320,192,14235,1,0,0:0:0:0:
64,192,14485,128,0,14735:0:0:0:0:
192,192,14485,128,0,14735:0:0:0:0:
320,192,14985,128,0,15235:0:0:0:0:
448,192,14985,128,0,15235:0:0:0:0:
320,192,15485,128,0,15610:0:0:0:0:
64,192,15485,128,0,15610:0:0:0:0:
192,192,15610,1,0,0:0:0:0:
448,192,15610,1,0,0:0:0:0:
448,192,15860,1,0,0:0:0:0:
64,192,15860,1,0,0:0:0:0:
64,192,15985,1,0,0:0:0:0:
448,192,15985,1,0,0:0:0:0:
192,192,16235,1,0,0:0:0:0:
320,192,16235,1,0,0:0:0:0:
64,192,16235,128,0,17485:0:0:0:0:
448,192,16235,128,0,17485:0:0:0:0:
320,192,16735,1,0,0:0:0:0:
192,192,16735,1,0,0:0:0:0:
192,192,16985,1,0,0:0:0:0:
320,192,16985,1,0,0:0:0:0:
320,192,17235,1,0,0:0:0:0:
192,192,17235,1,0,0:0:0:0:
192,192,17485,1,0,0:0:0:0:
320,192,17485,1,0,0:0:0:0:
64,192,17735,1,0,0:0:0:0:
64,192,17860,1,0,0:0:0:0:
448,192,17985,1,0,0:0:0:0:
320,192,18026,1,0,0:0:0:0:
192,192,18068,1,0,0:0:0:0:
64,192,18110,128,0,18360:0:0:0:0:
448,192,18235,128,0,18360:0:0:0:0:
320,192,18360,1,0,0:0:0:0:
64,192,18485,1,0,0:0:0:0:
448,192,18985,1,0,0:0:0:0:
320,192,18985,128,0,19110:0:0:0:0:
320,192,19235,128,0,19360:0:0:0:0:
320,192,19485,128,0,19985:0:0:0:0:
192,192,19985,128,0,20485:0:0:0:0:
64,192,19985,1,0,0:0:0:0:
448,192,20110,1,0,0:0:0:0:
320,192,20235,1,0,0:0:0:0:
320,192,20485,128,0,20860:0:0:0:0:
192,192,20860,128,0,21235:0:0:0:0:
320,192,20985,1,0,0:0:0:0:
448,192,20985,1,0,0:0:0:0:
320,192,21235,1,0,0:0:0:0:
64,192,21735,1,0,0:0:0:0:
448,192,21860,1,0,0:0:0:0:
192,192,21985,128,0,22235:0:0:0:0:
64,192,21985,1,0,0:0:0:0:
448,192,22110,1,0,0:0:0:0:
320,192,22235,128,0,22485:0:0:0:0:
64,192,22360,1,0,0:0:0:0:
192,192,22485,128,0,22860:0:0:0:0:
448,192,22735,1,0,0:0:0:0:
192,192,22985,128,0,23235:0:0:0:0:
64,192,22985,1,0,0:0:0:0:
320,192,23235,128,0,23360:0:0:0:0:
192,192,23360,128,0,23485:0:0:0:0:
192,192,23735,128,0,23860:0:0:0:0:
320,192,23860,128,0,23985:0:0:0:0:
192,192,23985,128,0,24235:0:0:0:0:
64,192,23985,1,0,0:0:0:0:
448,192,24110,1,0,0:0:0:0:
320,192,24235,128,0,24485:0:0:0:0:
192,192,24360,1,0,0:0:0:0:
448,192,24485,128,0,24735:0:0:0:0:
64,192,24485,1,0,0:0:0:0:
320,192,24735,128,0,24985:0:0:0:0:
192,192,24985,128,0,25235:0:0:0:0:
64,192,24985,1,0,0:0:0:0:
64,192,25235,128,0,25485:0:0:0:0:
448,192,25735,1,0,0:0:0:0:
192,192,25860,1,0,0:0:0:0:
64,192,25985,1,0,0:0:0:0:
448,192,25985,1,0,0:0:0:0:
64,192,26110,1,0,0:0:0:0:
192,192,26110,1,0,0:0:0:0:
448,192,26235,1,0,0:0:0:0:
64,192,26485,1,0,0:0:0:0:
448,192,26985,1,0,0:0:0:0:
320,192,26985,128,0,27110:0:0:0:0:
320,192,27235,128,0,27360:0:0:0:0:
320,192,27485,128,0,27985:0:0:0:0:
192,192,27985,128,0,28485:0:0:0:0:
64,192,27985,1,0,0:0:0:0:
448,192,28110,1,0,0:0:0:0:
320,192,28235,1,0,0:0:0:0:
320,192,28485,128,0,28860:0:0:0:0:
192,192,28860,128,0,29235:0:0:0:0:
320,192,28985,1,0,0:0:0:0:
448,192,28985,1,0,0:0:0:0:
320,192,29235,1,0,0:0:0:0:
64,192,29735,128,0,30235:0:0:0:0:
448,192,29860,1,0,0:0:0:0:
320,192,29985,1,0,0:0:0:0:
192,192,29985,1,0,0:0:0:0:
448,192,30110,1,0,0:0:0:0:
192,192,30235,128,0,30360:0:0:0:0:
448,192,30360,1,0,0:0:0:0:
192,192,30485,128,0,30735:0:0:0:0:
320,192,30735,128,0,30985:0:0:0:0:
64,192,30985,1,0,0:0:0:0:
192,192,30985,128,0,31110:0:0:0:0:
192,192,31235,128,0,31360:0:0:0:0:
320,192,31360,128,0,31735:0:0:0:0:
192,192,31735,128,0,31860:0:0:0:0:
320,192,31860,128,0,31985:0:0:0:0:
192,192,31985,128,0,32235:0:0:0:0:
64,192,31985,1,0,0:0:0:0:
448,192,32110,1,0,0:0:0:0:
320,192,32235,128,0,32485:0:0:0:0:
192,192,32360,1,0,0:0:0:0:
64,192,32485,128,0,32735:0:0:0:0:
448,192,32485,1,0,0:0:0:0:
64,192,32860,1,0,0:0:0:0:
448,192,32860,128,0,33110:0:0:0:0:
64,192,33235,1,0,0:0:0:0:
448,192,33235,1,0,0:0:0:0:
320,192,33485,1,0,0:0:0:0:
192,192,33735,1,0,0:0:0:0:
448,192,33985,1,0,0:0:0:0:
64,192,34235,128,0,34360:0:0:0:0:
64,192,34485,1,0,0:0:0:0:
192,192,34485,128,0,34735:0:0:0:0:
448,192,34735,1,0,0:0:0:0:
192,192,34985,1,0,0:0:0:0:
448,192,34985,1,0,0:0:0:0:
320,192,35235,1,0,0:0:0:0:
320,192,35360,128,0,35610:0:0:0:0:
192,192,35485,1,0,0:0:0:0:
64,192,35485,1,0,0:0:0:0:
320,192,35735,1,0,0:0:0:0:
64,192,35985,1,0,0:0:0:0:
320,192,35985,1,0,0:0:0:0:
192,192,36110,1,0,0:0:0:0:
320,192,36235,1,0,0:0:0:0:
64,192,36485,1,0,0:0:0:0:
448,192,36485,1,0,0:0:0:0:
320,192,36735,1,0,0:0:0:0:
448,192,36860,1,0,0:0:0:0:
64,192,36860,1,0,0:0:0:0:
320,192,36985,1,0,0:0:0:0:
192,192,36985,128,0,37235:0:0:0:0:
320,192,37235,128,0,37360:0:0:0:0:
192,192,37360,128,0,37485:0:0:0:0:
320,192,37485,1,0,0:0:0:0:
64,192,37485,128,0,37735:0:0:0:0:
320,192,37735,128,0,38110:0:0:0:0:
448,192,37985,1,0,0:0:0:0:
192,192,37985,128,0,38235:0:0:0:0:
320,192,38235,1,0,0:0:0:0:
192,192,38485,128,0,38860:0:0:0:0:
64,192,38485,1,0,0:0:0:0:
448,192,38735,1,0,0:0:0:0:
64,192,38860,128,0,39110:0:0:0:0:
192,192,38985,1,0,0:0:0:0:
320,192,38985,1,0,0:0:0:0:
64,192,39235,128,0,39735:0:0:0:0:
192,192,39485,128,0,39860:0:0:0:0:
448,192,39735,1,0,0:0:0:0:
64,192,39860,128,0,39985:0:0:0:0:
192,192,39985,1,0,0:0:0:0:
320,192,39985,1,0,0:0:0:0:
448,192,40110,1,0,0:0:0:0:
320,192,40235,1,0,0:0:0:0:
192,192,40360,1,0,0:0:0:0:
64,192,40485,128,0,40735:0:0:0:0:
448,192,40485,128,0,40610:0:0:0:0:
448,192,40735,1,0,0:0:0:0:
192,192,40860,1,0,0:0:0:0:
64,192,40985,128,0,41110:0:0:0:0:
448,192,40985,128,0,41235:0:0:0:0:
64,192,41235,1,0,0:0:0:0:
320,192,41235,1,0,0:0:0:0:
64,192,41485,1,0,0:0:0:0:
448,192,41485,1,0,0:0:0:0:
192,192,41610,1,0,0:0:0:0:
320,192,41610,1,0,0:0:0:0:
448,192,41735,1,0,0:0:0:0:
64,192,41985,1,0,0:0:0:0:
320,192,41985,1,0,0:0:0:0:
448,192,41985,1,0,0:0:0:0:
64,192,42235,1,0,0:0:0:0:
448,192,42235,1,0,0:0:0:0:
64,192,42485,1,0,0:0:0:0:
192,192,42485,128,0,42735:0:0:0:0:
448,192,42735,1,0,0:0:0:0:
192,192,42985,1,0,0:0:0:0:
448,192,42985,1,0,0:0:0:0:
320,192,43235,128,0,43485:0:0:0:0:
448,192,43360,128,0,43610:0:0:0:0:
192,192,43485,1,0,0:0:0:0:
64,192,43485,1,0,0:0:0:0:
448,192,43735,1,0,0:0:0:0:
64,192,43985,1,0,0:0:0:0:
320,192,43985,128,0,44235:0:0:0:0:
192,192,44110,1,0,0:0:0:0:
448,192,44235,1,0,0:0:0:0:
320,192,44485,1,0,0:0:0:0:
64,192,44485,128,0,44735:0:0:0:0:
320,192,44735,1,0,0:0:0:0:
448,192,44860,1,0,0:0:0:0:
64,192,44860,1,0,0:0:0:0:
320,192,44985,1,0,0:0:0:0:
192,192,44985,128,0,45235:0:0:0:0:
320,192,45235,128,0,45360:0:0:0:0:
448,192,45360,128,0,45485:0:0:0:0:
192,192,45485,1,0,0:0:0:0:
64,192,45485,1,0,0:0:0:0:
320,192,45735,128,0,45860:0:0:0:0:
448,192,45985,1,0,0:0:0:0:
192,192,45985,128,0,46110:0:0:0:0:
192,192,46235,128,0,46485:0:0:0:0:
320,192,46485,128,0,46860:0:0:0:0:
448,192,46485,1,0,0:0:0:0:
64,192,46735,1,0,0:0:0:0:
448,192,46860,128,0,47110:0:0:0:0:
320,192,46985,1,0,0:0:0:0:
192,192,46985,1,0,0:0:0:0:
448,192,47235,128,0,47735:0:0:0:0:
320,192,47485,128,0,47860:0:0:0:0:
64,192,47735,1,0,0:0:0:0:
448,192,47860,128,0,47985:0:0:0:0:
320,192,47985,1,0,0:0:0:0:
192,192,47985,1,0,0:0:0:0:
64,192,48110,1,0,0:0:0:0:
448,192,48235,1,0,0:0:0:0:
64,192,48360,1,0,0:0:0:0:
320,192,48485,128,0,48735:0:0:0:0:
192,192,48703,1,0,0:0:0:0:
448,192,48766,1,0,0:0:0:0:
320,192,48985,128,0,49235:0:0:0:0:
192,192,49203,1,0,0:0:0:0:
448,192,49266,1,0,0:0:0:0:
320,192,49485,128,0,49735:0:0:0:0:
192,192,49703,1,0,0:0:0:0:
448,192,49766,1,0,0:0:0:0:
192,192,49943,1,0,0:0:0:0:
64,192,49985,1,0,0:0:0:0:
448,192,49985,1,0,0:0:0:0:
320,192,50235,1,0,0:0:0:0:
320,192,50485,1,0,0:0:0:0:
448,192,50485,128,0,51235:0:0:0:0:
64,192,50735,1,0,0:0:0:0:
192,192,50985,1,0,0:0:0:0:
320,192,51235,128,0,51360:0:0:0:0:
64,192,51235,1,0,0:0:0:0:
448,192,51360,128,0,51610:0:0:0:0:
192,192,51485,1,0,0:0:0:0:
448,192,51735,1,0,0:0:0:0:
64,192,51735,128,0,51985:0:0:0:0:
192,192,51985,128,0,52235:0:0:0:0:
320,192,51985,1,0,0:0:0:0:
320,192,52235,128,0,52485:0:0:0:0:
64,192,52235,1,0,0:0:0:0:
448,192,52485,128,0,52985:0:0:0:0:
64,192,52485,1,0,0:0:0:0:
320,192,52735,1,0,0:0:0:0:
192,192,52985,128,0,53235:0:0:0:0:
64,192,52985,1,0,0:0:0:0:
320,192,53235,128,0,53360:0:0:0:0:
448,192,53235,1,0,0:0:0:0:
64,192,53360,128,0,53735:0:0:0:0:
320,192,53485,1,0,0:0:0:0:
192,192,53735,128,0,53985:0:0:0:0:
448,192,53735,1,0,0:0:0:0:
320,192,53943,1,0,0:0:0:0:
448,192,53985,1,0,0:0:0:0:
192,192,54235,128,0,54360:0:0:0:0:
320,192,54235,1,0,0:0:0:0:
192,192,54485,128,0,54985:0:0:0:0:
64,192,54485,1,0,0:0:0:0:
448,192,54735,1,0,0:0:0:0:
320,192,54985,128,0,55235:0:0:0:0:
64,192,54985,1,0,0:0:0:0:
192,192,55235,128,0,55735:0:0:0:0:
448,192,55235,1,0,0:0:0:0:
320,192,55485,1,0,0:0:0:0:
448,192,55735,128,0,56235:0:0:0:0:
64,192,55735,1,0,0:0:0:0:
192,192,55985,1,0,0:0:0:0:
320,192,56235,128,0,56985:0:0:0:0:
64,192,56235,1,0,0:0:0:0:
192,192,56485,128,0,56860:0:0:0:0:
448,192,56485,1,0,0:0:0:0:
64,192,56735,1,0,0:0:0:0:
192,192,56985,128,0,57235:0:0:0:0:
448,192,56985,1,0,0:0:0:0:
64,192,57235,128,0,57485:0:0:0:0:
320,192,57235,1,0,0:0:0:0:
320,192,57485,1,0,0:0:0:0:
448,192,57485,1,0,0:0:0:0:
192,192,57735,128,0,57985:0:0:0:0:
64,192,57735,1,0,0:0:0:0:
320,192,57985,128,0,58235:0:0:0:0:
448,192,57985,1,0,0:0:0:0:
448,192,58235,128,0,58360:0:0:0:0:
192,192,58235,1,0,0:0:0:0:
64,192,58360,1,0,0:0:0:0:
448,192,58485,128,0,58735:0:0:0:0:
320,192,58485,1,0,0:0:0:0:
320,192,58735,128,0,58985:0:0:0:0:
192,192,58860,1,0,0:0:0:0:
448,192,58985,128,0,59235:0:0:0:0:
64,192,58985,1,0,0:0:0:0:
320,192,59235,128,0,59360:0:0:0:0:
192,192,59360,128,0,59485:0:0:0:0:
448,192,59485,1,0,0:0:0:0:
64,192,59485,1,0,0:0:0:0:
192,192,59735,128,0,59860:0:0:0:0:
320,192,59797,128,0,60110:0:0:0:0:
192,192,59985,1,0,0:0:0:0:
64,192,59985,1,0,0:0:0:0:
320,192,60235,128,0,60485:0:0:0:0:
192,192,60485,128,0,60735:0:0:0:0:
448,192,60485,1,0,0:0:0:0:
448,192,60735,128,0,60985:0:0:0:0:
320,192,60985,128,0,61235:0:0:0:0:
64,192,60985,1,0,0:0:0:0:
192,192,61235,128,0,61360:0:0:0:0:
64,192,61360,128,0,61485:0:0:0:0:
320,192,61485,1,0,0:0:0:0:
448,192,61485,1,0,0:0:0:0:
192,192,61735,1,0,0:0:0:0:
448,192,61901,1,0,0:0:0:0:
320,192,61943,1,0,0:0:0:0:
64,192,61985,128,0,62235:0:0:0:0:
192,192,61985,1,0,0:0:0:0:
192,192,62235,128,0,62485:0:0:0:0:
448,192,62485,1,0,0:0:0:0:
320,192,62485,128,0,62985:0:0:0:0:
192,192,62735,1,0,0:0:0:0:
64,192,62735,1,0,0:0:0:0:
448,192,62985,128,0,63235:0:0:0:0:
64,192,62985,1,0,0:0:0:0:
192,192,63235,128,0,63735:0:0:0:0:
320,192,63235,1,0,0:0:0:0:
448,192,63485,1,0,0:0:0:0:
64,192,63485,1,0,0:0:0:0:
320,192,63735,128,0,63985:0:0:0:0:
64,192,63797,1,0,0:0:0:0:
448,192,63860,1,0,0:0:0:0:
192,192,63922,1,0,0:0:0:0:
64,192,63985,128,0,64235:0:0:0:0:
320,192,64110,1,0,0:0:0:0:
448,192,64235,128,0,64485:0:0:0:0:
192,192,64235,1,0,0:0:0:0:
64,192,64360,1,0,0:0:0:0:
320,192,64485,128,0,65235:0:0:0:0:
192,192,64485,1,0,0:0:0:0:
448,192,65110,1,0,0:0:0:0:
448,192,65235,128,0,65485:0:0:0:0:
320,192,65485,5,0,0:0:0:0:
64,192,65485,1,0,0:0:0:0:
64,192,65610,1,0,0:0:0:0:
192,192,65672,1,0,0:0:0:0:
64,192,65735,1,0,0:0:0:0:
448,192,65776,1,0,0:0:0:0:
320,192,65818,1,0,0:0:0:0:
192,192,65860,1,0,0:0:0:0:
320,192,65985,1,0,0:0:0:0:
448,192,65985,1,0,0:0:0:0:
192,192,66110,1,0,0:0:0:0:
448,192,66110,1,0,0:0:0:0:
192,192,66235,128,0,66360:0:0:0:0:
320,192,66235,128,0,66360:0:0:0:0:
64,192,66485,5,0,0:0:0:0:
192,192,66485,1,0,0:0:0:0:
320,192,66526,128,0,66860:0:0:0:0:
448,192,66568,128,0,66985:0:0:0:0:
192,192,66860,128,0,66985:0:0:0:0:
320,192,66985,1,0,0:0:0:0:
64,192,66985,1,0,0:0:0:0:
448,192,67235,1,0,0:0:0:0:
448,192,67360,1,0,0:0:0:0:
64,192,67485,1,0,0:0:0:0:
192,192,67485,1,0,0:0:0:0:
320,192,67526,128,0,67860:0:0:0:0:
448,192,67568,128,0,67985:0:0:0:0:
192,192,67776,1,0,0:0:0:0:
64,192,67860,128,0,67985:0:0:0:0:
192,192,67985,1,0,0:0:0:0:
320,192,67985,1,0,0:0:0:0:
64,192,68110,1,0,0:0:0:0:
192,192,68235,1,0,0:0:0:0:
64,192,68485,1,0,0:0:0:0:
320,192,68485,1,0,0:0:0:0:
192,192,68547,1,0,0:0:0:0:
64,192,68610,1,0,0:0:0:0:
320,192,68672,1,0,0:0:0:0:
448,192,68735,128,0,68985:0:0:0:0:
320,192,68860,128,0,68985:0:0:0:0:
64,192,68985,1,0,0:0:0:0:
192,192,68985,1,0,0:0:0:0:
448,192,69110,1,0,0:0:0:0:
320,192,69235,128,0,69360:0:0:0:0:
192,192,69360,128,0,69610:0:0:0:0:
64,192,69485,1,0,0:0:0:0:
320,192,69485,128,0,69735:0:0:0:0:
448,192,69735,128,0,69985:0:0:0:0:
192,192,69860,1,0,0:0:0:0:
320,192,69985,1,0,0:0:0:0:
64,192,69985,1,0,0:0:0:0:
448,192,70110,1,0,0:0:0:0:
320,192,70235,1,0,0:0:0:0:
192,192,70485,1,0,0:0:0:0:
64,192,70485,128,0,70610:0:0:0:0:
64,192,70735,128,0,70985:0:0:0:0:
320,192,70860,1,0,0:0:0:0:
448,192,70985,1,0,0:0:0:0:
192,192,70985,128,0,71110:0:0:0:0:
320,192,71110,1,0,0:0:0:0:
192,192,71235,128,0,71485:0:0:0:0:
320,192,71485,128,0,71735:0:0:0:0:
448,192,71485,1,0,0:0:0:0:
192,192,71735,1,0,0:0:0:0:
448,192,71860,1,0,0:0:0:0:
320,192,71985,1,0,0:0:0:0:
64,192,71985,128,0,72110:0:0:0:0:
192,192,72110,1,0,0:0:0:0:
64,192,72235,128,0,72485:0:0:0:0:
320,192,72485,1,0,0:0:0:0:
192,192,72485,128,0,72610:0:0:0:0:
448,192,72610,1,0,0:0:0:0:
192,192,72735,128,0,72985:0:0:0:0:
64,192,72985,1,0,0:0:0:0:
320,192,72985,128,0,73110:0:0:0:0:
448,192,73110,1,0,0:0:0:0:
320,192,73235,128,0,73485:0:0:0:0:
448,192,73485,128,0,73985:0:0:0:0:
192,192,73485,1,0,0:0:0:0:
192,192,73610,1,0,0:0:0:0:
64,192,73610,1,0,0:0:0:0:
64,192,73985,1,0,0:0:0:0:
192,192,73985,1,0,0:0:0:0:
320,192,73985,1,0,0:0:0:0:
64,192,74235,1,0,0:0:0:0:
448,192,74235,1,0,0:0:0:0:
64,192,74485,1,0,0:0:0:0:
192,192,74485,1,0,0:0:0:0:
320,192,74526,128,0,74985:0:0:0:0:
448,192,74568,128,0,74860:0:0:0:0:
192,192,74860,128,0,74985:0:0:0:0:
64,192,74985,1,0,0:0:0:0:
448,192,74985,1,0,0:0:0:0:
320,192,75235,1,0,0:0:0:0:
320,192,75360,1,0,0:0:0:0:
64,192,75485,1,0,0:0:0:0:
192,192,75485,1,0,0:0:0:0:
320,192,75526,128,0,75985:0:0:0:0:
448,192,75568,128,0,75860:0:0:0:0:
64,192,75860,128,0,75985:0:0:0:0:
448,192,75985,1,0,0:0:0:0:
192,192,75985,1,0,0:0:0:0:
64,192,76110,1,0,0:0:0:0:
192,192,76235,1,0,0:0:0:0:
320,192,76485,1,0,0:0:0:0:
64,192,76485,1,0,0:0:0:0:
448,192,76547,1,0,0:0:0:0:
320,192,76610,1,0,0:0:0:0:
64,192,76735,128,0,76985:0:0:0:0:
192,192,76860,128,0,76985:0:0:0:0:
320,192,76985,1,0,0:0:0:0:
448,192,76985,1,0,0:0:0:0:
64,192,77110,1,0,0:0:0:0:
192,192,77235,128,0,77485:0:0:0:0:
320,192,77360,128,0,77610:0:0:0:0:
448,192,77485,1,0,0:0:0:0:
64,192,77485,128,0,77735:0:0:0:0:
320,192,77735,128,0,77860:0:0:0:0:
448,192,77860,128,0,77985:0:0:0:0:
320,192,77985,1,0,0:0:0:0:
64,192,77985,1,0,0:0:0:0:
192,192,78110,1,0,0:0:0:0:
64,192,78235,1,0,0:0:0:0:
448,192,78485,1,0,0:0:0:0:
320,192,78485,128,0,78860:0:0:0:0:
64,192,78735,1,0,0:0:0:0:
192,192,78860,128,0,79110:0:0:0:0:
448,192,78985,1,0,0:0:0:0:
320,192,78985,128,0,79360:0:0:0:0:
64,192,79110,1,0,0:0:0:0:
192,192,79235,128,0,79485:0:0:0:0:
320,192,79485,128,0,79860:0:0:0:0:
448,192,79485,1,0,0:0:0:0:
192,192,79610,128,0,79985:0:0:0:0:
64,192,79735,128,0,79860:0:0:0:0:
64,192,79985,1,0,0:0:0:0:
320,192,79985,1,0,0:0:0:0:
448,192,80110,1,0,0:0:0:0:
320,192,80235,1,0,0:0:0:0:
192,192,80485,1,0,0:0:0:0:
64,192,80485,128,0,81110:0:0:0:0:
320,192,80610,128,0,81110:0:0:0:0:
192,192,80735,1,0,0:0:0:0:
448,192,80735,1,0,0:0:0:0:
192,192,80985,1,0,0:0:0:0:
448,192,80985,1,0,0:0:0:0:
64,192,81235,128,0,81610:0:0:0:0:
320,192,81235,128,0,81610:0:0:0:0:
192,192,81610,1,0,0:0:0:0:
448,192,81610,1,0,0:0:0:0:
192,192,81735,1,0,0:0:0:0:
320,192,81735,1,0,0:0:0:0:
320,192,81943,1,0,0:0:0:0:
64,192,81985,1,0,0:0:0:0:
448,192,81985,1,0,0:0:0:0:
320,192,82193,1,0,0:0:0:0:
192,192,82235,1,0,0:0:0:0:
64,192,82485,128,0,82860:0:0:0:0:
448,192,82735,1,0,0:0:0:0:
448,192,82860,128,0,82985:0:0:0:0:
320,192,82985,1,0,0:0:0:0:
64,192,82985,1,0,0:0:0:0:
192,192,82985,1,0,0:0:0:0:
448,192,83110,1,0,0:0:0:0:
64,192,83235,1,0,0:0:0:0:
64,192,83360,1,0,0:0:0:0:
320,192,83485,1,0,0:0:0:0:
448,192,83485,1,0,0:0:0:0:
192,192,83526,128,0,83860:0:0:0:0:
64,192,83568,128,0,83985:0:0:0:0:
320,192,83776,1,0,0:0:0:0:
448,192,83860,128,0,83985:0:0:0:0:
320,192,83985,1,0,0:0:0:0:
192,192,83985,1,0,0:0:0:0:
448,192,84110,1,0,0:0:0:0:
320,192,84235,1,0,0:0:0:0:
64,192,84485,1,0,0:0:0:0:
320,192,84485,1,0,0:0:0:0:
192,192,84547,1,0,0:0:0:0:
64,192,84610,1,0,0:0:0:0:
320,192,84672,1,0,0:0:0:0:
448,192,84735,128,0,84985:0:0:0:0:
320,192,84860,128,0,84985:0:0:0:0:
64,192,84985,1,0,0:0:0:0:
192,192,84985,1,0,0:0:0:0:
448,192,85110,1,0,0:0:0:0:
320,192,85235,128,0,85360:0:0:0:0:
192,192,85360,128,0,85610:0:0:0:0:
64,192,85485,1,0,0:0:0:0:
320,192,85485,128,0,85735:0:0:0:0:
448,192,85735,128,0,85985:0:0:0:0:
192,192,85860,1,0,0:0:0:0:
320,192,85985,1,0,0:0:0:0:
64,192,85985,1,0,0:0:0:0:
448,192,86110,1,0,0:0:0:0:
320,192,86235,1,0,0:0:0:0:
192,192,86485,1,0,0:0:0:0:
64,192,86485,128,0,86610:0:0:0:0:
64,192,86735,128,0,86985:0:0:0:0:
320,192,86860,1,0,0:0:0:0:
448,192,86985,1,0,0:0:0:0:
192,192,86985,128,0,87110:0:0:0:0:
320,192,87110,1,0,0:0:0:0:
192,192,87235,128,0,87485:0:0:0:0:
320,192,87485,128,0,87735:0:0:0:0:
448,192,87485,1,0,0:0:0:0:
192,192,87735,1,0,0:0:0:0:
448,192,87860,1,0,0:0:0:0:
320,192,87985,1,0,0:0:0:0:
64,192,87985,128,0,88110:0:0:0:0:
192,192,88110,1,0,0:0:0:0:
64,192,88235,128,0,88485:0:0:0:0:
320,192,88485,1,0,0:0:0:0:
192,192,88485,128,0,88610:0:0:0:0:
448,192,88610,1,0,0:0:0:0:
192,192,88735,128,0,88985:0:0:0:0:
64,192,88985,1,0,0:0:0:0:
320,192,88985,128,0,89110:0:0:0:0:
448,192,89110,1,0,0:0:0:0:
320,192,89235,128,0,89485:0:0:0:0:
448,192,89485,128,0,89985:0:0:0:0:
192,192,89485,1,0,0:0:0:0:
192,192,89610,1,0,0:0:0:0:
64,192,89610,1,0,0:0:0:0:
64,192,89985,1,0,0:0:0:0:
192,192,89985,1,0,0:0:0:0:
320,192,89985,1,0,0:0:0:0:
64,192,90235,1,0,0:0:0:0:
448,192,90235,1,0,0:0:0:0:
448,192,90485,1,0,0:0:0:0:
320,192,90485,1,0,0:0:0:0:
192,192,90526,128,0,90985:0:0:0:0:
64,192,90568,128,0,90860:0:0:0:0:
320,192,90860,128,0,90985:0:0:0:0:
448,192,90985,1,0,0:0:0:0:
64,192,90985,1,0,0:0:0:0:
192,192,91235,1,0,0:0:0:0:
192,192,91360,1,0,0:0:0:0:
448,192,91485,1,0,0:0:0:0:
320,192,91485,1,0,0:0:0:0:
192,192,91526,128,0,91985:0:0:0:0:
64,192,91568,128,0,91860:0:0:0:0:
448,192,91860,128,0,91985:0:0:0:0:
64,192,91985,1,0,0:0:0:0:
320,192,91985,1,0,0:0:0:0:
448,192,92110,1,0,0:0:0:0:
320,192,92235,1,0,0:0:0:0:
192,192,92485,1,0,0:0:0:0:
448,192,92485,1,0,0:0:0:0:
64,192,92547,1,0,0:0:0:0:
192,192,92610,1,0,0:0:0:0:
448,192,92735,128,0,92985:0:0:0:0:
320,192,92860,128,0,92985:0:0:0:0:
192,192,92985,1,0,0:0:0:0:
64,192,92985,1,0,0:0:0:0:
448,192,93110,1,0,0:0:0:0:
320,192,93235,128,0,93485:0:0:0:0:
192,192,93360,128,0,93610:0:0:0:0:
64,192,93485,1,0,0:0:0:0:
448,192,93485,128,0,93735:0:0:0:0:
192,192,93735,128,0,93860:0:0:0:0:
64,192,93860,128,0,93985:0:0:0:0:
192,192,93985,1,0,0:0:0:0:
448,192,93985,1,0,0:0:0:0:
320,192,94110,1,0,0:0:0:0:
448,192,94235,1,0,0:0:0:0:
448,192,94485,128,0,95360:0:0:0:0:
192,192,94485,1,0,0:0:0:0:
64,192,94735,1,0,0:0:0:0:
192,192,94860,1,0,0:0:0:0:
320,192,94985,1,0,0:0:0:0:
64,192,94985,128,0,95860:0:0:0:0:
192,192,95235,1,0,0:0:0:0:
448,192,95485,128,0,95985:0:0:0:0:
320,192,95485,1,0,0:0:0:0:
192,192,95860,1,0,0:0:0:0:
320,192,95860,1,0,0:0:0:0:
192,192,95985,1,0,0:0:0:0:
64,192,95985,1,0,0:0:0:0:
64,192,96235,1,0,0:0:0:0:
448,192,96235,1,0,0:0:0:0:
192,192,96235,128,0,97485:0:0:0:0:
320,192,96235,128,0,97485:0:0:0:0:
448,192,96735,1,0,0:0:0:0:
64,192,96735,1,0,0:0:0:0:
448,192,96985,1,0,0:0:0:0:
64,192,96985,1,0,0:0:0:0:
448,192,97235,1,0,0:0:0:0:
64,192,97235,1,0,0:0:0:0:
448,192,97485,1,0,0:0:0:0:
64,192,97485,1,0,0:0:0:0:
320,192,97735,128,0,97985:0:0:0:0:
64,192,97860,1,0,0:0:0:0:
192,192,97922,1,0,0:0:0:0:
64,192,97985,1,0,0:0:0:0:
448,192,97985,128,0,98235:0:0:0:0:
192,192,98235,1,0,0:0:0:0:
320,192,98235,1,0,0:0:0:0:
192,192,98485,1,0,0:0:0:0:
64,192,98485,1,0,0:0:0:0:
448,192,98485,1,0,0:0:0:0:
320,192,98735,128,0,98860:0:0:0:0:
64,192,98776,128,0,98860:0:0:0:0:
192,192,98985,1,0,0:0:0:0:
320,192,98985,128,0,99110:0:0:0:0:
448,192,99026,128,0,99110:0:0:0:0:
192,192,99110,1,0,0:0:0:0:
448,192,99235,128,0,99360:0:0:0:0:
64,192,99276,128,0,99360:0:0:0:0:
320,192,99485,1,0,0:0:0:0:
448,192,99485,128,0,99735:0:0:0:0:
64,192,99526,128,0,99735:0:0:0:0:
448,192,99860,128,0,99985:0:0:0:0:
64,192,99860,128,0,99985:0:0:0:0:
192,192,99985,1,0,0:0:0:0:
320,192,99985,1,0,0:0:0:0:
64,192,100235,128,0,100860:0:0:0:0:
192,192,100276,1,0,0:0:0:0:
320,192,100318,1,0,0:0:0:0:
448,192,100360,128,0,100735:0:0:0:0:
192,192,100485,1,0,0:0:0:0:
320,192,100485,1,0,0:0:0:0:
320,192,100735,128,0,100860:0:0:0:0:
320,192,100985,1,0,0:0:0:0:
64,192,100985,128,0,101110:0:0:0:0:
192,192,101026,128,0,101110:0:0:0:0:
320,192,101235,128,0,101360:0:0:0:0:
192,192,101276,128,0,101360:0:0:0:0:
64,192,101485,128,0,101735:0:0:0:0:
448,192,101485,1,0,0:0:0:0:
192,192,101526,128,0,101610:0:0:0:0:
320,192,101672,128,0,101860:0:0:0:0:
192,192,101735,128,0,101860:0:0:0:0:
64,192,101860,128,0,101985:0:0:0:0:
192,192,101985,1,0,0:0:0:0:
320,192,101985,1,0,0:0:0:0:
320,192,102235,128,0,102360:0:0:0:0:
448,192,102276,128,0,102360:0:0:0:0:
64,192,102485,1,0,0:0:0:0:
192,192,102485,128,0,102735:0:0:0:0:
320,192,102526,128,0,102735:0:0:0:0:
320,192,102860,128,0,102985:0:0:0:0:
192,192,102860,128,0,102985:0:0:0:0:
64,192,102985,1,0,0:0:0:0:
448,192,102985,1,0,0:0:0:0:
192,192,103110,128,0,103193:0:0:0:0:
64,192,103110,128,0,103193:0:0:0:0:
320,192,103235,128,0,103360:0:0:0:0:
448,192,103235,128,0,103360:0:0:0:0:
192,192,103485,128,0,103735:0:0:0:0:
64,192,103485,1,0,0:0:0:0:
448,192,103526,128,0,103735:0:0:0:0:
320,192,103985,1,0,0:0:0:0:
192,192,103985,128,0,104235:0:0:0:0:
448,192,104026,128,0,104360:0:0:0:0:
320,192,104235,128,0,104360:0:0:0:0:
448,192,104485,1,0,0:0:0:0:
64,192,104485,1,0,0:0:0:0:
320,192,104547,128,0,104860:0:0:0:0:
448,192,104610,128,0,104735:0:0:0:0:
64,192,104735,1,0,0:0:0:0:
192,192,104735,128,0,104860:0:0:0:0:
192,192,104985,128,0,105110:0:0:0:0:
320,192,104985,128,0,105110:0:0:0:0:
192,192,105235,128,0,105360:0:0:0:0:
64,192,105297,128,0,105360:0:0:0:0:
64,192,105485,128,0,105735:0:0:0:0:
192,192,105485,128,0,105860:0:0:0:0:
320,192,105610,1,0,0:0:0:0:
448,192,105610,1,0,0:0:0:0:
320,192,105735,128,0,105860:0:0:0:0:
192,192,105985,128,0,106193:0:0:0:0:
320,192,105985,128,0,106151:0:0:0:0:
448,192,106235,1,0,0:0:0:0:
320,192,106276,1,0,0:0:0:0:
192,192,106318,1,0,0:0:0:0:
64,192,106360,1,0,0:0:0:0:
320,192,106485,1,0,0:0:0:0:
64,192,106485,1,0,0:0:0:0:
448,192,106485,1,0,0:0:0:0:
320,192,106735,128,0,106860:0:0:0:0:
64,192,106776,128,0,106860:0:0:0:0:
192,192,106985,1,0,0:0:0:0:
320,192,106985,128,0,107110:0:0:0:0:
448,192,107026,128,0,107110:0:0:0:0:
192,192,107110,1,0,0:0:0:0:
448,192,107235,128,0,107360:0:0:0:0:
64,192,107276,128,0,107360:0:0:0:0:
320,192,107485,1,0,0:0:0:0:
448,192,107485,128,0,107735:0:0:0:0:
64,192,107526,128,0,107735:0:0:0:0:
448,192,107860,128,0,107985:0:0:0:0:
64,192,107860,128,0,107985:0:0:0:0:
192,192,107985,1,0,0:0:0:0:
320,192,107985,1,0,0:0:0:0:
64,192,108235,128,0,108860:0:0:0:0:
192,192,108276,1,0,0:0:0:0:
320,192,108318,1,0,0:0:0:0:
448,192,108360,128,0,108735:0:0:0:0:
192,192,108485,1,0,0:0:0:0:
320,192,108485,1,0,0:0:0:0:
320,192,108735,128,0,108860:0:0:0:0:
320,192,108985,1,0,0:0:0:0:
64,192,108985,128,0,109110:0:0:0:0:
192,192,109026,128,0,109110:0:0:0:0:
320,192,109235,128,0,109360:0:0:0:0:
192,192,109276,128,0,109360:0:0:0:0:
64,192,109485,128,0,109735:0:0:0:0:
448,192,109485,1,0,0:0:0:0:
192,192,109526,128,0,109610:0:0:0:0:
320,192,109672,128,0,109860:0:0:0:0:
192,192,109735,128,0,109860:0:0:0:0:
64,192,109860,128,0,109985:0:0:0:0:
192,192,109985,1,0,0:0:0:0:
320,192,109985,1,0,0:0:0:0:
320,192,110235,128,0,110360:0:0:0:0:
448,192,110276,128,0,110360:0:0:0:0:
64,192,110485,1,0,0:0:0:0:
192,192,110485,128,0,110860:0:0:0:0:
320,192,110526,128,0,110985:0:0:0:0:
448,192,110860,128,0,110985:0:0:0:0:
64,192,110985,1,0,0:0:0:0:
192,192,110985,1,0,0:0:0:0:
320,192,111110,128,0,111193:0:0:0:0:
64,192,111110,128,0,111193:0:0:0:0:
192,192,111235,128,0,111360:0:0:0:0:
448,192,111235,128,0,111360:0:0:0:0:
192,192,111485,128,0,111860:0:0:0:0:
64,192,111485,1,0,0:0:0:0:
448,192,111526,128,0,111735:0:0:0:0:
320,192,111735,128,0,111860:0:0:0:0:
448,192,111860,1,0,0:0:0:0:
64,192,111860,1,0,0:0:0:0:
192,192,111985,1,0,0:0:0:0:
320,192,111985,1,0,0:0:0:0:
320,192,112235,1,0,0:0:0:0:
64,192,112235,1,0,0:0:0:0:
192,192,112235,128,0,113485:0:0:0:0:
448,192,112235,128,0,113485:0:0:0:0:
320,192,112735,1,0,0:0:0:0:
64,192,112735,1,0,0:0:0:0:
320,192,112985,1,0,0:0:0:0:
64,192,112985,1,0,0:0:0:0:
320,192,113235,1,0,0:0:0:0:
64,192,113235,1,0,0:0:0:0:
320,192,113485,1,0,0:0:0:0:
64,192,113485,1,0,0:0:0:0:
64,192,113735,1,0,0:0:0:0:
192,192,113985,1,0,0:0:0:0:
320,192,114235,1,0,0:0:0:0:
320,192,114485,1,0,0:0:0:0:
448,192,114485,1,0,0:0:0:0:
320,192,114735,1,0,0:0:0:0:
64,192,114860,1,0,0:0:0:0:
192,192,114985,1,0,0:0:0:0:
320,192,115235,1,0,0:0:0:0:
448,192,115360,1,0,0:0:0:0:
192,192,115485,1,0,0:0:0:0:
448,192,115735,1,0,0:0:0:0:
64,192,115735,1,0,0:0:0:0:
320,192,115860,1,0,0:0:0:0:
192,192,115985,1,0,0:0:0:0:
320,192,116235,1,0,0:0:0:0:
64,192,116360,1,0,0:0:0:0:
448,192,116485,1,0,0:0:0:0:
192,192,116485,1,0,0:0:0:0:
320,192,116735,1,0,0:0:0:0:
192,192,116985,1,0,0:0:0:0:
448,192,117235,1,0,0:0:0:0:
320,192,117235,1,0,0:0:0:0:
64,192,117360,1,0,0:0:0:0:
320,192,117485,1,0,0:0:0:0:
64,192,117610,1,0,0:0:0:0:
448,192,117735,1,0,0:0:0:0:
192,192,117735,1,0,0:0:0:0:
64,192,117860,1,0,0:0:0:0:
320,192,117943,1,0,0:0:0:0:
448,192,117985,1,0,0:0:0:0:
192,192,118235,1,0,0:0:0:0:
320,192,118360,1,0,0:0:0:0:
64,192,118485,1,0,0:0:0:0:
192,192,118485,1,0,0:0:0:0:
448,192,118735,1,0,0:0:0:0:
64,192,118985,1,0,0:0:0:0:
320,192,118985,1,0,0:0:0:0:
192,192,119235,1,0,0:0:0:0:
448,192,119360,1,0,0:0:0:0:
320,192,119485,1,0,0:0:0:0:
192,192,119610,1,0,0:0:0:0:
64,192,119735,1,0,0:0:0:0:
448,192,119735,1,0,0:0:0:0:
192,192,119985,1,0,0:0:0:0:
64,192,120235,1,0,0:0:0:0:
320,192,120235,1,0,0:0:0:0:
448,192,120360,1,0,0:0:0:0:
192,192,120485,1,0,0:0:0:0:
320,192,120485,1,0,0:0:0:0:
64,192,120735,1,0,0:0:0:0:
192,192,120985,1,0,0:0:0:0:
320,192,121235,1,0,0:0:0:0:
64,192,121235,1,0,0:0:0:0:
448,192,121360,1,0,0:0:0:0:
64,192,121485,1,0,0:0:0:0:
192,192,121485,1,0,0:0:0:0:
320,192,121610,1,0,0:0:0:0:
448,192,121610,1,0,0:0:0:0:
192,192,121735,128,0,121985:0:0:0:0:
320,192,121797,1,0,0:0:0:0:
64,192,121860,1,0,0:0:0:0:
448,192,121860,1,0,0:0:0:0:
320,192,121985,128,0,122235:0:0:0:0:
448,192,121985,1,0,0:0:0:0:
64,192,122110,1,0,0:0:0:0:
448,192,122235,128,0,122360:0:0:0:0:
192,192,122235,1,0,0:0:0:0:
64,192,122360,1,0,0:0:0:0:
448,192,122485,128,0,122735:0:0:0:0:
320,192,122485,1,0,0:0:0:0:
320,192,122735,128,0,122985:0:0:0:0:
192,192,122860,1,0,0:0:0:0:
448,192,122985,128,0,123235:0:0:0:0:
64,192,122985,1,0,0:0:0:0:
320,192,123235,128,0,123360:0:0:0:0:
192,192,123360,128,0,123485:0:0:0:0:
448,192,123485,1,0,0:0:0:0:
64,192,123485,1,0,0:0:0:0:
192,192,123735,128,0,123860:0:0:0:0:
320,192,123797,128,0,124110:0:0:0:0:
192,192,123985,1,0,0:0:0:0:
64,192,123985,1,0,0:0:0:0:
320,192,124235,128,0,124485:0:0:0:0:
64,192,124360,1,0,0:0:0:0:
192,192,124485,128,0,124735:0:0:0:0:
448,192,124485,1,0,0:0:0:0:
64,192,124610,1,0,0:0:0:0:
448,192,124735,128,0,124985:0:0:0:0:
320,192,124985,128,0,125235:0:0:0:0:
64,192,124985,1,0,0:0:0:0:
192,192,125235,128,0,125360:0:0:0:0:
64,192,125360,128,0,125485:0:0:0:0:
320,192,125485,1,0,0:0:0:0:
448,192,125485,1,0,0:0:0:0:
192,192,125735,1,0,0:0:0:0:
320,192,125735,1,0,0:0:0:0:
448,192,125901,1,0,0:0:0:0:
320,192,125943,1,0,0:0:0:0:
64,192,125985,128,0,126235:0:0:0:0:
192,192,125985,1,0,0:0:0:0:
192,192,126235,128,0,126485:0:0:0:0:
64,192,126360,1,0,0:0:0:0:
448,192,126485,1,0,0:0:0:0:
320,192,126485,128,0,126985:0:0:0:0:
192,192,126735,1,0,0:0:0:0:
64,192,126735,1,0,0:0:0:0:
448,192,126985,128,0,127235:0:0:0:0:
64,192,126985,1,0,0:0:0:0:
192,192,127235,128,0,127735:0:0:0:0:
320,192,127235,1,0,0:0:0:0:
448,192,127485,1,0,0:0:0:0:
64,192,127485,1,0,0:0:0:0:
320,192,127735,128,0,127985:0:0:0:0:
64,192,127797,1,0,0:0:0:0:
448,192,127860,1,0,0:0:0:0:
192,192,127922,1,0,0:0:0:0:
64,192,127985,128,0,128235:0:0:0:0:
320,192,128110,1,0,0:0:0:0:
448,192,128235,128,0,128485:0:0:0:0:
192,192,128235,1,0,0:0:0:0:
64,192,128360,1,0,0:0:0:0:
320,192,128485,128,0,129235:0:0:0:0:
192,192,128485,1,0,0:0:0:0:
448,192,129110,1,0,0:0:0:0:
448,192,129235,128,0,129485:0:0:0:0:
320,192,129485,5,0,0:0:0:0:
64,192,129485,1,0,0:0:0:0:
192,192,129610,1,0,0:0:0:0:
320,192,129672,1,0,0:0:0:0:
192,192,129735,1,0,0:0:0:0:
448,192,129735,1,0,0:0:0:0:
64,192,129735,1,0,0:0:0:0:
320,192,129985,1,0,0:0:0:0:
448,192,129985,1,0,0:0:0:0:
192,192,130110,1,0,0:0:0:0:
64,192,130110,1,0,0:0:0:0:
320,192,130235,1,0,0:0:0:0:
64,192,130360,1,0,0:0:0:0:
192,192,130485,1,0,0:0:0:0:
320,192,130485,1,0,0:0:0:0:
448,192,130526,128,0,130984:0:0:0:0:
64,192,130735,1,0,0:0:0:0:
64,192,131110,1,0,0:0:0:0:
448,192,131110,1,0,0:0:0:0:
448,192,131235,1,0,0:0:0:0:
192,192,131235,1,0,0:0:0:0:
320,192,131360,1,0,0:0:0:0:
64,192,131360,1,0,0:0:0:0:
64,192,131485,1,0,0:0:0:0:
320,192,131526,1,0,0:0:0:0:
192,192,131568,1,0,0:0:0:0:
448,192,131610,1,0,0:0:0:0:
192,192,131735,1,0,0:0:0:0:
64,192,131735,1,0,0:0:0:0:
320,192,131860,1,0,0:0:0:0:
448,192,131860,1,0,0:0:0:0:
448,192,131985,1,0,0:0:0:0:
64,192,131985,1,0,0:0:0:0:
192,192,132110,1,0,0:0:0:0:
320,192,132110,1,0,0:0:0:0:
448,192,132235,128,0,132360:0:0:0:0:
64,192,132235,128,0,132360:0:0:0:0:
64,192,132485,5,0,0:0:0:0:
192,192,132485,128,0,132735:0:0:0:0:
320,192,132526,128,0,132860:0:0:0:0:
448,192,132568,128,0,132985:0:0:0:0:
192,192,132860,128,0,132985:0:0:0:0:
320,192,132985,1,0,0:0:0:0:
64,192,132985,1,0,0:0:0:0:
64,192,133110,1,0,0:0:0:0:
448,192,133235,1,0,0:0:0:0:
192,192,133235,1,0,0:0:0:0:
448,192,133360,1,0,0:0:0:0:
320,192,133360,1,0,0:0:0:0:
192,192,133485,1,0,0:0:0:0:
64,192,133485,128,0,133735:0:0:0:0:
320,192,133526,128,0,133860:0:0:0:0:
448,192,133568,128,0,133985:0:0:0:0:
192,192,133776,1,0,0:0:0:0:
64,192,133860,128,0,133985:0:0:0:0:
192,192,133985,1,0,0:0:0:0:
320,192,133985,1,0,0:0:0:0:
64,192,134110,1,0,0:0:0:0:
192,192,134235,1,0,0:0:0:0:
448,192,134235,1,0,0:0:0:0:
64,192,134485,1,0,0:0:0:0:
320,192,134485,1,0,0:0:0:0:
192,192,134547,1,0,0:0:0:0:
64,192,134610,1,0,0:0:0:0:
320,192,134672,1,0,0:0:0:0:
448,192,134735,128,0,134985:0:0:0:0:
192,192,134735,1,0,0:0:0:0:
320,192,134860,128,0,134985:0:0:0:0:
64,192,134985,1,0,0:0:0:0:
192,192,134985,1,0,0:0:0:0:
448,192,135110,1,0,0:0:0:0:
320,192,135235,128,0,135360:0:0:0:0:
64,192,135235,1,0,0:0:0:0:
192,192,135360,128,0,135610:0:0:0:0:
64,192,135485,1,0,0:0:0:0:
320,192,135485,128,0,135735:0:0:0:0:
448,192,135735,128,0,135985:0:0:0:0:
192,192,135860,1,0,0:0:0:0:
320,192,135985,1,0,0:0:0:0:
64,192,135985,1,0,0:0:0:0:
448,192,136110,1,0,0:0:0:0:
320,192,136235,1,0,0:0:0:0:
192,192,136235,1,0,0:0:0:0:
192,192,136485,1,0,0:0:0:0:
64,192,136485,128,0,136610:0:0:0:0:
64,192,136735,128,0,136985:0:0:0:0:
192,192,136735,1,0,0:0:0:0:
320,192,136860,1,0,0:0:0:0:
448,192,136985,1,0,0:0:0:0:
192,192,136985,128,0,137110:0:0:0:0:
320,192,137110,1,0,0:0:0:0:
192,192,137235,128,0,137485:0:0:0:0:
448,192,137235,1,0,0:0:0:0:
320,192,137485,128,0,137735:0:0:0:0:
448,192,137485,1,0,0:0:0:0:
192,192,137735,1,0,0:0:0:0:
448,192,137860,1,0,0:0:0:0:
320,192,137985,1,0,0:0:0:0:
64,192,137985,128,0,138110:0:0:0:0:
192,192,138110,1,0,0:0:0:0:
64,192,138235,128,0,138735:0:0:0:0:
320,192,138235,1,0,0:0:0:0:
320,192,138485,1,0,0:0:0:0:
192,192,138485,128,0,138610:0:0:0:0:
448,192,138610,1,0,0:0:0:0:
192,192,138735,128,0,139235:0:0:0:0:
320,192,138735,1,0,0:0:0:0:
64,192,138985,1,0,0:0:0:0:
320,192,138985,128,0,139110:0:0:0:0:
448,192,139110,1,0,0:0:0:0:
320,192,139235,128,0,139735:0:0:0:0:
64,192,139235,1,0,0:0:0:0:
448,192,139485,128,0,139985:0:0:0:0:
192,192,139485,1,0,0:0:0:0:
192,192,139610,1,0,0:0:0:0:
64,192,139610,1,0,0:0:0:0:
64,192,139985,1,0,0:0:0:0:
192,192,139985,1,0,0:0:0:0:
320,192,139985,1,0,0:0:0:0:
64,192,140235,1,0,0:0:0:0:
448,192,140235,1,0,0:0:0:0:
64,192,140485,1,0,0:0:0:0:
192,192,140485,128,0,140735:0:0:0:0:
320,192,140526,128,0,140985:0:0:0:0:
448,192,140568,128,0,140860:0:0:0:0:
192,192,140860,128,0,140985:0:0:0:0:
64,192,140985,1,0,0:0:0:0:
448,192,140985,1,0,0:0:0:0:
320,192,141235,1,0,0:0:0:0:
64,192,141235,1,0,0:0:0:0:
320,192,141360,1,0,0:0:0:0:
448,192,141360,1,0,0:0:0:0:
192,192,141485,1,0,0:0:0:0:
64,192,141485,128,0,141735:0:0:0:0:
320,192,141526,128,0,141985:0:0:0:0:
448,192,141568,128,0,141860:0:0:0:0:
64,192,141860,128,0,141985:0:0:0:0:
448,192,141985,1,0,0:0:0:0:
192,192,141985,1,0,0:0:0:0:
64,192,142110,1,0,0:0:0:0:
192,192,142235,1,0,0:0:0:0:
320,192,142235,1,0,0:0:0:0:
320,192,142485,1,0,0:0:0:0:
64,192,142485,1,0,0:0:0:0:
448,192,142547,1,0,0:0:0:0:
320,192,142610,1,0,0:0:0:0:
64,192,142735,128,0,142985:0:0:0:0:
448,192,142735,1,0,0:0:0:0:
192,192,142860,128,0,142985:0:0:0:0:
320,192,142985,1,0,0:0:0:0:
448,192,142985,1,0,0:0:0:0:
64,192,143110,1,0,0:0:0:0:
192,192,143235,128,0,143485:0:0:0:0:
448,192,143235,1,0,0:0:0:0:
320,192,143360,128,0,143610:0:0:0:0:
448,192,143485,1,0,0:0:0:0:
64,192,143485,128,0,143735:0:0:0:0:
320,192,143735,128,0,143860:0:0:0:0:
448,192,143860,128,0,143985:0:0:0:0:
192,192,143860,1,0,0:0:0:0:
320,192,143985,1,0,0:0:0:0:
64,192,143985,1,0,0:0:0:0:
192,192,144110,1,0,0:0:0:0:
64,192,144235,1,0,0:0:0:0:
448,192,144235,1,0,0:0:0:0:
320,192,144485,128,0,144860:0:0:0:0:
448,192,144485,128,0,144735:0:0:0:0:
64,192,144735,128,0,144985:0:0:0:0:
192,192,144860,128,0,145110:0:0:0:0:
320,192,144985,128,0,145360:0:0:0:0:
448,192,144985,128,0,145110:0:0:0:0:
64,192,145110,128,0,145485:0:0:0:0:
192,192,145235,128,0,145485:0:0:0:0:
320,192,145485,128,0,145860:0:0:0:0:
448,192,145485,128,0,145985:0:0:0:0:
192,192,145610,128,0,145985:0:0:0:0:
64,192,145735,128,0,145860:0:0:0:0:
64,192,145985,1,0,0:0:0:0:
320,192,145985,1,0,0:0:0:0:
448,192,146110,1,0,0:0:0:0:
320,192,146235,1,0,0:0:0:0:
192,192,146235,1,0,0:0:0:0:
192,192,146485,1,0,0:0:0:0:
64,192,146485,128,0,147110:0:0:0:0:
320,192,146610,128,0,147110:0:0:0:0:
192,192,146735,1,0,0:0:0:0:
448,192,146735,1,0,0:0:0:0:
192,192,146985,128,0,147235:0:0:0:0:
448,192,146985,128,0,147235:0:0:0:0:
64,192,147235,128,0,147610:0:0:0:0:
320,192,147235,128,0,147610:0:0:0:0:
192,192,147610,1,0,0:0:0:0:
448,192,147610,1,0,0:0:0:0:
192,192,147735,1,0,0:0:0:0:
320,192,147735,1,0,0:0:0:0:
320,192,147943,1,0,0:0:0:0:
64,192,147985,1,0,0:0:0:0:
448,192,147985,1,0,0:0:0:0:
320,192,148193,1,0,0:0:0:0:
192,192,148235,1,0,0:0:0:0:
64,192,148485,128,0,148860:0:0:0:0:
448,192,148735,1,0,0:0:0:0:
448,192,148860,128,0,148985:0:0:0:0:
320,192,148985,1,0,0:0:0:0:
64,192,148985,1,0,0:0:0:0:
192,192,148985,1,0,0:0:0:0:
448,192,149110,1,0,0:0:0:0:
64,192,149235,1,0,0:0:0:0:
320,192,149235,1,0,0:0:0:0:
64,192,149360,1,0,0:0:0:0:
192,192,149360,1,0,0:0:0:0:
320,192,149485,1,0,0:0:0:0:
448,192,149485,128,0,149735:0:0:0:0:
192,192,149526,128,0,149860:0:0:0:0:
64,192,149568,128,0,149985:0:0:0:0:
320,192,149776,1,0,0:0:0:0:
448,192,149860,128,0,149985:0:0:0:0:
320,192,149985,1,0,0:0:0:0:
192,192,149985,1,0,0:0:0:0:
448,192,150110,1,0,0:0:0:0:
320,192,150235,1,0,0:0:0:0:
192,192,150235,1,0,0:0:0:0:
64,192,150485,1,0,0:0:0:0:
320,192,150485,1,0,0:0:0:0:
192,192,150547,1,0,0:0:0:0:
64,192,150610,1,0,0:0:0:0:
320,192,150672,1,0,0:0:0:0:
448,192,150735,128,0,150985:0:0:0:0:
192,192,150735,1,0,0:0:0:0:
320,192,150860,128,0,150985:0:0:0:0:
64,192,150985,1,0,0:0:0:0:
192,192,150985,1,0,0:0:0:0:
448,192,151110,1,0,0:0:0:0:
320,192,151235,128,0,151360:0:0:0:0:
64,192,151235,1,0,0:0:0:0:
192,192,151360,128,0,151610:0:0:0:0:
64,192,151485,1,0,0:0:0:0:
320,192,151485,128,0,151735:0:0:0:0:
448,192,151735,128,0,151985:0:0:0:0:
192,192,151860,1,0,0:0:0:0:
320,192,151985,1,0,0:0:0:0:
64,192,151985,1,0,0:0:0:0:
448,192,152110,1,0,0:0:0:0:
320,192,152235,1,0,0:0:0:0:
192,192,152235,1,0,0:0:0:0:
192,192,152485,1,0,0:0:0:0:
64,192,152485,128,0,152610:0:0:0:0:
64,192,152735,128,0,152985:0:0:0:0:
192,192,152735,1,0,0:0:0:0:
320,192,152860,1,0,0:0:0:0:
448,192,152985,1,0,0:0:0:0:
192,192,152985,128,0,153110:0:0:0:0:
320,192,153110,1,0,0:0:0:0:
192,192,153235,128,0,153485:0:0:0:0:
448,192,153235,1,0,0:0:0:0:
320,192,153485,128,0,153735:0:0:0:0:
448,192,153485,1,0,0:0:0:0:
192,192,153735,1,0,0:0:0:0:
448,192,153860,1,0,0:0:0:0:
320,192,153985,1,0,0:0:0:0:
64,192,153985,128,0,154110:0:0:0:0:
192,192,154110,1,0,0:0:0:0:
64,192,154235,128,0,154735:0:0:0:0:
320,192,154235,1,0,0:0:0:0:
320,192,154485,1,0,0:0:0:0:
192,192,154485,128,0,154610:0:0:0:0:
448,192,154610,1,0,0:0:0:0:
192,192,154735,128,0,155235:0:0:0:0:
320,192,154735,1,0,0:0:0:0:
64,192,154985,1,0,0:0:0:0:
320,192,154985,128,0,155110:0:0:0:0:
448,192,155110,1,0,0:0:0:0:
320,192,155235,128,0,155735:0:0:0:0:
64,192,155235,1,0,0:0:0:0:
448,192,155485,128,0,155985:0:0:0:0:
192,192,155485,1,0,0:0:0:0:
192,192,155610,1,0,0:0:0:0:
64,192,155610,1,0,0:0:0:0:
64,192,155985,1,0,0:0:0:0:
192,192,155985,1,0,0:0:0:0:
320,192,155985,1,0,0:0:0:0:
64,192,156235,1,0,0:0:0:0:
448,192,156235,1,0,0:0:0:0:
192,192,156360,1,0,0:0:0:0:
64,192,156360,1,0,0:0:0:0:
448,192,156485,128,0,156985:0:0:0:0:
320,192,156485,1,0,0:0:0:0:
64,192,156735,1,0,0:0:0:0:
192,192,156860,1,0,0:0:0:0:
320,192,156985,1,0,0:0:0:0:
64,192,156985,1,0,0:0:0:0:
448,192,157110,128,0,157360:0:0:0:0:
320,192,157235,128,0,157610:0:0:0:0:
192,192,157235,1,0,0:0:0:0:
448,192,157485,128,0,157735:0:0:0:0:
64,192,157485,1,0,0:0:0:0:
320,192,157860,128,0,158110:0:0:0:0:
192,192,157985,1,0,0:0:0:0:
64,192,157985,1,0,0:0:0:0:
192,192,158235,128,0,158485:0:0:0:0:
448,192,158235,1,0,0:0:0:0:
64,192,158485,128,0,158735:0:0:0:0:
320,192,158485,1,0,0:0:0:0:
192,192,158735,128,0,158860:0:0:0:0:
448,192,158735,1,0,0:0:0:0:
320,192,158860,128,0,158985:0:0:0:0:
448,192,158860,1,0,0:0:0:0:
64,192,158985,1,0,0:0:0:0:
192,192,158985,1,0,0:0:0:0:
448,192,159110,1,0,0:0:0:0:
320,192,159235,128,0,159360:0:0:0:0:
64,192,159235,1,0,0:0:0:0:
448,192,159360,128,0,159735:0:0:0:0:
192,192,159360,1,0,0:0:0:0:
320,192,159485,1,0,0:0:0:0:
64,192,159485,1,0,0:0:0:0:
192,192,159735,128,0,159860:0:0:0:0:
320,192,159860,128,0,159985:0:0:0:0:
192,192,159985,1,0,0:0:0:0:
64,192,159985,1,0,0:0:0:0:
448,192,160110,1,0,0:0:0:0:
320,192,160235,1,0,0:0:0:0:
64,192,160235,1,0,0:0:0:0:
448,192,160485,128,0,161360:0:0:0:0:
192,192,160485,1,0,0:0:0:0:
64,192,160735,1,0,0:0:0:0:
192,192,160860,1,0,0:0:0:0:
320,192,160985,1,0,0:0:0:0:
64,192,160985,128,0,161860:0:0:0:0:
320,192,161235,1,0,0:0:0:0:
192,192,161235,128,0,161485:0:0:0:0:
448,192,161485,128,0,161985:0:0:0:0:
320,192,161485,128,0,161735:0:0:0:0:
192,192,161860,1,0,0:0:0:0:
320,192,161860,1,0,0:0:0:0:
192,192,161985,1,0,0:0:0:0:
64,192,161985,1,0,0:0:0:0:
192,192,162235,128,0,163485:0:0:0:0:
320,192,162235,128,0,163485:0:0:0:0:
64,192,162235,128,0,162610:0:0:0:0:
448,192,162235,128,0,162610:0:0:0:0:
64,192,162735,128,0,162860:0:0:0:0:
448,192,162735,128,0,162860:0:0:0:0:
64,192,162985,128,0,163110:0:0:0:0:
448,192,162985,128,0,163110:0:0:0:0:
64,192,163235,128,0,163360:0:0:0:0:
448,192,163235,128,0,163360:0:0:0:0:
448,192,163485,1,0,0:0:0:0:
64,192,163485,1,0,0:0:0:0:
320,192,163735,128,0,163985:0:0:0:0:
448,192,163985,128,0,164235:0:0:0:0:
192,192,164235,1,0,0:0:0:0:
64,192,164485,1,0,0:0:0:0:
192,192,164485,1,0,0:0:0:0:
448,192,164485,1,0,0:0:0:0:
320,192,164526,1,0,0:0:0:0:
320,192,164735,1,0,0:0:0:0:
192,192,164735,1,0,0:0:0:0:
192,192,164860,1,0,0:0:0:0:
64,192,164985,1,0,0:0:0:0:
320,192,164985,1,0,0:0:0:0:
448,192,164985,1,0,0:0:0:0:
192,192,165110,1,0,0:0:0:0:
320,192,165235,1,0,0:0:0:0:
448,192,165235,1,0,0:0:0:0:
64,192,165485,128,0,165610:0:0:0:0:
320,192,165485,128,0,165610:0:0:0:0:
448,192,165610,1,0,0:0:0:0:
192,192,165610,1,0,0:0:0:0:
64,192,165860,1,0,0:0:0:0:
320,192,165860,1,0,0:0:0:0:
448,192,165985,1,0,0:0:0:0:
320,192,165985,1,0,0:0:0:0:
64,192,166110,128,0,166235:0:0:0:0:
192,192,166110,128,0,166235:0:0:0:0:
448,192,166235,1,0,0:0:0:0:
320,192,166235,1,0,0:0:0:0:
448,192,166485,1,0,0:0:0:0:
64,192,166485,1,0,0:0:0:0:
192,192,166735,128,0,166985:0:0:0:0:
64,192,166735,128,0,166985:0:0:0:0:
320,192,166985,1,0,0:0:0:0:
448,192,166985,1,0,0:0:0:0:
192,192,167110,128,0,167193:0:0:0:0:
320,192,167110,128,0,167235:0:0:0:0:
320,192,167360,128,0,167610:0:0:0:0:
448,192,167401,128,0,167610:0:0:0:0:
64,192,167485,1,0,0:0:0:0:
192,192,167485,1,0,0:0:0:0:
448,192,167735,1,0,0:0:0:0:
192,192,167735,1,0,0:0:0:0:
320,192,167985,1,0,0:0:0:0:
64,192,167985,1,0,0:0:0:0:
448,192,168047,1,0,0:0:0:0:
192,192,168110,1,0,0:0:0:0:
320,192,168235,1,0,0:0:0:0:
192,192,168235,1,0,0:0:0:0:
192,192,168485,128,0,168735:0:0:0:0:
64,192,168485,128,0,168735:0:0:0:0:
192,192,168943,1,0,0:0:0:0:
448,192,168985,128,0,169235:0:0:0:0:
320,192,168985,128,0,169235:0:0:0:0:
64,192,169110,1,0,0:0:0:0:
192,192,169235,1,0,0:0:0:0:
64,192,169485,128,0,169610:0:0:0:0:
320,192,169485,128,0,169610:0:0:0:0:
448,192,169610,1,0,0:0:0:0:
192,192,169610,1,0,0:0:0:0:
64,192,169860,1,0,0:0:0:0:
448,192,169860,1,0,0:0:0:0:
192,192,169985,1,0,0:0:0:0:
64,192,169985,1,0,0:0:0:0:
448,192,170110,1,0,0:0:0:0:
320,192,170235,128,0,170360:0:0:0:0:
64,192,170235,128,0,170610:0:0:0:0:
320,192,170485,128,0,170860:0:0:0:0:
192,192,170485,1,0,0:0:0:0:
448,192,170610,128,0,170985:0:0:0:0:
192,192,170860,128,0,171235:0:0:0:0:
64,192,170860,1,0,0:0:0:0:
320,192,170985,128,0,171360:0:0:0:0:
64,192,171235,128,0,171485:0:0:0:0:
448,192,171235,1,0,0:0:0:0:
192,192,171360,128,0,171610:0:0:0:0:
320,192,171485,1,0,0:0:0:0:
448,192,171485,1,0,0:0:0:0:
64,192,171610,128,0,171735:0:0:0:0:
320,192,171610,1,0,0:0:0:0:
192,192,171735,128,0,171860:0:0:0:0:
320,192,171860,128,0,171985:0:0:0:0:
64,192,171985,128,0,172110:0:0:0:0:
192,192,171985,1,0,0:0:0:0:
448,192,172110,128,0,172235:0:0:0:0:
192,192,172235,128,0,172360:0:0:0:0:
320,192,172360,128,0,172485:0:0:0:0:
448,192,172485,128,0,172860:0:0:0:0:
64,192,172485,128,0,172860:0:0:0:0:
64,192,172985,1,0,0:0:0:0:
448,192,172985,1,0,0:0:0:0:
320,192,172985,1,0,0:0:0:0:
192,192,173110,1,0,0:0:0:0:
448,192,173235,1,0,0:0:0:0:
192,192,173235,1,0,0:0:0:0:
64,192,173235,1,0,0:0:0:0:
64,192,173485,128,0,173610:0:0:0:0:
320,192,173485,128,0,173610:0:0:0:0:
448,192,173610,1,0,0:0:0:0:
192,192,173610,1,0,0:0:0:0:
64,192,173860,1,0,0:0:0:0:
320,192,173860,1,0,0:0:0:0:
320,192,173985,1,0,0:0:0:0:
448,192,173985,1,0,0:0:0:0:
64,192,174110,1,0,0:0:0:0:
192,192,174110,1,0,0:0:0:0:
320,192,174360,1,0,0:0:0:0:
192,192,174401,128,0,174610:0:0:0:0:
448,192,174401,128,0,174610:0:0:0:0:
320,192,174485,1,0,0:0:0:0:
64,192,174485,1,0,0:0:0:0:
192,192,174735,128,0,174860:0:0:0:0:
448,192,174735,128,0,174860:0:0:0:0:
64,192,174860,1,0,0:0:0:0:
320,192,174860,1,0,0:0:0:0:
64,192,174985,1,0,0:0:0:0:
448,192,174985,1,0,0:0:0:0:
320,192,175110,1,0,0:0:0:0:
192,192,175110,1,0,0:0:0:0:
64,192,175360,128,0,175610:0:0:0:0:
192,192,175360,128,0,175610:0:0:0:0:
320,192,175485,1,0,0:0:0:0:
448,192,175485,1,0,0:0:0:0:
448,192,175735,1,0,0:0:0:0:
192,192,175735,1,0,0:0:0:0:
64,192,175985,1,0,0:0:0:0:
320,192,175985,1,0,0:0:0:0:
448,192,176047,1,0,0:0:0:0:
192,192,176110,1,0,0:0:0:0:
320,192,176235,1,0,0:0:0:0:
192,192,176235,1,0,0:0:0:0:
192,192,176485,128,0,176735:0:0:0:0:
64,192,176485,128,0,176735:0:0:0:0:
448,192,176985,128,0,177235:0:0:0:0:
320,192,176985,128,0,177235:0:0:0:0:
64,192,177110,1,0,0:0:0:0:
192,192,177235,1,0,0:0:0:0:
64,192,177485,128,0,177610:0:0:0:0:
320,192,177485,128,0,177610:0:0:0:0:
448,192,177610,1,0,0:0:0:0:
192,192,177610,1,0,0:0:0:0:
64,192,177860,1,0,0:0:0:0:
448,192,177860,1,0,0:0:0:0:
448,192,177985,1,0,0:0:0:0:
64,192,177985,1,0,0:0:0:0:
64,192,178235,128,0,179735:0:0:0:0:
448,192,178235,128,0,179735:0:0:0:0:
192,192,178235,1,0,0:0:0:0:
320,192,178235,1,0,0:0:0:0:
192,192,178735,128,0,178860:0:0:0:0:
320,192,178735,128,0,178860:0:0:0:0:
320,192,178985,128,0,179110:0:0:0:0:
192,192,178985,128,0,179110:0:0:0:0:
192,192,179235,128,0,179360:0:0:0:0:
320,192,179235,128,0,179360:0:0:0:0:
192,192,179485,128,0,179735:0:0:0:0:
320,192,179485,128,0,179735:0:0:0:0:
