osu file format v14

[General]
AudioFilename: audio.mp3
AudioLeadIn: 0
PreviewTime: 74892
Countdown: 1
SampleSet: Soft
StackLeniency: 0.7
Mode: 0
LetterboxInBreaks: 0
WidescreenStoryboard: 1

[Editor]
DistanceSpacing: 0.2
BeatDivisor: 4
GridSize: 8
TimelineZoom: 1

[Metadata]
Title:365
TitleUnicode:365
Artist:Zedd, Katy Perry
ArtistUnicode:Zedd, Katy Perry
Creator:Sakura Blossom
Version:In My Thoughts
Source:
Tags:Zedd, Katy Perry, 365, Sakura Blossom, Ameyy, Sakura Style, Ameyy Style
BeatmapID:2020535
BeatmapSetID:965220

[Difficulty]
HPDrainRate:5.5
CircleSize:4.1
OverallDifficulty:9.1
ApproachRate:9.3
SliderMultiplier:1.4
SliderTickRate:1

[Events]
//Background and Video events
0,0,"E1.jpg",0,0
//Break Periods
//Storyboard Layer 0 (Background)
//Storyboard Layer 1 (Fail)
//Storyboard Layer 2 (Pass)
//Storyboard Layer 3 (Foreground)
//Storyboard Layer 4 (Overlay)
//Storyboard Sound Samples

[TimingPoints]
811,306.122448979592,4,2,0,5,1,0
2035,-166.666666666667,4,2,0,35,0,0
4484,-100,4,2,0,35,0,0
17953,-105.263157894737,4,2,0,25,0,0
18259,-111.111111111111,4,2,0,20,0,0
18566,-117.647058823529,4,2,0,15,0,0
18872,-125,4,2,0,10,0,0
19178,-100,4,2,0,35,0,0
24076,-66.6666666666667,4,2,0,35,0,0
27749,-166.666666666667,4,2,0,35,0,0
28362,-66.6666666666667,4,2,0,35,0,0
31423,-166.666666666667,4,2,0,35,0,0
33872,-76.9230769230769,4,2,0,45,0,1
53464,-166.666666666667,4,2,0,35,0,0
55913,-100,4,2,0,35,0,0
65708,-166.666666666667,4,2,0,35,0,0
70606,-100,4,2,0,35,0,0
75504,-76.9230769230769,4,2,0,45,0,1
94943,-76.9230769230769,4,2,0,35,0,0
99994,-50,4,2,0,35,0,0
100913,-35.7142857142857,4,2,0,35,0,0
101219,-50,4,2,0,35,0,0
101831,-76.9230769230769,4,2,0,35,0,0
102749,-50,4,2,0,35,0,0
104127,-76.9230769230769,4,2,0,35,0,0
109790,-50,4,2,0,35,0,0
110709,-35.7142857142857,4,2,0,35,0,0
111015,-50,4,2,0,35,0,0
111627,-76.9230769230769,4,2,0,35,0,0
112545,-50,4,2,0,35,0,0
114688,-166.666666666667,4,2,0,15,0,0
132443,-142.857142857143,4,2,0,35,0,0
133055,-111.111111111111,4,2,0,35,0,0
133668,-90.909090909091,4,2,0,35,0,0
134280,-76.9230769230769,4,2,0,45,0,1
153719,-76.9230769230769,4,2,0,35,0,0
168566,-100,4,2,0,25,0,0
178055,-100,4,2,0,5,0,0

[HitObjects]
256,192,811,12,0,1729,0:0:0:0:
134,193,2035,6,0,P|188:207|254:162,1,125.999996154785
335,110,2647,2,0,L|320:209,1,83.9999974365235
139,199,3259,6,0,P|193:213|259:168,1,125.999996154785
340,116,3872,2,0,L|325:215,1,83.9999974365235
127,299,4484,6,0,L|106:144,1,140
146,87,4943,1,0,0:0:0:0:
61,18,5096,2,0,P|15:29|-13:51,1,70
213,136,5402,2,0,P|226:90|221:55,1,70
271,206,5708,6,0,P|327:199|386:255,1,140
459,210,6168,1,0,0:0:0:0:
480,353,6321,2,0,L|385:337,1,70
244,315,6627,2,0,L|255:397,1,70
165,264,6933,6,0,L|182:123,1,140
96,196,7392,1,0,0:0:0:0:
179,46,7545,2,0,P|233:64|255:92,1,70
336,161,7851,2,0,P|275:179|251:206,1,70
437,307,8157,6,0,L|416:159,1,140
391,78,8617,1,0,0:0:0:0:
391,78,8770,2,0,B|423:69|439:38|439:38|481:71|493:111,1,140
115,33,9382,6,0,L|275:13,1,140
152,107,9841,1,0,0:0:0:0:
0,132,9994,2,0,P|39:100|77:93,1,70
214,184,10300,2,0,L|225:269,1,70
342,384,10606,6,0,P|377:320|352:243,1,140
303,201,11066,1,0,0:0:0:0:
446,169,11219,2,0,P|390:150|355:158,1,70
221,267,11525,2,0,L|213:344,1,70
167,92,11831,6,0,P|245:95|296:48,1,140
343,135,12290,1,0,0:0:0:0:
512,17,12443,2,0,L|432:3,1,70
326,214,12749,2,0,P|379:208|405:186,1,70
241,244,13055,6,0,L|257:389,1,140
167,290,13515,1,0,0:0:0:0:
314,147,13668,2,0,P|406:147|442:200,1,140
120,139,14280,6,0,L|135:0,1,140
192,201,14739,1,0,0:0:0:0:
377,80,14892,2,0,L|298:91,1,70
111,129,15198,2,0,L|181:120,1,70
395,201,15504,6,0,P|351:216|272:158,1,140
349,136,15964,1,0,0:0:0:0:
484,247,16117,2,0,P|454:299|451:337,1,70
298,384,16423,2,0,P|285:331|263:308,1,70
147,312,16729,6,0,L|162:172,1,140
219,374,17188,1,0,0:0:0:0:
404,253,17341,2,0,L|325:264,1,70
138,302,17647,2,0,L|207:292,1,70
139,295,17953,6,0,L|208:285,1,66.4999982242585
140,288,18259,6,0,L|209:278,1,62.9999980773926
141,281,18566,6,0,L|210:271,1,59.5000011348725
142,274,18872,6,0,L|211:264,1,56
298,51,19178,6,0,P|244:8|163:28,1,140
314,138,19637,1,0,0:0:0:0:
427,82,19790,2,0,P|451:42|454:6,1,70
275,213,20096,2,0,L|286:291,1,70
127,378,20402,6,0,L|146:232,1,140
213,346,20862,1,0,0:0:0:0:
71,171,21015,2,0,P|114:145|150:145,1,70
247,7,21321,2,0,L|261:84,1,70
512,153,21627,6,0,P|451:166|378:102,1,140
479,265,22086,1,0,0:0:0:0:
329,68,22239,2,0,P|370:45|411:48,1,70
206,168,22545,2,0,P|246:191|263:234,1,70
175,384,22851,6,0,L|188:240,1,140
69,239,23311,1,0,0:0:0:0:
69,239,23464,2,0,B|60:271|29:287|29:287|62:329|102:341,1,140
272,139,24076,6,0,P|241:114|207:121,1,52.5000020027161
165,178,24229,2,0,B|176:103|176:103|182:97|182:97|197:-7,1,157.500006008148
184,17,24535,2,0,P|228:2|251:6,1,52.5000020027161
79,173,24688,2,0,B|94:257|94:257|106:267|106:267|123:385,1,210.000008010865
32,105,25300,6,0,P|72:84|96:90,1,52.5000020027161
196,42,25453,2,0,B|165:48|111:16|111:16|110:61|92:85,1,157.500006008148
154,125,25759,2,0,L|167:194,1,52.5000020027161
324,99,25913,2,0,P|342:64|254:83,1,210.000008010865
267,274,26525,6,0,B|286:254|312:253|312:253|331:286|369:287,1,105.000004005432
335,362,26754,2,0,P|384:323|445:305,1,105.000004005432
508,254,26984,2,0,P|467:243|433:212,1,52.5000020027161
381,213,27137,2,0,B|393:185|393:185|378:104,1,105.000004005432
257,281,27443,2,0,B|245:309|245:309|260:390,1,105.000004005432
9,309,27749,6,0,B|4:274|-12:255|-12:255|26:224|66:250,1,125.999996154785
60,252,28362,2,0,B|65:295|65:295|71:306|71:306|77:368,2,105.000004005432
327,58,28974,6,0,P|267:25|220:45,1,105.000004005432
189,141,29203,2,0,P|249:140|261:66,1,105.000004005432
267,98,29433,2,0,P|273:143|296:165,1,52.5000020027161
402,219,29586,2,0,P|450:182|356:151,1,210.000008010865
63,364,30198,6,0,B|54:306|99:326|83:234,1,105.000004005432
24,185,30428,2,0,B|-5:199|-5:199|14:320,1,105.000004005432
173,216,30657,2,0,P|125:195|83:199,1,52.5000020027161
61,56,30811,2,0,B|40:74|41:117|79:146|137:126|162:72|131:13,1,210.000008010865
327,79,31423,6,0,B|385:62|381:117|452:91,1,125.999996154785
456,88,32035,2,0,P|482:86|511:146,1,83.9999974365235
439,300,32647,6,0,L|454:168,1,125.999996154785
449,165,33259,2,0,L|463:216,1,41.9999987182618
356,335,33566,2,0,P|330:312|299:314,1,62.9999980773926
299,321,33872,5,0,0:0:0:0:
236,129,34025,1,0,0:0:0:0:
299,321,34178,1,0,0:0:0:0:
236,129,34331,1,0,0:0:0:0:
196,329,34484,2,0,P|124:379|56:353,1,136.499993751526
72,375,34790,2,0,L|57:255,1,90.9999958343508
173,73,35096,6,0,P|226:43|261:47,1,90.9999958343508
254,44,35402,1,0,0:0:0:0:
331,204,35555,1,0,0:0:0:0:
496,12,35708,2,0,L|351:25,1,136.499993751526
351,19,36015,2,0,L|338:135,1,90.9999958343508
173,73,36321,6,0,P|226:43|261:47,1,90.9999958343508
254,44,36627,1,0,0:0:0:0:
331,204,36780,1,0,0:0:0:0:
496,12,36933,2,0,L|351:25,1,136.499993751526
351,19,37240,2,0,L|338:135,1,90.9999958343508
173,73,37545,6,0,P|226:43|261:47,1,90.9999958343508
254,44,37851,1,0,0:0:0:0:
331,204,38004,1,0,0:0:0:0:
496,12,38157,2,0,L|351:25,1,136.499993751526
351,19,38464,2,0,L|338:135,1,90.9999958343508
460,283,38770,5,0,0:0:0:0:
433,105,38923,1,0,0:0:0:0:
460,283,39076,1,0,0:0:0:0:
433,105,39229,1,0,0:0:0:0:
387,373,39382,2,0,P|378:314|294:268,1,136.499993751526
316,261,39688,2,0,P|260:270|229:307,1,90.9999958343508
27,266,39994,6,0,L|128:252,1,90.9999958343508
117,253,40300,1,0,0:0:0:0:
205,137,40453,1,0,0:0:0:0:
205,137,40530,1,0,0:0:0:0:
205,137,40606,2,0,P|211:86|139:27,1,136.499993751526
158,20,40913,2,0,L|67:32,1,90.9999958343508
27,266,41219,6,0,L|128:252,1,90.9999958343508
117,253,41525,1,0,0:0:0:0:
0,108,41678,1,0,0:0:0:0:
205,137,41831,2,0,P|211:86|139:27,1,136.499993751526
158,20,42138,2,0,L|67:32,1,90.9999958343508
27,266,42443,6,0,L|128:252,1,90.9999958343508
117,253,42749,1,0,0:0:0:0:
0,108,42902,1,0,0:0:0:0:
205,137,43055,2,0,P|211:86|139:27,1,136.499993751526
158,20,43362,2,0,L|67:32,1,90.9999958343508
272,220,43668,5,0,0:0:0:0:
316,9,43821,1,0,0:0:0:0:
272,220,43974,1,0,0:0:0:0:
316,9,44127,1,0,0:0:0:0:
199,271,44280,2,0,L|352:255,1,136.499993751526
335,266,44586,2,0,P|386:270|426:247,1,90.9999958343508
395,70,44892,6,0,P|344:66|304:89,1,90.9999958343508
309,83,45198,1,0,0:0:0:0:
507,147,45351,1,0,0:0:0:0:
32,187,45504,2,0,L|181:174,1,136.499993751526
175,181,45811,2,0,P|228:180|269:144,1,90.9999958343508
395,70,46117,6,0,P|344:66|304:89,1,90.9999958343508
309,83,46423,1,0,0:0:0:0:
507,147,46576,1,0,0:0:0:0:
32,187,46729,2,0,L|181:174,1,136.499993751526
175,181,47036,2,0,P|228:180|269:144,1,90.9999958343508
395,70,47341,6,0,P|344:66|304:89,1,90.9999958343508
309,83,47647,1,0,0:0:0:0:
32,187,47800,1,0,0:0:0:0:
32,187,47877,1,0,0:0:0:0:
32,187,47953,2,0,L|181:174,1,136.499993751526
175,181,48260,2,0,P|228:180|269:144,1,90.9999958343508
183,28,48566,5,0,0:0:0:0:
137,267,48719,1,0,0:0:0:0:
183,28,48872,1,0,0:0:0:0:
137,267,49025,1,0,0:0:0:0:
249,99,49178,2,0,L|409:77,1,136.499993751526
393,85,49484,2,0,P|411:39|400:-4,1,90.9999958343508
33,118,49790,6,0,L|53:212,1,90.9999958343508
87,384,50096,1,0,0:0:0:0:
139,154,50249,1,0,0:0:0:0:
11,288,50402,2,0,P|70:293|129:242,1,136.499993751526
124,239,50708,2,0,P|181:243|217:266,1,90.9999958343508
456,374,51015,6,0,B|484:271|484:271|463:320|401:318,1,181.999991668702
290,162,51474,1,0,0:0:0:0:
360,371,51627,2,0,P|301:346|206:356,1,136.499993751526
234,356,51933,2,0,L|134:376,1,90.9999958343508
0,160,52239,6,0,P|48:150|127:212,1,136.499993751526
127,192,52545,2,0,P|130:261|95:313,1,90.9999958343508
325,65,52851,2,0,L|168:47,1,136.499993751526
112,14,53157,1,0,0:0:0:0:
114,21,53234,1,0,0:0:0:0:
117,29,53310,1,0,0:0:0:0:
365,146,53464,6,0,P|405:142|475:194,1,125.999996154785
466,83,54076,2,0,L|475:-7,1,83.9999974365235
371,149,54688,6,0,P|411:145|481:197,1,125.999996154785
472,86,55300,2,0,L|481:-4,1,83.9999974365235
168,292,55913,6,0,L|18:312,1,140
251,326,56372,1,0,0:0:0:0:
422,232,56525,2,0,P|367:216|333:224,1,70
321,379,56831,2,0,P|337:324|329:290,1,70
227,154,57137,6,0,P|212:102|264:15,1,140
274,224,57596,1,0,0:0:0:0:
86,217,57749,2,0,P|138:194|175:198,1,70
295,312,58055,2,0,L|282:395,1,70
512,296,58362,6,0,P|463:248|368:262,1,140
487,377,58821,1,0,0:0:0:0:
329,185,58974,2,0,L|321:107,1,70
497,0,59280,2,0,P|480:48|449:72,1,70
237,75,59586,5,0,0:0:0:0:
237,75,59739,2,0,L|405:52,1,140
157,35,60198,2,0,P|102:20|86:7,1,70
260,173,60504,2,0,L|276:253,1,70
69,378,60811,6,0,L|96:211,1,140
163,324,61270,1,0,0:0:0:0:
28,186,61423,2,0,P|75:163|109:164,1,70
236,266,61729,2,0,P|283:289|317:288,1,70
512,218,62035,6,0,L|356:230,1,140
477,303,62494,1,0,0:0:0:0:
373,141,62647,2,0,P|302:125|284:112,1,70
370,384,62953,2,0,P|385:344|379:307,1,70
246,181,63259,6,0,L|261:30,1,140
285,254,63719,1,0,0:0:0:0:
177,67,63872,2,0,P|176:32|188:0,1,70
414,152,64178,2,0,L|333:167,1,70
26,113,64484,5,0,0:0:0:0:
26,113,64637,2,0,P|71:115|107:141,1,70
143,194,64943,1,0,0:0:0:0:
223,78,65096,2,0,L|230:-4,1,70
135,280,65402,2,0,L|129:349,1,70
300,120,65708,6,0,L|437:104,1,125.999996154785
497,76,66321,2,0,P|500:117|484:156,1,83.9999974365235
296,124,66933,6,0,L|433:108,1,125.999996154785
493,80,67546,2,0,P|496:121|479:159,1,83.9999974365235
292,128,68157,6,0,L|429:112,1,125.999996154785
489,84,68770,2,0,P|492:125|475:163,1,83.9999974365235
288,132,69382,6,0,L|425:116,1,125.999996154785
485,88,69995,2,0,P|488:129|471:167,1,83.9999974365235
202,58,70606,6,0,L|42:46,1,140
251,124,71066,1,0,0:0:0:0:
396,9,71219,2,0,P|333:14|303:36,1,70
228,203,71525,2,0,L|242:281,1,70
430,91,71831,6,0,L|412:252,1,140
512,145,72290,1,0,0:0:0:0:
399,306,72443,2,0,P|449:300|486:266,1,70
210,343,72749,2,0,P|247:362|265:391,1,70
3,229,73055,6,0,P|88:229|135:163,1,140
32,316,73515,1,0,0:0:0:0:
174,124,73668,2,0,L|161:48,1,70
140,306,73974,2,0,L|128:374,1,70
215,249,74280,1,0,0:0:0:0:
215,249,75504,5,0,0:0:0:0:
0,197,75657,1,0,0:0:0:0:
215,249,75811,1,0,0:0:0:0:
0,197,75964,1,0,0:0:0:0:
268,171,76117,2,0,P|286:115|237:37,1,136.499993751526
255,41,76423,2,0,L|157:54,1,90.9999958343508
7,213,76729,6,0,L|97:224,1,90.9999958343508
97,224,77035,1,0,0:0:0:0:
0,350,77188,1,0,0:0:0:0:
168,176,77341,2,0,P|221:186|299:142,1,136.499993751526
295,143,77647,2,0,L|275:238,1,90.9999958343508
7,213,77953,6,0,L|97:224,1,90.9999958343508
97,224,78259,1,0,0:0:0:0:
0,350,78412,1,0,0:0:0:0:
168,176,78565,2,0,P|221:186|299:142,1,136.499993751526
295,143,78871,2,0,L|275:238,1,90.9999958343508
7,213,79178,6,0,L|97:224,1,90.9999958343508
97,224,79484,1,0,0:0:0:0:
0,350,79637,1,0,0:0:0:0:
168,176,79790,2,0,P|221:186|299:142,1,136.499993751526
295,143,80096,2,0,L|275:238,1,90.9999958343508
381,373,80402,5,0,0:0:0:0:
201,287,80555,1,0,0:0:0:0:
381,373,80708,1,0,0:0:0:0:
201,287,80861,1,0,0:0:0:0:
435,302,81015,2,0,L|418:144,1,136.499993751526
415,160,81321,2,0,P|474:168|509:199,1,90.9999958343508
277,187,81627,6,0,L|290:84,1,90.9999958343508
288,96,81933,1,0,0:0:0:0:
96,30,82086,1,0,0:0:0:0:
96,30,82163,1,0,0:0:0:0:
96,30,82239,2,0,P|146:2|230:7,1,136.499993751526
229,7,82545,2,0,P|286:18|332:-1,1,90.9999958343508
277,187,82851,6,0,L|290:84,1,90.9999958343508
288,96,83157,1,0,0:0:0:0:
178,225,83310,1,0,0:0:0:0:
96,30,83463,2,0,P|146:2|230:7,1,136.499993751526
229,7,83769,2,0,P|286:18|332:-1,1,90.9999958343508
277,187,84076,6,0,L|290:84,1,90.9999958343508
288,96,84382,1,0,0:0:0:0:
178,225,84535,1,0,0:0:0:0:
96,30,84688,2,0,P|146:2|230:7,1,136.499993751526
229,7,84994,2,0,P|286:18|332:-1,1,90.9999958343508
512,162,85300,5,0,0:0:0:0:
296,106,85453,1,0,0:0:0:0:
512,162,85606,1,0,0:0:0:0:
296,106,85759,1,0,0:0:0:0:
435,360,85913,2,0,L|447:216,1,136.499993751526
453,222,86219,2,0,P|425:177|437:121,1,90.9999958343508
157,54,86525,6,0,P|129:99|141:155,1,90.9999958343508
131,135,86831,1,0,0:0:0:0:
330,211,86984,1,0,0:0:0:0:
213,384,87137,2,0,L|228:225,1,136.499993751526
232,254,87443,2,0,L|216:148,1,90.9999958343508
157,54,87749,6,0,P|129:99|141:155,1,90.9999958343508
131,135,88055,1,0,0:0:0:0:
330,211,88208,1,0,0:0:0:0:
213,384,88361,2,0,L|228:225,1,136.499993751526
232,254,88667,2,0,L|216:148,1,90.9999958343508
157,54,88974,6,0,P|129:99|141:155,1,90.9999958343508
131,135,89280,1,0,0:0:0:0:
213,384,89433,1,0,0:0:0:0:
213,384,89509,1,0,0:0:0:0:
213,384,89586,2,0,L|228:225,1,136.499993751526
232,254,89892,2,0,L|216:148,1,90.9999958343508
100,18,90198,5,0,0:0:0:0:
278,83,90351,1,0,0:0:0:0:
100,18,90504,1,0,0:0:0:0:
278,83,90657,1,0,0:0:0:0:
0,80,90811,2,0,L|157:57,1,136.499993751526
138,54,91117,2,0,P|161:103|151:146,1,90.9999958343508
391,7,91423,6,0,L|277:-2,1,90.9999958343508
196,217,91729,1,0,0:0:0:0:
430,90,91882,1,0,0:0:0:0:
242,161,92035,2,0,L|89:190,1,136.499993751526
108,193,92341,2,0,P|43:179|-3:199,1,90.9999958343508
303,304,92647,6,0,B|317:204|317:204|328:194|328:194|340:113,1,181.999991668702
224,372,93106,1,0,0:0:0:0:
512,313,93259,2,0,P|443:272|375:300,1,136.499993751526
387,282,93566,2,0,L|371:385,1,90.9999958343508
188,62,93872,6,0,L|343:47,1,136.499993751526
332,46,94178,2,0,P|277:69|259:108,1,90.9999958343508
512,217,94484,2,0,P|449:152|378:168,1,136.499993751526
336,123,94790,1,0,0:0:0:0:
334,132,94867,1,0,0:0:0:0:
332,140,94943,1,0,0:0:0:0:
264,384,95096,6,0,L|252:238,1,136.499993751526
258,246,95402,2,0,P|211:209|172:208,1,90.9999958343508
10,236,95708,1,0,0:0:0:0:
201,118,95862,1,0,0:0:0:0:
10,236,96015,1,0,0:0:0:0:
201,118,96169,1,0,0:0:0:0:
86,95,96321,5,0,0:0:0:0:
269,175,96474,1,0,0:0:0:0:
86,95,96627,1,0,0:0:0:0:
269,175,96780,1,0,0:0:0:0:
219,264,96933,1,0,0:0:0:0:
356,144,97086,1,0,0:0:0:0:
141,0,97239,2,0,L|123:163,1,136.499993751526
133,142,97545,5,0,0:0:0:0:
185,355,97698,1,0,0:0:0:0:
133,142,97851,1,0,0:0:0:0:
185,355,98004,1,0,0:0:0:0:
0,248,98157,2,0,L|135:228,1,136.499993751526
131,235,98464,2,0,P|187:253|234:233,1,90.9999958343508
323,91,98770,5,0,0:0:0:0:
143,51,98923,1,0,0:0:0:0:
323,91,99076,1,0,0:0:0:0:
143,51,99229,1,0,0:0:0:0:
382,21,99382,1,0,0:0:0:0:
404,189,99535,1,0,0:0:0:0:
213,375,99688,2,0,L|228:275,1,90.9999958343508
106,89,99994,6,0,B|121:64|151:42|200:77|196:113|176:139|144:150|146:142|126:173|129:197|129:197|221:168,1,280
31,81,100453,1,0,0:0:0:0:
214,5,100606,1,0,0:0:0:0:
31,81,100759,1,0,0:0:0:0:
305,155,100913,6,0,B|321:35|321:35|258:113|258:113|409:97,1,293.999991027832
338,103,101219,6,0,B|450:87|450:87|399:284,1,280
216,272,101678,1,0,0:0:0:0:
216,272,101754,1,0,0:0:0:0:
216,272,101831,6,0,P|216:334|175:374,1,90.9999958343508
99,120,102137,2,0,L|247:97,1,136.499993751526
243,103,102443,5,0,0:0:0:0:
20,43,102596,1,0,0:0:0:0:
285,25,102749,6,0,B|316:-9|360:15|364:57|330:77|330:77|351:69|385:74|402:119|379:154|330:167|294:135,1,280
121,128,103208,2,0,B|76:165|54:230|84:301|200:302|214:194|130:190|92:235,1,280
379,226,103668,2,0,B|333:234|333:234|320:297|320:297|358:285|398:310|401:348|377:391|327:393|292:348,1,280
458,192,104127,5,0,0:0:0:0:
250,148,104280,1,0,0:0:0:0:
204,364,104433,1,0,0:0:0:0:
128,137,104586,1,0,0:0:0:0:
137,131,104662,1,0,0:0:0:0:
148,126,104739,1,0,0:0:0:0:
159,123,104815,1,0,0:0:0:0:
170,121,104892,6,0,L|13:112,1,136.499993751526
27,111,105198,2,0,L|50:219,1,90.9999958343508
209,5,105504,1,0,0:0:0:0:
173,207,105657,1,0,0:0:0:0:
209,5,105811,1,0,0:0:0:0:
173,207,105964,1,0,0:0:0:0:
277,60,106117,5,0,0:0:0:0:
81,30,106270,1,0,0:0:0:0:
277,60,106423,1,0,0:0:0:0:
81,30,106576,1,0,0:0:0:0:
276,156,106729,1,0,0:0:0:0:
377,2,106882,1,0,0:0:0:0:
512,216,107035,2,0,L|355:246,1,136.499993751526
372,237,107341,5,0,0:0:0:0:
212,382,107494,1,0,0:0:0:0:
372,237,107647,1,0,0:0:0:0:
212,382,107800,1,0,0:0:0:0:
129,142,107953,2,0,P|188:135|251:201,1,136.499993751526
247,189,108259,2,0,L|231:292,1,90.9999958343508
78,384,108566,5,0,0:0:0:0:
47,201,108719,1,0,0:0:0:0:
137,240,108872,1,0,0:0:0:0:
23,61,109025,1,0,0:0:0:0:
23,61,109101,1,0,0:0:0:0:
23,61,109178,1,0,0:0:0:0:
219,2,109331,1,0,0:0:0:0:
23,61,109484,1,0,0:0:0:0:
219,2,109637,1,0,0:0:0:0:
55,165,109790,6,0,B|70:140|100:118|149:153|145:189|125:215|93:226|95:218|75:249|78:273|78:273|170:244,1,280
322,373,110249,1,0,0:0:0:0:
231,203,110402,1,0,0:0:0:0:
322,373,110555,1,0,0:0:0:0:
280,119,110709,6,0,B|296:-1|296:-1|233:77|233:77|384:61,1,293.999991027832
313,67,111015,6,0,B|425:51|425:51|374:248,1,280
491,98,111474,1,0,0:0:0:0:
512,288,111627,2,0,L|351:297,1,136.499993751526
370,301,111933,2,0,P|314:303|269:261,1,90.9999958343508
137,384,112239,5,0,0:0:0:0:
256,182,112392,1,0,0:0:0:0:
419,225,112545,6,0,B|450:191|494:215|498:257|464:277|464:277|485:269|519:274|536:319|513:354|464:367|428:335,1,280
285,152,113004,2,0,B|240:189|218:254|248:325|364:326|378:218|294:214|256:259,1,280
148,232,113464,2,0,B|102:240|102:240|89:303|89:303|127:291|167:316|170:354|146:397|96:399|61:354,1,280
90,122,113923,5,0,0:0:0:0:
391,149,114076,1,0,0:0:0:0:
249,0,114229,1,0,0:0:0:0:
421,63,114382,1,0,0:0:0:0:
421,63,114458,1,0,0:0:0:0:
421,63,114535,1,0,0:0:0:0:
433,244,114688,6,0,B|459:220|459:220|493:109|493:109|486:138|468:158|443:159|443:159|409:160|369:184|356:232|356:232|384:151|310:116|311:116|245:129|245:190|291:205,1,587.999982055665
417,115,117137,5,0,0:0:0:0:
417,115,117443,1,0,0:0:0:0:
417,115,117749,1,0,0:0:0:0:
417,115,118055,1,0,0:0:0:0:
417,115,118362,1,0,0:0:0:0:
417,115,118668,1,0,0:0:0:0:
417,115,118974,1,0,0:0:0:0:
417,115,119280,1,0,0:0:0:0:
298,181,119586,6,0,B|281:194|258:195|258:195|298:205|298:205|323:239|323:239|342:224|362:224|362:224|382:187|382:187|400:198|422:197|422:197|463:228|480:287|452:339|452:339|457:342|457:342|452:339|452:339|440:363|400:394|350:370|344:313|389:291,1,587.999982055665
279,300,122035,5,0,0:0:0:0:
279,300,122341,1,0,0:0:0:0:
279,300,122647,1,0,0:0:0:0:
279,300,122953,1,0,0:0:0:0:
279,300,123260,1,0,0:0:0:0:
279,300,123566,1,0,0:0:0:0:
279,300,123872,1,0,0:0:0:0:
279,300,124178,1,0,0:0:0:0:
312,119,124484,6,0,B|353:224|353:224|279:210|279:210|263:168|263:168|171:148|171:148|211:163|220:200|207:235|207:235|182:270|192:301|192:301|142:213,1,587.999982055665
0,97,126933,6,0,B|26:119|26:119|110:100|110:100|138:53|138:53|226:34|226:34|181:47|161:91,1,335.999989746094
248,120,128464,5,0,0:0:0:0:
248,120,128770,1,0,0:0:0:0:
248,120,129076,1,0,0:0:0:0:
353,2,129382,6,0,B|341:22|342:41|342:41|312:72|312:72|325:88|327:109|327:109|364:130|364:130|353:149|358:171|358:171|341:210|341:210|423:191|423:191|412:211|412:230|412:230|429:247|433:268|433:268|415:305|415:305|426:322|429:344|429:344|463:369|463:369|421:358,1,587.999982055665
232,212,131831,6,0,L|91:198,1,125.999996154785
95,188,132443,6,0,L|241:202,1,146.999995513916
304,271,133055,6,0,L|199:283,1,94.499997116089
202,278,133362,2,0,P|185:319|188:349,1,62.9999980773926
512,384,133668,6,0,L|269:353,1,231.000007049561
77,381,134280,5,0,0:0:0:0:
128,155,134433,1,0,0:0:0:0:
77,381,134586,1,0,0:0:0:0:
128,155,134739,1,0,0:0:0:0:
19,309,134892,2,0,P|68:293|152:341,1,136.499993751526
148,333,135198,2,0,L|133:243,1,90.9999958343508
270,0,135504,6,0,L|255:90,1,90.9999958343508
255,89,135811,1,0,0:0:0:0:
79,16,135964,1,0,0:0:0:0:
211,218,136117,2,0,P|275:229|345:183,1,136.499993751526
341,192,136423,2,0,P|412:210|436:241,1,90.9999958343508
270,0,136729,6,0,L|255:90,1,90.9999958343508
255,89,137036,1,0,0:0:0:0:
79,16,137189,1,0,0:0:0:0:
211,218,137342,2,0,P|275:229|345:183,1,136.499993751526
341,192,137647,2,0,P|412:210|436:241,1,90.9999958343508
270,0,137953,6,0,L|255:90,1,90.9999958343508
255,89,138260,1,0,0:0:0:0:
79,16,138413,1,0,0:0:0:0:
211,218,138566,2,0,P|275:229|345:183,1,136.499993751526
341,192,138872,2,0,P|412:210|436:241,1,90.9999958343508
475,338,139178,5,0,0:0:0:0:
512,142,139331,1,0,0:0:0:0:
475,338,139484,1,0,0:0:0:0:
512,142,139637,1,0,0:0:0:0:
390,298,139790,2,0,L|251:310,1,136.499993751526
247,314,140096,2,0,P|245:262|267:227,1,90.9999958343508
139,141,140402,6,0,L|252:151,1,90.9999958343508
229,149,140708,1,0,0:0:0:0:
0,310,140861,1,0,0:0:0:0:
0,310,140938,1,0,0:0:0:0:
0,310,141015,2,0,L|149:287,1,136.499993751526
139,284,141321,2,0,P|160:340|147:381,1,90.9999958343508
139,141,141627,6,0,L|252:151,1,90.9999958343508
229,149,141933,1,0,0:0:0:0:
28,109,142087,1,0,0:0:0:0:
0,310,142240,2,0,L|149:287,1,136.499993751526
139,284,142546,2,0,P|160:340|147:381,1,90.9999958343508
139,141,142851,6,0,L|252:151,1,90.9999958343508
229,149,143157,1,0,0:0:0:0:
28,109,143311,1,0,0:0:0:0:
0,310,143464,2,0,L|149:287,1,136.499993751526
139,284,143770,2,0,P|160:340|147:381,1,90.9999958343508
272,220,144076,5,0,0:0:0:0:
92,170,144229,1,0,0:0:0:0:
272,220,144382,1,0,0:0:0:0:
92,170,144535,1,0,0:0:0:0:
331,146,144688,2,0,P|364:197|334:288,1,136.499993751526
346,265,144994,2,0,L|323:373,1,90.9999958343508
264,90,145300,6,0,P|303:65|351:65,1,90.9999958343508
346,63,145606,1,0,0:0:0:0:
144,4,145759,1,0,0:0:0:0:
225,384,145913,2,0,L|215:224,1,136.499993751526
209,242,146219,2,0,P|273:255|299:282,1,90.9999958343508
264,90,146525,6,0,P|303:65|351:65,1,90.9999958343508
346,63,146831,1,0,0:0:0:0:
144,4,146984,1,0,0:0:0:0:
225,384,147138,2,0,L|215:224,1,136.499993751526
209,242,147444,2,0,P|273:255|299:282,1,90.9999958343508
264,90,147749,6,0,P|303:65|351:65,1,90.9999958343508
346,63,148055,1,0,0:0:0:0:
225,384,148208,1,0,0:0:0:0:
225,384,148285,1,0,0:0:0:0:
225,384,148362,2,0,L|215:224,1,136.499993751526
209,242,148668,2,0,P|273:255|299:282,1,90.9999958343508
120,314,148974,5,0,0:0:0:0:
163,120,149127,1,0,0:0:0:0:
120,314,149280,1,0,0:0:0:0:
163,120,149433,1,0,0:0:0:0:
0,202,149586,2,0,P|35:230|125:218,1,136.499993751526
120,215,149892,2,0,P|177:232|207:266,1,90.9999958343508
320,90,150198,6,0,L|329:0,1,90.9999958343508
370,185,150504,1,0,0:0:0:0:
230,79,150657,1,0,0:0:0:0:
444,127,150811,2,0,P|466:194|420:268,1,136.499993751526
445,257,151117,2,0,L|338:275,1,90.9999958343508
222,73,151423,6,0,P|272:47|323:53,1,90.9999958343508
256,218,151729,1,0,0:0:0:0:
128,57,151882,1,0,0:0:0:0:
344,181,152035,1,0,0:0:0:0:
166,350,152188,2,0,L|177:257,1,90.9999958343508
259,384,152494,1,0,0:0:0:0:
9,212,152647,6,0,L|148:190,1,136.499993751526
140,184,152953,2,0,P|200:182|239:209,1,90.9999958343508
252,0,153259,2,0,P|167:15|138:78,1,136.499993751526
86,106,153566,1,0,0:0:0:0:
89,114,153642,1,0,0:0:0:0:
92,122,153719,1,0,0:0:0:0:
297,296,153872,6,0,L|314:143,1,136.499993751526
317,157,154178,2,0,P|278:126|226:123,1,90.9999958343508
215,320,154484,1,0,0:0:0:0:
428,258,154637,1,0,0:0:0:0:
215,320,154790,1,0,0:0:0:0:
428,258,154943,1,0,0:0:0:0:
178,214,155096,5,0,0:0:0:0:
306,356,155249,1,0,0:0:0:0:
178,214,155402,1,0,0:0:0:0:
306,356,155555,1,0,0:0:0:0:
96,271,155708,1,0,0:0:0:0:
51,367,155862,1,0,0:0:0:0:
0,152,156015,2,0,L|140:130,1,136.499993751526
142,124,156321,5,0,0:0:0:0:
213,334,156474,1,0,0:0:0:0:
142,124,156627,1,0,0:0:0:0:
213,334,156780,1,0,0:0:0:0:
236,143,156933,2,0,P|293:151|366:95,1,136.499993751526
363,114,157239,2,0,L|372:14,1,90.9999958343508
424,254,157545,5,0,0:0:0:0:
276,56,157698,1,0,0:0:0:0:
512,202,157851,1,0,0:0:0:0:
512,202,157928,1,0,0:0:0:0:
512,202,158004,1,0,0:0:0:0:
348,300,158157,1,0,0:0:0:0:
466,363,158311,1,0,0:0:0:0:
466,363,158387,1,0,0:0:0:0:
466,363,158464,1,0,0:0:0:0:
341,293,158617,1,0,0:0:0:0:
170,356,158770,6,0,L|26:371,1,136.499993751526
26,374,159076,2,0,P|26:318|49:280,1,90.9999958343508
333,384,159382,1,0,0:0:0:0:
176,265,159535,1,0,0:0:0:0:
333,384,159688,1,0,0:0:0:0:
176,265,159841,1,0,0:0:0:0:
359,144,159994,5,0,0:0:0:0:
288,310,160147,1,0,0:0:0:0:
441,188,160300,1,0,0:0:0:0:
265,84,160453,1,0,0:0:0:0:
265,84,160530,1,0,0:0:0:0:
265,84,160606,2,0,L|277:192,1,90.9999958343508
488,266,160913,2,0,L|509:102,1,136.499993751526
502,123,161219,5,0,0:0:0:0:
303,259,161372,1,0,0:0:0:0:
502,123,161525,1,0,0:0:0:0:
303,259,161678,1,0,0:0:0:0:
196,31,161831,1,0,0:0:0:0:
370,82,161984,1,0,0:0:0:0:
196,31,162137,1,0,0:0:0:0:
370,82,162290,1,0,0:0:0:0:
123,79,162443,6,0,B|80:88|39:70|39:70|53:112|88:122,1,136.499993751526
78,117,162749,2,0,L|90:222,1,90.9999958343508
59,376,163055,1,0,0:0:0:0:
179,182,163208,1,0,0:0:0:0:
288,304,163362,1,0,0:0:0:0:
278,297,163438,1,0,0:0:0:0:
268,292,163515,1,0,0:0:0:0:
257,288,163591,1,0,0:0:0:0:
246,286,163668,6,0,L|397:264,1,136.499993751526
387,272,163974,2,0,P|403:220|386:175,1,90.9999958343508
236,23,164280,1,0,0:0:0:0:
178,250,164433,1,0,0:0:0:0:
236,23,164586,1,0,0:0:0:0:
178,250,164739,1,0,0:0:0:0:
124,8,164892,5,0,0:0:0:0:
318,69,165045,1,0,0:0:0:0:
124,8,165198,1,0,0:0:0:0:
318,69,165351,1,0,0:0:0:0:
121,181,165504,1,0,0:0:0:0:
52,73,165657,1,0,0:0:0:0:
10,287,165811,2,0,L|167:268,1,136.499993751526
150,277,166117,5,0,0:0:0:0:
221,81,166270,1,0,0:0:0:0:
150,277,166423,1,0,0:0:0:0:
221,81,166576,1,0,0:0:0:0:
278,251,166729,2,0,P|341:249|398:306,1,136.499993751526
400,297,167035,2,0,P|408:351|394:390,1,90.9999958343508
204,315,167341,5,0,0:0:0:0:
339,137,167494,1,0,0:0:0:0:
247,51,167647,1,0,0:0:0:0:
247,51,167724,1,0,0:0:0:0:
247,51,167800,1,0,0:0:0:0:
438,125,167953,1,0,0:0:0:0:
330,258,168106,1,0,0:0:0:0:
330,258,168183,1,0,0:0:0:0:
330,258,168259,1,0,0:0:0:0:
411,210,168413,1,0,0:0:0:0:
494,366,168566,5,0,0:0:0:0:
291,335,168719,1,0,0:0:0:0:
494,366,168872,1,0,0:0:0:0:
291,335,169025,1,0,0:0:0:0:
153,357,169178,2,0,L|27:372,1,105
41,373,169484,2,0,P|47:330|66:303,1,70
237,379,169790,6,0,L|311:385,1,70
327,216,170096,2,0,L|257:210,1,70
46,152,170402,2,0,L|155:138,1,105
147,145,170708,2,0,P|186:153|219:146,1,70
197,0,171015,6,0,L|191:76,1,70
376,77,171321,2,0,P|356:25|326:2,1,70
302,243,171627,2,0,P|326:210|326:135,1,105
327,142,171933,2,0,P|372:161|414:155,1,70
506,328,172239,6,0,L|382:314,1,105
406,322,172545,2,0,L|335:333,1,70
179,369,172851,1,0,0:0:0:0:
185,288,173004,1,0,0:0:0:0:
18,352,173157,2,0,L|87:362,1,70
256,192,173464,12,0,178055,0:0:0:0:
