osu file format v14

[General]
AudioFilename: audio.mp3
AudioLeadIn: 0
PreviewTime: 103930
Countdown: 1
SampleSet: Normal
StackLeniency: 0.2
Mode: 0
LetterboxInBreaks: 0
WidescreenStoryboard: 0

[Editor]
Bookmarks: 13930,44985,59985,81547,89985,97485,104985,119516,141547,141899,142250,142485,149047,149399,149750,149985,163110
DistanceSpacing: 1.4
BeatDivisor: 12
GridSize: 4
TimelineZoom: 3.300004

[Metadata]
Title:Adrenaline
TitleUnicode:Adrenaline
Artist:Zedd, Grey
ArtistUnicode:Zedd, Grey
Creator:Rycloz
Version:hysterical despair
Source:
Tags:zedd dnb \ sotarks whitecat anime oralcumshot
BeatmapID:1292261
BeatmapSetID:612316

[Difficulty]
HPDrainRate:5.5
CircleSize:4.1
OverallDifficulty:8.2
ApproachRate:9.6
SliderMultiplier:2
SliderTickRate:1

[Events]
//Background and Video events
0,0,"Gsqo9_RekKk.jpg",0,0
//Break Periods
2,39944,44401
2,82684,88463
//Storyboard Layer 0 (Background)
//Storyboard Layer 1 (Fail)
//Storyboard Layer 2 (Pass)
//Storyboard Layer 3 (Foreground)
//Storyboard Layer 4 (Overlay)
//Storyboard Sound Samples

[TimingPoints]
-15,468.75,4,1,1,60,1,0
13930,-100,4,1,1,60,0,0
14985,-55.5555555555556,4,1,1,60,0,0
18500,-333.333333333333,4,1,1,60,0,0
18735,-55.5555555555556,4,1,1,60,0,0
21547,-41.6666666666667,4,1,1,60,0,0
22485,-55.5555555555556,4,1,1,60,0,0
26000,-333.333333333333,4,1,1,60,0,0
26235,-50,4,1,1,60,0,0
26703,-41.6666666666667,4,1,1,60,0,0
28227,-100,4,1,1,60,0,0
29985,-181.818181818182,4,1,1,60,0,0
37016,-526.315789473684,4,1,1,60,0,0
44985,-66.6666666666667,4,1,1,60,0,0
46274,-200,4,1,1,60,0,0
46860,-66.6666666666667,4,1,1,60,0,0
59985,-80,4,1,1,60,0,0
72992,-80,4,1,1,60,0,0
81547,-52.6315789473684,4,1,1,60,0,0
89047,-50,4,1,1,60,0,0
89985,-100,4,1,1,60,0,0
95141,-133.333333333333,4,1,1,60,0,0
95610,-200,4,1,1,60,0,0
96078,-133.333333333333,4,1,1,60,0,0
96547,-100,4,1,1,60,0,0
97485,-28.5714285714286,4,1,1,60,0,0
97719,-55.5555555555556,4,1,1,60,0,0
101235,-55.5555555555556,4,1,1,60,0,0
102992,-250,4,1,1,60,0,0
103578,-250,4,1,1,5,0,0
104985,-33.3333333333333,4,1,1,60,0,1
105219,-50,4,1,1,60,0,1
105922,-333.333333333333,4,1,1,60,0,1
106391,-50,4,1,1,60,0,1
106625,-80,4,1,1,60,0,1
106860,-50,4,1,1,60,0,1
106938,-50,4,1,1,5,0,1
106977,-50,4,1,1,60,0,1
107055,-50,4,1,1,5,0,1
107094,-50,4,1,1,60,0,1
107172,-50,4,1,1,5,0,1
107211,-50,4,1,1,60,0,1
107289,-50,4,1,1,5,0,1
107328,-50,4,1,1,60,0,1
107406,-50,4,1,1,5,0,1
107445,-50,4,1,1,60,0,1
107524,-50,4,1,1,5,0,1
107563,-50,4,1,1,60,0,1
107797,-33.3333333333333,4,1,1,60,0,1
108735,-212.765957446809,4,1,1,60,0,1
108969,-33.3333333333333,4,1,1,60,0,1
109203,-50,4,1,1,60,0,1
110610,-66.6666666666667,4,1,1,60,0,1
111078,-100,4,1,1,60,0,1
111313,-50,4,1,1,60,0,1
112250,-66.6666666666667,4,1,1,60,0,1
112485,-58.8235294117647,4,1,1,60,0,1
112953,-40,4,1,1,60,0,1
113305,-50,4,1,1,60,0,1
114594,-44.8430493273543,4,1,1,60,0,1
114828,-33.3333333333333,4,1,1,60,0,1
115063,-50,4,1,1,60,0,1
115297,-33.3333333333333,4,1,1,60,0,1
116235,-200,4,1,1,60,0,1
116469,-33.3333333333333,4,1,1,60,0,1
116703,-200,4,1,1,60,0,1
116938,-66.6666666666667,4,1,1,60,0,1
117996,-66.6666666666667,4,1,1,60,0,1
119047,-100,4,1,1,60,0,1
119281,-80,4,1,1,60,0,1
119750,-50,4,1,1,60,0,1
119985,-50,4,1,1,60,0,1
120219,-66.6666666666667,4,1,1,60,0,1
120453,-50,4,1,1,60,0,1
120688,-66.6666666666667,4,1,1,60,0,1
120922,-434.782608695652,4,1,1,60,0,1
121391,-40,4,1,1,60,0,1
121491,-66.6666666666667,4,1,1,60,0,1
122797,-33.3333333333333,4,1,1,60,0,1
123031,-100,4,1,1,60,0,1
123500,-33.3333333333333,4,1,1,60,0,1
123735,-133.333333333333,4,1,1,60,0,1
123910,-33.3333333333333,4,1,1,60,0,1
124203,-222.222222222222,4,1,1,60,0,1
124438,-40,4,1,1,60,0,1
124672,-50,4,1,1,60,0,1
125610,-80,4,1,1,60,0,1
125688,-80,4,1,1,5,0,1
125727,-66.6666666666667,4,1,1,60,0,1
125805,-66.6666666666667,4,1,1,5,0,1
125844,-57.1428571428571,4,1,1,60,0,1
125922,-57.1428571428571,4,1,1,5,0,1
125961,-50,4,1,1,60,0,1
126039,-50,4,1,1,5,0,1
126078,-44.4444444444445,4,1,1,60,0,1
126156,-44.4444444444445,4,1,1,5,0,1
126195,-44.4444444444445,4,1,1,60,0,1
126547,-125,4,1,1,60,0,1
126781,-125,4,1,1,5,0,1
126899,-50,4,1,1,60,0,1
127133,-50,4,1,1,5,0,1
127250,-50,4,1,1,30,0,1
127485,-125,4,1,1,60,0,1
127836,-25,4,1,1,60,0,1
127953,-100,4,1,1,60,0,1
128305,-50,4,1,1,60,0,1
130297,-40,4,1,1,60,0,1
130766,-31.25,4,1,1,60,0,1
131235,-200,4,1,1,60,0,1
131335,-25,4,1,1,60,0,1
131703,-50,4,1,1,60,0,1
132172,-125,4,1,1,60,0,1
134047,-80,4,1,1,60,0,1
134516,-57.1428571428571,4,1,1,60,0,1
134750,-50,4,1,1,60,0,1
134985,-66.6666666666667,4,1,1,40,0,0
135336,-66.6666666666667,4,1,1,20,0,0

[Colours]
Combo1 : 124,248,248
Combo2 : 255,162,208
Combo3 : 121,253,164
Combo4 : 255,26,140

[HitObjects]
28,100,13930,6,0,L|33:75,1,25
72,160,14047,1,0,0:0:0:0:
160,148,14164,1,0,0:0:0:0:
236,168,14281,1,0,0:0:0:0:
312,140,14399,1,0,0:0:0:0:
384,156,14516,1,0,0:0:0:0:
456,188,14633,1,0,0:0:0:0:
448,200,14750,1,0,0:0:0:0:
88,164,14985,6,0,B|120:123|120:123|176:104,1,89.9999972534181
416,124,15219,2,0,B|391:164|391:164|349:183,1,89.9999972534181
140,284,15453,2,0,P|122:304|110:371,1,89.9999972534181
248,312,15688,2,0,P|229:240|192:202,1,89.9999972534181,0|0,2:0|2:0,2:0:0:0:
104,84,15922,2,0,B|96:72|80:56|80:56|112:64|136:52|192:80|192:80|216:96,1,179.999994506836,0|0,2:0|2:0,2:0:0:0:
288,136,16274,5,0,2:0:0:0:
308,176,16391,2,0,B|340:188|340:188|396:180,1,89.9999972534181
236,224,16625,2,0,B|208:220|208:220|128:252,1,89.9999972534181
80,336,16860,2,0,B|114:339|114:339|167:319,1,89.9999972534181
276,352,17094,2,0,P|304:304|316:252,1,89.9999972534181
256,192,17328,2,0,P|220:104|204:88,1,89.9999972534181
304,72,17563,2,0,P|392:100|408:116,1,89.9999972534181
376,268,17797,5,0,0:0:0:0:
232,300,17914,1,0,0:0:0:0:
356,284,18149,5,0,0:0:0:0:
236,280,18267,1,0,0:0:0:0:
176,184,18383,1,0,0:0:0:0:
280,204,18500,6,0,L|283:208,4,3.74999988555909,0|0|0|0|0,3:0|3:0|3:0|3:0|3:0,3:0:0:0:
228,40,18735,6,0,P|242:82|280:132,1,89.9999972534181
360,344,18969,2,0,B|324:312|324:312|280:288,1,89.9999972534181,0|0,3:0|3:0,3:0:0:0:
264,216,19203,2,0,P|220:252|196:300,1,89.9999972534181
76,364,19438,2,0,B|76:322|76:322|88:276,1,89.9999972534181
216,120,19672,2,0,P|176:92|104:96,1,89.9999972534181
40,148,19906,2,0,P|72:172|120:176,1,89.9999972534181
248,184,20141,5,0,0:0:0:0:
352,224,20258,1,0,0:0:0:0:
352,224,20375,2,0,B|326:249|326:249|306:301,1,89.9999972534181
272,376,20610,2,0,P|231:322|221:287,1,89.9999972534181,0|0,3:0|3:0,3:0:0:0:
196,212,20844,5,0,0:0:0:0:
116,260,20961,1,0,0:0:0:0:
48,200,21078,1,0,3:0:0:0:
48,200,21195,2,0,B|29:162|29:162|68:120,1,89.9999972534181,0|0,3:0|3:0,3:0:0:0:
140,88,21430,5,0,0:0:0:0:
188,108,21547,2,0,P|264:72|324:88,1,119.999996337891,0|0,3:0|3:0,3:0:0:0:
408,104,21781,1,0,0:0:0:0:
428,148,21899,2,0,B|396:164|396:164|376:184|376:184|348:184|304:196,1,119.999996337891
216,236,22133,1,0,0:0:0:0:
188,280,22250,2,0,B|228:288|228:288|264:300|264:300|296:292|332:300,1,119.999996337891
204,164,22485,5,0,0:0:0:0:
116,152,22602,1,0,0:0:0:0:
116,152,22719,1,0,0:0:0:0:
80,228,22836,2,0,P|36:244|-13:278,1,89.9999972534181
172,264,23070,5,0,0:0:0:0:
260,204,23188,1,0,0:0:0:0:
260,204,23305,1,0,0:0:0:0:
216,128,23422,1,0,0:0:0:0:
216,128,23539,2,0,B|192:100|192:100|104:72,2,89.9999972534181
272,188,23891,6,0,P|356:228|384:220,1,89.9999972534181
436,192,24125,2,0,P|412:276|384:308,1,89.9999972534181
332,352,24360,1,0,0:0:0:0:
192,148,24594,5,0,0:0:0:0:
260,208,24711,1,0,0:0:0:0:
260,208,24828,1,0,0:0:0:0:
312,128,24945,2,0,P|292:88|300:40,1,89.9999972534181
250,315,25180,5,0,3:0:0:0:
250,315,25238,1,0,3:0:0:0:
250,315,25297,2,0,P|296:308|360:316,1,89.9999972534181,0|0,3:0|3:0,3:0:0:0:
416,320,25531,1,0,0:0:0:0:
136,336,25649,2,0,L|136:232,2,89.9999972534181,0|0|0,3:0|3:0|3:0,3:0:0:0:
316,104,26000,2,0,L|320:100,4,3.74999988555909
260,160,26235,6,0,P|208:140|160:128,1,100,0|0,2:0|2:0,2:0:0:0:
80,108,26469,2,0,P|88:156|132:190,1,100,0|0,2:0|2:0,2:0:0:0:
408,280,26703,2,0,B|372:284|372:284|332:304|332:304|268:280,1,119.999996337891
224,88,26938,5,0,0:3:0:0:
344,120,27055,1,0,0:3:0:0:
344,120,27172,2,0,B|308:167|308:167|248:188,1,119.999996337891
144,204,27406,1,0,0:0:0:0:
144,204,27524,1,0,0:0:0:0:
220,256,27641,2,0,P|268:290|307:336,2,119.999996337891
144,128,27992,6,0,P|116:112|88:108,2,59.9999981689454
196,128,28227,1,0,0:0:0:0:
256,120,28344,1,0,0:0:0:0:
300,136,28461,1,0,0:0:0:0:
328,168,28578,1,0,0:0:0:0:
340,192,28695,1,0,0:0:0:0:
348,216,28813,1,0,0:0:0:0:
352,304,28930,1,0,0:0:0:0:
256,168,29047,5,0,0:0:0:0:
256,192,29399,1,0,0:0:0:0:
256,216,29750,1,0,0:0:0:0:
56,240,29985,6,0,B|121:261|159:226|189:189|187:137|164:100|148:83|115:73|83:70|83:70|146:43|146:43|184:9|184:9|223:63|223:63|246:38|267:61|267:61|356:8|356:8|367:59|421:93|421:93|392:86|320:88|311:138|253:105|223:151|249:221|239:290|285:340|344:309|381:339|460:299|464:267|464:267|465:255|465:255|436:240|459:207|459:207|440:156|440:156|390:194|390:194|346:197|346:197|347:217|289:252|289:252|257:257|257:257|217:283|204:312|204:312|160:312|140:344,1,1760.00005371094
264,312,44985,6,0,B|230:295|230:295|188:288,1,75.0000028610231
45,326,45219,1,0,0:0:0:0:
117,182,45336,2,0,B|133:146|133:146|141:106,1,75.0000028610231
236,60,45570,1,0,0:0:0:0:
305,120,45688,2,0,P|341:140|389:152,1,75.0000028610231
428,264,45922,1,0,0:0:0:0:
374,150,46039,2,0,P|363:185|341:215,1,75.0000028610231
200,255,46274,6,0,L|204:280,1,25
100,344,46508,2,0,L|104:320,1,25
272,88,46742,5,0,0:0:0:0:
272,88,46860,6,0,L|236:160,1,75.0000028610231
348,312,47094,2,0,L|324:228,1,75.0000028610231
93,220,47328,1,0,0:0:0:0:
93,220,47445,2,0,B|138:201|138:201|193:214,1,75.0000028610231
276,224,47680,1,0,0:0:0:0:
276,224,47797,1,0,0:0:0:0:
392,252,47914,1,0,0:0:0:0:
304,328,48031,1,0,0:0:0:0:
304,328,48149,5,0,0:0:0:0:
276,224,48266,1,0,0:0:0:0:
340,140,48383,2,0,B|376:150|420:140,2,75.0000028610231
160,80,48735,6,0,P|192:136|196:160,1,75.0000028610231
184,336,48969,2,0,P|140:280|128:248,1,75.0000028610231
84,200,49203,1,0,0:0:0:0:
105,342,49320,2,0,P|133:282|157:262,1,75.0000028610231
204,216,49555,2,0,P|264:200|304:204,1,75.0000028610231
388,196,49789,1,0,0:0:0:0:
336,328,49906,1,0,0:0:0:0:
336,328,50024,1,0,0:0:0:0:
452,328,50141,2,0,P|412:276|384:260,1,75.0000028610231
312,136,50375,6,0,B|296:176|296:176|288:212,1,75.0000028610231
152,92,50610,5,0,0:0:0:0:
232,116,50727,1,0,0:0:0:0:
196,196,50844,2,0,P|132:228|28:224,1,150.000005722046
176,332,51195,1,0,0:0:0:0:
344,336,51313,1,0,0:0:0:0:
264,304,51430,2,0,B|308:304|308:304|372:324,1,75.0000028610231
356,112,51664,5,0,0:0:0:0:
416,280,51781,2,0,P|426:244|424:207,1,75.0000028610231
260,104,52016,2,0,B|300:100|300:100|333:109,1,75.0000028610231
224,192,52250,2,0,B|192:196|192:196|132:216,1,75.0000028610231
232,308,52485,5,0,0:0:0:0:
232,308,52602,1,0,0:0:0:0:
308,236,52719,1,0,0:0:0:0:
308,236,52836,1,0,0:0:0:0:
232,148,52953,2,0,L|280:52,1,75.0000028610231
436,24,53188,2,0,L|372:92,1,75.0000028610231
360,204,53422,5,0,0:0:0:0:
236,240,53539,1,0,0:0:0:0:
381,219,53656,1,0,0:0:0:0:
300,312,53774,2,0,B|282:340|255:348|255:348|258:324,1,75.0000028610231
284,176,54008,1,0,0:0:0:0:
44,256,54125,2,0,L|120:266,1,75.0000028610231
180,176,54360,2,0,L|260:228,1,75.0000028610231
256,332,54594,5,0,0:0:0:0:
256,332,54711,1,0,0:0:0:0:
368,336,54828,2,0,B|344:296|344:296|300:260,1,75.0000028610231
268,192,55063,2,0,B|280:152|280:152|308:120,1,75.0000028610231
376,135,55238,1,0,0:0:0:0:
376,135,55297,2,0,B|419:124|419:124|460:95,1,75.0000028610231
432,196,55531,2,0,L|432:296,1,75.0000028610231
312,328,55766,6,0,B|280:320|280:320|247:294,1,75.0000028610231
136,176,56000,1,0,0:0:0:0:
40,280,56117,2,0,P|76:264|124:264,1,75.0000028610231
344,108,56352,1,0,0:0:0:0:
344,108,56469,2,0,P|364:144|372:184,1,75.0000028610231
224,220,56703,1,0,0:0:0:0:
224,220,56820,2,0,P|240:276|268:308,1,75.0000028610231
328,328,57055,6,0,P|400:312|428:320,1,75.0000028610231
404,244,57289,2,0,P|332:220|312:216,1,75.0000028610231
324,152,57524,2,0,P|380:136|412:132,1,75.0000028610231
400,136,57758,1,0,0:0:0:0:
292,252,57875,2,0,B|272:220|272:220|228:200,1,75.0000028610231
112,128,58110,5,0,0:0:0:0:
248,60,58227,1,0,0:0:0:0:
108,168,58344,1,0,0:0:0:0:
252,160,58461,2,0,P|288:212|316:232,1,75.0000028610231
312,332,58695,5,0,0:0:0:0:
425,267,58813,1,0,0:0:0:0:
334,370,58930,1,0,0:0:0:0:
232,288,59047,2,0,B|192:276|192:276|124:280,1,75.0000028610231
152,208,59281,5,0,0:0:0:0:
104,124,59399,1,0,0:0:0:0:
244,156,59516,1,0,0:0:0:0:
244,156,59633,2,0,P|288:168|316:188,1,75.0000028610231
188,92,59867,1,0,0:0:0:0:
188,92,59985,6,0,L|300:56,1,62.5
348,40,60219,5,0,0:0:0:0:
384,176,60336,1,0,0:0:0:0:
336,72,60453,1,0,0:0:0:0:
356,176,60570,2,0,P|364:216|352:256,1,62.5
184,268,60805,5,0,0:0:0:0:
128,172,60922,2,0,L|120:100,1,62.5
328,236,61156,2,0,L|388:304,1,62.5
224,120,61391,5,0,0:0:0:0:
276,208,61508,1,0,0:0:0:0:
236,100,61625,1,0,0:0:0:0:
300,232,61742,2,0,P|227:255|218:254,1,62.5
380,160,61977,1,0,0:0:0:0:
464,296,62094,2,0,L|467:233,1,62.5
380,304,62328,6,0,B|392:365,1,62.5,0|0,2:0|2:0,2:0:0:0:
228,272,62563,1,0,0:0:0:0:
304,296,62680,1,0,0:0:0:0:
304,296,62797,1,0,0:0:0:0:
240,160,62914,2,0,B|218:134|218:134|210:106,1,62.5
448,264,63149,5,0,0:0:0:0:
384,328,63266,2,0,B|372:300|368:268,1,62.5
400,136,63500,2,0,P|408:184|404:236,1,62.5
152,124,63735,5,0,0:0:0:0:
120,216,63852,1,0,0:0:0:0:
172,112,63969,1,0,0:0:0:0:
124,252,64086,2,0,B|136:264|136:264|188:272,1,62.5
360,296,64320,5,0,0:0:0:0:
384,208,64438,1,0,0:0:0:0:
333,298,64555,1,0,0:0:0:0:
405,187,64672,2,0,P|391:108|386:101,1,62.5
216,256,64906,6,0,L|184:320,1,62.5
96,108,65141,2,0,L|80:196,1,62.5
376,168,65375,2,0,L|360:256,1,62.5
224,48,65610,2,0,L|244:128,1,62.5
280,280,65844,5,0,0:0:0:0:
280,280,65961,1,0,0:0:0:0:
140,324,66078,2,0,P|163:292|188:273,1,62.5
296,188,66313,5,0,0:0:0:0:
356,212,66430,1,0,0:0:0:0:
412,196,66547,2,0,P|424:232|424:272,1,62.5
368,80,66781,5,0,0:0:0:0:
308,104,66899,1,0,0:0:0:0:
244,92,67016,2,0,P|212:104|176:132,1,62.5,0|0,2:0|2:0,2:0:0:0:
88,200,67250,5,0,0:0:0:0:
132,320,67367,1,0,0:0:0:0:
132,320,67485,2,0,B|148:312|168:284|176:276,1,62.5,0|0,2:0|2:0,2:0:0:0:
264,152,67719,5,0,0:0:0:0:
388,204,67836,1,0,0:0:0:0:
292,280,67953,2,0,P|360:272|369:265,1,62.5
236,344,68188,2,0,L|216:272,1,62.5
148,104,68422,5,0,0:0:0:0:
296,172,68539,1,0,0:0:0:0:
264,80,68656,1,0,0:0:0:0:
156,184,68774,2,0,B|124:191|124:191|96:203,1,62.5
192,292,69008,5,0,0:0:0:0:
352,256,69125,1,0,0:0:0:0:
244,368,69242,1,0,0:0:0:0:
268,248,69360,2,0,B|264:224|264:224|241:193,1,62.5
304,156,69594,5,0,0:0:0:0:
408,44,69711,1,0,0:0:0:0:
440,160,69828,1,0,0:0:0:0:
296,68,69945,2,0,B|325:77|368:112,1,62.5
96,168,70180,5,0,0:0:0:0:
96,168,70297,2,0,P|136:164|176:168,1,62.5
304,240,70531,2,0,P|268:248|236:276,1,62.5
368,352,70766,2,0,P|392:320|400:296,1,62.5
408,132,71000,2,0,P|388:112|332:104,1,62.5
297,165,71235,2,0,L|276:224,1,62.5
224,324,71469,5,0,0:0:0:0:
112,272,71586,1,0,0:0:0:0:
112,272,71703,2,0,P|136:236|156:216,1,62.5
236,104,71938,5,0,0:0:0:0:
304,240,72055,1,0,0:0:0:0:
196,128,72172,1,0,0:0:0:0:
360,180,72289,2,0,B|376:144|376:144|372:120,1,62.5
208,348,72524,5,0,0:0:0:0:
268,272,72641,2,0,P|288:272|332:288,1,62.5
144,240,72875,1,0,0:0:0:0:
280,32,72992,5,0,0:0:0:0:
282,40,73051,1,0,0:0:0:0:
285,49,73110,2,0,P|280:87|263:130,1,62.5
128,140,73344,5,0,0:0:0:0:
148,192,73461,1,0,0:0:0:0:
136,248,73578,1,0,0:0:0:0:
160,308,73695,1,0,0:0:0:0:
216,332,73813,1,0,0:0:0:0:
260,304,73930,1,0,0:0:0:0:
332,240,74047,5,0,0:0:0:0:
328,236,74106,1,0,0:0:0:0:
324,232,74164,2,0,P|321:182|326:170,1,62.5
352,88,74399,5,0,0:0:0:0:
116,200,74516,1,0,0:0:0:0:
192,44,74633,1,0,0:0:0:0:
244,305,74750,5,0,0:0:0:0:
244,305,74809,1,0,0:0:0:0:
244,305,74867,2,0,P|264:324|316:335,1,62.5,0|0,0:0|0:0,0:0:0:0:
256,192,75043,12,0,80610,0:0:0:0:
390,216,81547,6,0,B|364:176|376:152|376:152|356:92|356:92|384:24,1,189.999994926453
264,284,81899,6,0,P|212:256|256:324,1,189.999994926453
212,116,82250,6,0,B|178:116|152:96|152:96|109:124|109:124|84:93|24:104,1,189.999994926453,0|0,2:0|2:0,2:0:0:0:
344,312,89047,6,0,B|356:272|356:272|348:220|348:220|368:184|368:184|352:100,1,200
88,240,89399,6,0,B|156:228|156:228|236:248|236:248|316:208,1,200
224,136,89750,1,0,0:0:0:0:
318,302,89985,6,0,P|321:327|316:352,3,50
281,172,90453,2,0,P|296:192|304:216,1,50
185,77,90688,2,0,P|207:89|224:108,1,50
82,219,90922,6,0,P|118:246|135:251,3,50
216,276,91391,2,0,P|254:286|282:286,1,50
358,277,91625,2,0,P|396:266|420:252,1,50
262,107,91860,6,0,P|274:86|292:68,3,50
215,226,92328,2,0,P|220:202|232:180,1,50
205,357,92563,2,0,P|203:332|208:308,1,50
247,190,92797,6,0,P|235:212|228:236,3,50
329,83,93266,2,0,P|310:99|296:120,1,50
440,13,93500,2,0,P|416:22|396:36,1,50
141,216,93735,6,0,P|119:229|102:247,3,50
261,176,94203,2,0,P|236:176|212:183,1,50
398,191,94438,2,0,P|375:182|350:181,1,50
193,45,94672,6,0,P|156:55|128:72,1,50
318,338,94906,2,0,P|355:328|384:312,1,50
181,115,95141,2,0,P|161:130|144:152,1,37.5000014305115
330,268,95375,2,0,P|350:253|364:236,1,37.5000014305115
202,184,95610,6,0,P|199:196|200:216,1,25
308,200,95844,2,0,P|312:187|312:168,1,25
155,153,96078,2,0,P|144:175|139:197,1,37.5000014305115
360,232,96313,2,0,P|368:212|368:180,1,37.5000014305115
120,104,96547,2,0,P|99:138|99:171,1,50
400,280,96781,2,0,P|416:247|420:212,1,50
112,172,97016,6,0,P|121:188|151:207,1,50,0|0,2:0|2:0,2:0:0:0:
420,224,97250,6,0,P|397:203|376:192,1,50
104,96,97485,6,12,B|80:88|68:64|68:64|164:23|168:132|180:132,1,175.00000166893
104,180,97719,2,0,P|60:171|23:125,1,89.9999972534181
152,240,97953,2,0,P|141:283|109:314,1,89.9999972534181
408,272,98188,2,0,B|388:204|316:200,1,89.9999972534181
264,152,98422,6,0,P|264:204|232:265,1,89.9999972534181,0|0,1:0|1:0,1:0:0:0:
308,360,98656,1,0,0:0:0:0:
308,360,98774,2,0,B|300:300|352:252|352:252,1,89.9999972534181,0|0,1:0|1:0,1:0:0:0:
184,172,99008,1,0,0:0:0:0:
384,64,99125,6,0,B|328:72|280:112,1,89.9999972534181
32,144,99360,6,0,P|88:132|144:96,1,89.9999972534181,0|0,1:0|1:0,1:0:0:0:
188,40,99594,1,0,0:0:0:0:
140,236,99711,2,0,B|192:236|192:236|252:200,1,89.9999972534181,0|0,1:0|1:0,1:0:0:0:
276,280,99945,1,0,0:0:0:0:
312,168,100063,2,0,B|360:140|360:140|436:140,1,89.9999972534181
436,360,100297,6,0,B|384:340|384:340|337:290,1,89.9999972534181,0|0,1:0|1:0,1:0:0:0:
432,260,100531,1,0,0:0:0:0:
204,356,100649,2,0,P|179:294|178:233,1,89.9999972534181,0|0,1:0|1:0,1:0:0:0:
260,220,100883,1,0,0:0:0:0:
68,184,101000,2,0,B|120:168|120:168|160:140,1,89.9999972534181,0|0,1:0|1:0,1:0:0:0:
244,76,101235,5,0,0:0:0:0:
276,128,101352,1,0,0:0:0:0:
332,152,101469,1,0,0:0:0:0:
392,144,101586,1,0,0:0:0:0:
288,288,101703,5,0,0:0:0:0:
236,268,101820,1,0,0:0:0:0:
224,216,101938,1,0,0:0:0:0:
248,180,102055,1,0,0:0:0:0:
276,172,102172,5,0,0:0:0:0:
308,176,102289,1,0,0:0:0:0:
328,188,102406,1,0,0:0:0:0:
344,216,102524,1,0,0:0:0:0:
344,248,102641,1,0,0:0:0:0:
316,296,102758,1,0,0:0:0:0:
268,320,102875,1,0,0:0:0:0:
204,304,102992,2,0,P|173:285|208:297,1,100,0|0,2:0|2:0,2:0:0:0:
256,192,104047,5,0,0:0:0:0:
256,192,104399,1,0,0:0:0:0:
256,192,104750,1,0,0:0:0:0:
408,32,104985,6,0,B|380:40|352:28|352:28|332:40|332:40|288:32|288:32|276:28|260:36|260:36|221:49|221:49|176:48,1,225.000008583069,0|0,1:0|1:0,1:0:0:0:
152,80,105219,6,0,P|96:84|48:148,1,100,0|0,1:0|1:0,1:0:0:0:
132,156,105453,2,0,B|148:202|148:202|188:240,1,100,0|0,2:0|2:0,2:0:0:0:
196,308,105688,2,0,B|248:300|248:300|316:332,1,100
418,294,105922,6,0,P|395:309|402:334,1,56.2499982833863
402,334,106391,6,0,B|352:328|352:328|294:302,1,100
240,220,106625,2,0,B|276:224|276:224|300:236,1,62.5,0|0,0:3|0:3,0:3:0:0:
136,300,106860,6,0,P|112:288|117:247,1,66.6666666666667,0|0,2:0|2:0,2:0:0:0:
107,306,106977,6,0,P|92:277|113:253,1,66.6666666666667,0|0,1:0|1:0,1:0:0:0:
77,297,107094,6,0,P|86:263|127:257,1,66.6666666666667,0|0,2:0|2:0,2:0:0:0:
64,270,107211,6,0,P|83:245|114:253,1,66.6666666666667,0|0,1:0|1:0,1:0:0:0:
64,241,107328,6,0,P|87:230|116:258,1,66.6666666666667,0|0,2:0|2:0,2:0:0:0:
76,217,107445,6,0,P|107:223|114:254,1,66.6666666666667,0|0,1:0|1:0,1:0:0:0:
116,255,107563,6,0,P|108:204|136:152,1,100,0|0,1:0|1:0,1:0:0:0:
148,64,107797,6,0,B|196:76|196:76|236:76|236:76|292:104|292:104,1,150.000005722046,0|0,1:0|1:0,1:0:0:0:
360,224,108031,2,0,B|381:182|407:156|407:156|376:171|320:171,1,150.000005722046,0|0,2:0|2:0,2:0:0:0:
148,228,108266,2,0,B|120:253|88:264|88:264|120:262|164:280,1,150.000005722046,0|0,2:0|2:0,2:0:0:0:
284,348,108500,2,0,B|265:295|265:295|268:244|268:244|251:190,1,150.000005722046,0|0,1:0|1:0,1:0:0:0:
124,140,108735,6,0,B|100:176,1,35.2499994621277,0|0,2:0|2:0,2:0:0:0:
204,120,108969,2,0,B|180:103|169:74|169:74|165:62|165:62|149:66|149:66|113:72|69:67,1,150.000005722046,0|0,1:0|1:0,1:0:0:0:
334,226,109203,6,0,P|384:225|429:204,1,100
352,304,109438,2,0,P|313:335|264:341,1,100
100,344,109672,5,0,0:0:0:0:
140,300,109789,1,0,0:0:0:0:
153,241,109906,1,0,0:0:0:0:
130,183,110024,1,0,0:0:0:0:
76,144,110141,5,0,0:0:0:0:
120,192,110258,1,0,0:0:0:0:
184,204,110375,1,0,0:0:0:0:
244,184,110492,1,0,0:0:0:0:
300,148,110610,6,0,P|287:118|292:72,1,75.0000028610231
384,224,110844,2,0,B|348:248|288:244,1,75.0000028610231,0|0,2:0|2:0,2:0:0:0:
145,272,111078,2,0,P|173:284|193:308,1,50,0|0,2:0|2:0,2:0:0:0:
132,348,111313,2,0,P|83:343|48:309,1,100,0|0,2:0|2:0,2:0:0:0:
104,140,111547,6,0,B|152:108|152:108|176:64,1,100
268,96,111781,1,0,0:0:0:0:
268,96,111840,2,0,P|300:116|316:164,1,50
364,188,112016,1,0,2:0:0:0:
284,252,112133,1,0,2:0:0:0:
268,232,112250,6,0,P|256:244|248:264,1,37.5000014305115,0|0,2:0|2:0,2:0:0:0:
240,224,112367,2,0,P|244:205|244:187,1,37.5000014305115,0|0,3:0|3:0,3:0:0:0:
216,172,112485,2,8,B|210:222|180:282,3,85.0000016212464,8|8|8|8,3:0|3:0|3:0|3:0,3:0:0:0:
60,300,112953,6,8,B|92:316|140:308|140:308|172:340|172:340|220:328|220:328|252:352|292:352,1,250
440,76,113305,2,0,B|408:84|408:84|376:104,1,50,0|0,1:0|1:0,1:0:0:0:
440,76,113422,2,0,P|391:48|332:48,1,100
240,80,113657,2,0,P|184:80|108:44,1,100
72,244,113891,2,0,B|68:192|68:192|100:124,1,100
280,236,114125,2,0,B|320:268|320:268|348:312,1,100
180,280,114360,5,0,0:0:0:0:
100,104,114477,1,0,0:0:0:0:
100,104,114594,2,0,P|67:129|27:232,1,111.500003062439,0|0,2:0|2:0,2:0:0:0:
408,352,114828,6,0,B|400:312|400:312|384:284|384:284|380:236|380:236|364:203,1,150.000005722046
288,36,115063,6,0,B|292:73|292:73|263:130,1,100
224,312,115297,6,0,P|208:372|244:324,1,150.000005722046
352,156,115531,6,0,P|275:214|212:192,1,150.000005722046
188,88,115766,6,0,P|274:45|323:64,1,150.000005722046
272,132,116000,2,0,B|223:149|223:149|202:164|202:164|182:167|182:167|165:178|165:178|132:188,1,150.000005722046
80,336,116235,6,0,B|76:312|76:312|80:296,1,37.5,0|0,2:0|2:0,2:0:0:0:
152,272,116469,2,0,B|204:268|207:264|256:220|260:219|348:220,1,150.000005722046
352,184,116703,6,0,P|363:188|380:200,1,25
412,124,116938,2,0,B|377:150|377:150|337:154,1,75.0000028610231
360,296,117172,5,0,0:0:0:0:
360,296,117289,1,0,0:0:0:0:
256,328,117406,1,0,0:0:0:0:
256,328,117524,1,0,0:0:0:0:
192,264,117641,1,0,0:0:0:0:
192,264,117758,1,0,0:0:0:0:
96,288,117875,1,0,0:0:0:0:
184,160,117992,6,0,P|168:144|150:130,2,37.5000014305115
241,202,118227,1,0,0:0:0:0:
312,196,118344,1,0,0:0:0:0:
364,152,118461,1,0,0:0:0:0:
396,92,118578,1,0,0:0:0:0:
392,160,118695,5,0,0:0:0:0:
403,230,118813,1,0,0:0:0:0:
434,294,118930,1,0,0:0:0:0:
288,240,119047,6,0,B|255:247|255:247|227:263,1,50
168,76,119281,6,0,B|132:68|132:68|104:56,1,62.5
76,232,119516,6,0,B|40:236|40:236|-8:252,1,62.5
180,364,119750,6,0,B|190:320|190:320|204:300|204:300|215:245,1,100
368,60,119985,6,0,B|312:72|312:72|284:64|284:64|248:72|248:72|216:48|176:56,1,200
168,76,120277,2,0,B|200:68|236:92,1,37.5000014305115
384,240,120453,6,0,P|401:268|352:292,1,100
64,164,120688,6,0,P|64:204|32:260,1,75.0000028610231
48,304,120922,2,0,P|56:292|72:280,1,34.4999988418579
191,151,121391,6,0,P|205:184|152:162,1,125
76,173,121625,2,0,B|118:181|118:181|160:170,1,75.0000028610231
304,176,121860,2,0,B|349:171|349:171|384:184,1,75.0000028610231
348,344,122094,1,0,0:0:0:0:
244,280,122210,1,0,0:0:0:0:
456,232,122327,1,0,1:0:0:0:
256,88,122445,2,0,P|241:117|248:176,1,75.0000028610231
248,254,122680,1,0,0:0:0:0:
104,256,122797,6,0,B|159:242|159:242|216:262|216:262|291:245,1,150.000005722046
352,188,123031,2,0,L|340:252,1,50
104,80,123266,2,0,L|116:140,1,50
348,308,123500,6,0,P|340:359|335:307,1,150.000005722046
212,204,123735,6,0,B|160:200,1,37.5000014305115
44,296,123969,2,0,P|120:288|208:308,1,150.000005722046
307,259,124203,6,0,L|327:267,1,22.4999993133545
460,296,124438,2,0,B|400:280|400:280|344:240,1,125
216,106,124672,5,0,0:0:0:0:
88,152,124789,1,0,0:0:0:0:
88,152,124906,2,0,B|56:120|-8:108,1,100
88,264,125141,2,0,P|136:275|176:304,1,100
304,352,125375,2,0,B|281:303|281:303|276:256,1,100
256,80,125610,6,0,P|272:84|256:96,1,41.6666666666667
256,80,125727,6,0,P|276:76|264:100,1,50.0000019073487
256,80,125844,6,0,P|280:68|264:92,1,58.3333338896433
256,80,125961,6,0,P|268:56|268:88,1,66.6666666666667
256,80,126078,6,0,P|260:48|272:80,1,75.000002861023
256,80,126195,6,0,P|240:64|280:56,1,56.2500021457673
256,80,126313,6,0,P|272:144|248:204,1,112.500004291535
116,224,126547,6,0,B|144:232|144:232|160:240,2,40
112,140,126899,2,0,B|64:124|64:124|16:116,2,100
152,308,127250,2,0,B|236:296|236:296|276:300|276:300|368:290,1,200
372,288,127602,6,0,B|363:276|363:276|355:242,1,40
336,28,127836,2,0,P|329:96|315:142,1,100
264,176,127953,2,0,B|256:152|256:152|240:129,2,50,0|0|0,1:0|1:0|1:0,1:0:0:0:
428,272,128305,5,0,0:0:0:0:
428,272,128422,2,0,B|396:288|351:277|299:300,1,100
235,287,128656,2,0,P|199:253|150:245,1,100
45,289,128891,2,0,B|68:347|140:327,1,100
272,160,129125,2,0,P|279:121|279:61,1,100
208,200,129360,6,0,P|254:240|304:224,1,100,0|0,3:0|3:0,3:0:0:0:
304,220,129594,2,0,P|308:240|304:256,4,25
376,168,129828,2,0,B|400:128|392:92|392:92|376:112,1,100
232,160,130063,2,0,B|226:140|226:140|260:155|278:198,1,100
208,376,130297,6,0,P|224:304|196:232,1,125
80,160,130531,6,0,P|50:197|96:185,1,125,0|0,0:0|0:0,0:3:0:0:
212,60,130766,2,0,B|232:56|232:56|264:56|284:48|284:48|316:39|316:39|288:56|267:86,1,160,0|0,2:0|2:0,2:0:0:0:
392,320,131000,2,0,B|348:324|312:280|340:220|389:223,1,160
304,244,131235,6,0,L|296:204,1,37.5
84,24,131469,6,0,B|80:40|80:40|88:60|88:60|84:76|88:92|76:108|76:108|84:132|84:132|72:156|72:156|64:184|64:184|72:208|72:208|64:236,1,200
32,300,131703,6,0,P|104:282|143:289,1,100,0|0,0:0|0:0,0:0:0:0:
336,328,131938,2,0,P|287:340|238:335,1,100,0|0,0:0|0:0,0:3:0:0:
148,88,132172,5,0,0:0:0:0:
220,112,132289,1,0,0:0:0:0:
288,112,132406,2,0,P|310:109|338:94,1,40
256,268,132641,5,0,0:0:0:0:
190,291,132758,1,0,0:0:0:0:
122,307,132875,2,0,P|89:304|67:292,1,40
220,208,133110,5,0,0:0:0:0:
216,167,133227,1,0,0:0:0:0:
278,129,133344,1,0,0:0:0:0:
306,152,133461,1,0,0:0:0:0:
360,115,133578,1,0,0:0:0:0:
352,79,133695,1,0,0:0:0:0:
394,49,133813,1,0,0:0:0:0:
418,72,133930,1,0,0:0:0:0:
436,288,134047,6,0,P|404:280|372:264,1,62.5
232,120,134281,6,0,P|196:120|152:136,1,62.5
44,284,134516,6,0,P|80:316|128:332,1,87.500000834465
328,328,134750,6,0,P|280:256|228:220,1,100
192,176,134985,5,0,0:0:0:0:
192,176,135336,5,4,0:0:0:0:
