osu file format v14

[General]
AudioFilename: audio.mp3
AudioLeadIn: 0
PreviewTime: 63345
Countdown: 1
SampleSet: Normal
StackLeniency: 0.7
Mode: 0
LetterboxInBreaks: 0
WidescreenStoryboard: 0

[Editor]
Bookmarks: 11874,21286,30698,49521,108345
DistanceSpacing: 0.8
BeatDivisor: 2
GridSize: 8
TimelineZoom: 1.4

[Metadata]
Title:Stay (Tritonal Remix)
TitleUnicode:Stay (Tritonal Remix)
Artist:Zedd, Alessia Cara
ArtistUnicode:Zedd, Alessia Cara
Creator:spomacmega
Version:Advance
Source:
Tags:
BeatmapID:1361364
BeatmapSetID:642104

[Difficulty]
HPDrainRate:5
CircleSize:4
OverallDifficulty:5
ApproachRate:5
SliderMultiplier:1
SliderTickRate:1

[Events]
//Background and Video events
0,0,"osu stay.jpg",0,0
//Break Periods
2,87368,88321
2,165015,173027
2,174427,182439
2,193251,201263
//Storyboard Layer 0 (Background)
//Storyboard Layer 1 (Fail)
//Storyboard Layer 2 (Pass)
//Storyboard Layer 3 (Foreground)
//Storyboard Sound Samples

[TimingPoints]
2463.03349160371,294.117647058824,4,1,0,30,1,0
21286,-90.9090909090909,4,1,0,40,0,0
22463,-83.3333333333333,4,1,0,50,0,0
23639,-76.9230769230769,4,1,0,60,0,0
24815,-71.4285714285714,4,1,0,70,0,0
25992,-90.9090909090909,4,1,0,100,0,0
28345,-83.3333333333333,4,1,0,100,0,0
29521,-76.9230769230769,4,1,0,100,0,0
30698,-90.9090909090909,4,1,0,100,0,0
42463,-100,4,1,0,100,0,0
43933,-90.9090909090909,4,1,0,100,0,0
68345,-83.3333333333333,4,1,0,100,0,1
87168,-83.3333333333333,4,1,0,100,0,0
89521,-90.9090909090909,4,1,0,100,0,0
120110,-100,4,1,0,100,0,0
121580,-90.9090909090909,4,1,0,100,0,0
145992,-83.3333333333333,4,1,0,100,0,1
164815,-83.3333333333333,4,1,0,100,0,0
183639,-90.9090909090909,4,1,0,100,0,0
191874,-133.333333333333,4,1,0,100,0,0
192757,-90.9090909090909,4,1,0,100,0,0
202463,-83.3333333333333,4,1,0,100,0,1
221286,-83.3333333333333,4,1,0,100,0,0

[HitObjects]
128,144,2463,6,0,B|216:96|216:96|320:128,1,200
384,264,3639,2,0,B|320:344|320:344|208:328,1,200
112,216,4815,2,0,B|144:120|144:120|248:72,1,200
368,168,5992,2,0,B|408:272|408:272|320:320,1,200
128,136,7168,6,0,B|224:104|224:104|328:136,1,200
264,280,8345,2,0,B|336:208|336:208|456:256|456:256,1,200
320,120,9521,2,0,B|216:120|216:120|152:184,1,175
32,296,10698,2,0,B|136:296|136:296|232:216,1,200
136,96,11874,6,0,B|208:96|224:64|224:64|248:96|336:128,1,200
320,280,13051,2,0,B|280:272|256:248|240:224|240:224|216:248|192:272|160:272|128:256,1,200
24,168,14227,2,0,B|80:160|96:128|96:104|96:104|120:136|144:160|160:144|176:120,1,200
240,56,15404,2,0,B|296:56|320:56|352:32|352:32|359:64|352:96|408:144,1,200
296,256,16580,6,0,B|232:224|200:240|160:264|160:264|184:216|168:176,1,200
144,56,17757,2,0,B|208:96|236:53|272:40|272:40|256:88|304:136,1,200
280,256,18933,2,0,B|256:280|264:200|264:200|224:224|192:280|176:232|152:208|152:208,1,200
112,64,20110,2,0,B|171:45|200:96|200:96|239:41|320:72,1,200
432,192,21286,6,0,B|424:168|464:168|464:168|408:128|432:64|432:64|360:72|360:24,1,220.000006713867
216,144,22463,2,0,B|160:160|160:160|136:96|96:184|96:184|48:208|56:264,1,239.999992675781
272,328,23639,2,0,B|304:320|296:360|296:360|352:328|400:296|392:384|472:368|496:328|400:272,1,259.999988098145
264,120,24815,2,0,B|232:112|232:112|192:48|200:112|200:112|248:176|200:208|200:208|248:280,1,279.999991455078
336,112,25992,6,0,B|256:88|256:88|216:64|240:144|240:144|88:104,1,220.000006713867
392,192,27168,2,0,B|360:136|360:136|384:112|352:96|352:96|320:88|272:88|248:120|256:160,1,220.000006713867
448,136,28345,6,0,B|472:88|472:88|488:64|496:88|496:88|512:176|432:232,1,239.999992675781
248,296,29521,2,0,B|200:288|200:288|120:256|176:280|176:280|160:336|312:344,1,259.999988098145
352,336,30404,1,0,0:0:0:0:
440,312,30698,5,0,0:0:0:0:
408,240,30992,2,0,L|328:144,2,110.000003356934
344,304,31874,1,0,0:0:0:0:
256,304,32168,2,0,L|120:304,2,110.000003356934
264,216,33051,2,0,L|352:208,4,55.0000016784668
312,144,33933,1,0,0:0:0:0:
232,144,34227,2,0,B|192:112|192:112|160:88|120:112|120:112|96:128|96:128|48:112|24:144,1,220.000006713867
40,224,35110,1,0,0:0:0:0:
48,312,35404,5,0,0:0:0:0:
136,304,35698,2,0,L|304:296,2,110.000003356934
136,216,36580,1,0,0:0:0:0:
208,168,36874,2,0,L|312:112,2,110.000003356934
280,224,37757,2,0,L|368:256,4,55.0000016784668
208,272,38639,1,0,0:0:0:0:
144,208,38933,2,0,B|88:152|72:104|72:104|64:56|88:72|88:72|97:84|104:112,1,220.000006713867
280,88,40110,5,0,0:0:0:0:
368,88,40404,2,0,L|488:104,2,110.000003356934
288,128,41286,1,0,0:0:0:0:
200,144,41580,2,0,L|64:176,2,110.000003356934
256,208,42463,2,0,P|328:272|440:80,1,400
352,64,43933,1,0,0:0:0:0:
264,88,44227,2,0,L|120:96,2,110.000003356934
256,176,45110,1,0,0:0:0:0:
256,264,45404,1,0,0:0:0:0:
432,272,46286,5,0,0:0:0:0:
368,216,46580,2,0,L|248:208,1,110.000003356934
168,200,47168,2,0,P|96:144|168:48,1,220.000006713867
240,56,48051,1,0,0:0:0:0:
328,80,48345,6,0,L|416:88,4,55.0000016784668
240,80,49227,1,0,0:0:0:0:
240,168,49521,2,0,B|128:160|128:160|40:232,1,220.000006713867
40,320,50404,1,0,0:0:0:0:
128,304,50698,2,0,L|208:288,3,55.0000016784668
312,280,51580,1,0,0:0:0:0:
384,224,51874,6,0,P|384:104|288:56,1,220.000006713867
216,64,52757,1,0,0:0:0:0:
136,104,53051,2,0,P|64:216|88:312,1,220.000006713867
168,312,53933,1,0,0:0:0:0:
256,312,54227,2,0,P|360:208|336:104,1,220.000006713867
296,80,55110,1,0,0:0:0:0:
208,80,55404,2,0,L|120:144,3,55.0000016784668
152,240,56286,1,0,0:0:0:0:
240,232,56580,6,0,B|384:200|448:112|448:112|368:56|280:56|224:80,1,440.000013427735
184,112,58051,2,0,L|128:160,2,55.0000016784668
256,56,58639,1,0,0:0:0:0:
344,72,58933,6,0,P|448:136|432:248,1,220.000006713867
392,288,59815,1,0,0:0:0:0:
304,288,60110,2,0,P|200:296|104:224,1,220.000006713867
72,152,60992,1,0,0:0:0:0:
40,72,61286,2,0,P|120:24|248:56,1,220.000006713867
304,104,62168,1,0,0:0:0:0:
296,192,62463,2,0,P|240:248|80:272,1,220.000006713867
56,208,63345,5,0,0:0:0:0:
48,120,63639,2,0,P|136:40|264:40,1,220.000006713867
312,72,64521,1,0,0:0:0:0:
344,152,64815,2,0,L|352:232,3,55.0000016784668
336,72,65698,1,0,0:0:0:0:
248,72,65992,6,0,L|184:72,12,36.6666677856446
336,72,67463,1,0,0:0:0:0:
336,160,67757,1,0,0:0:0:0:
336,248,68051,1,0,0:0:0:0:
248,272,68345,6,0,L|176:240,1,59.9999981689454
112,192,68786,2,0,L|176:136,1,59.9999981689454
192,64,69227,2,0,L|112:32,1,59.9999981689454
272,96,69815,2,0,P|328:136|400:120,2,119.999996337891
304,184,70698,6,0,L|224:256,1,59.9999981689454
184,280,71139,2,0,L|192:192,1,59.9999981689454
160,128,71580,2,0,L|240:80,1,59.9999981689454
160,232,72168,2,0,P|192:312|264:320,2,119.999996337891
256,240,73051,6,0,L|304:168,1,59.9999981689454
280,96,73492,2,0,L|208:80,1,59.9999981689454
136,136,73933,2,0,L|56:176,1,59.9999981689454
176,272,74521,2,0,P|256:296|328:288,2,119.999996337891
152,176,75404,6,0,L|224:104,1,59.9999981689454
272,80,75845,2,0,L|352:80,1,59.9999981689454
416,128,76286,2,0,L|480:192,1,59.9999981689454
392,240,76727,2,0,L|296:256,3,59.9999981689454
240,256,77463,1,0,0:0:0:0:
256,192,77757,12,0,79668,0:0:0:0:
376,112,80110,6,0,L|296:80,1,59.9999981689454
248,152,80551,2,0,L|144:208,1,59.9999981689454
200,280,80992,2,0,L|120:320,1,59.9999981689454
288,312,81580,2,0,P|376:296|432:264,2,119.999996337891
232,232,82463,6,0,L|144:168,1,59.9999981689454
120,128,82904,2,0,L|208:64,1,59.9999981689454
264,88,83345,2,0,L|344:168,1,59.9999981689454
304,272,83933,2,0,P|400:256|456:216,2,119.999996337891
312,176,84815,6,0,L|368:96,1,59.9999981689454
256,104,85257,2,0,L|144:112,1,59.9999981689454
128,176,85698,2,0,L|72:256,1,59.9999981689454
256,192,85992,12,0,87168,0:0:0:0:
416,152,89521,6,0,B|424:96|399:111|379:130|400:192|408:248|328:288,1,220.000006713867
168,248,90698,2,0,B|152:312|112:272|152:192|208:152|160:96|96:80,1,220.000006713867
312,80,91874,2,0,B|264:24|256:104|336:112|384:160|312:224|280:264,1,220.000006713867
136,272,93051,2,0,B|96:320|72:240|160:224|208:168|88:136|152:80,1,220.000006713867
312,96,94227,6,0,B|344:72|312:40|264:72|280:120|312:168|256:208|160:216,1,220.000006713867
72,312,95404,2,0,B|40:352|8:288|80:248|112:280|112:280|160:264|136:184,1,220.000006713867
264,88,96580,2,0,B|312:48|264:16|216:56|240:144|208:128|176:184|160:32|128:160,1,220.000006713867
112,296,97757,2,0,B|64:344|72:192|176:256|232:312|208:192|240:160|264:152,1,220.000006713867
376,88,98933,6,0,B|368:0|432:88|448:160|376:152|344:168|352:224|392:256,1,220.000006713867
200,280,100110,2,0,B|176:352|88:232|256:240|312:200|200:168|280:112,1,220.000006713867
432,144,101286,2,0,B|384:200|352:96|464:104|568:120|552:64|480:48|488:8,1,220.000006713867
448,216,102463,2,0,B|416:168|472:144|480:208|504:280|424:288|416:336|464:344|512:360,1,220.000006713867
296,312,103639,6,0,B|272:384|216:280|288:272|472:280|357:244|288:224|392:224,1,220.000006713867
280,72,104815,2,0,B|304:40|256:32|250:113|248:128|248:128|232:136|208:72|166:94|144:112,1,220.000006713867
128,280,105992,2,0,B|96:272|96:224|160:288|176:280|176:280|192:280|208:168|256:304|288:296|288:232,1,220.000006713867
272,184,106874,2,0,L|336:184,3,36.6666677856446
280,56,107610,1,0,0:0:0:0:
280,56,107757,1,0,0:0:0:0:
368,56,108051,1,0,0:0:0:0:
384,144,108345,5,0,0:0:0:0:
320,200,108639,2,0,L|192:256,2,110.000003356934
384,264,109521,1,0,0:0:0:0:
312,320,109815,2,0,L|200:368,2,110.000003356934
400,312,110698,2,0,L|472:304,4,55.0000016784668
384,224,111580,1,0,0:0:0:0:
320,168,111874,2,0,P|192:104|96:144,1,220.000006713867
88,200,112757,1,0,0:0:0:0:
136,272,113051,5,0,0:0:0:0:
216,296,113345,2,0,L|328:296,2,110.000003356934
136,272,114227,1,0,0:0:0:0:
200,208,114521,2,0,L|288:136,2,110.000003356934
224,296,115404,2,0,L|288:296,4,55.0000016784668
136,296,116286,1,0,0:0:0:0:
96,216,116580,2,0,B|64:272|56:192|96:96|136:168|176:160|240:160|168:80,1,220.000006713867
368,112,117757,5,0,0:0:0:0:
368,200,118051,2,0,L|368:336,2,110.000003356934
368,112,118933,1,0,0:0:0:0:
280,112,119227,2,0,L|120:112,2,110.000003356934
280,192,120110,2,0,B|224:136|336:104|344:184|328:272|240:312|120:312|64:232,1,400
80,168,121580,5,0,0:0:0:0:
72,80,121874,2,0,L|192:80,2,110.000003356934
72,168,122757,1,0,0:0:0:0:
72,256,123051,1,0,0:0:0:0:
336,256,123933,5,0,0:0:0:0:
336,168,124227,2,0,L|336:40,1,110.000003356934
248,56,124815,2,0,B|144:32|56:144|56:200,1,220.000006713867
64,240,125698,1,0,0:0:0:0:
144,280,125992,6,0,L|240:296,4,55.0000016784668
152,192,126874,1,0,0:0:0:0:
152,104,127168,2,0,P|232:48|352:48,1,220.000006713867
384,128,128051,1,0,0:0:0:0:
376,216,128345,2,0,L|328:288,3,55.0000016784668
256,160,129227,1,0,0:0:0:0:
176,200,129521,6,0,P|80:128|128:32,1,220.000006713867
192,48,130404,1,0,0:0:0:0:
280,48,130698,2,0,P|360:88|368:248,1,220.000006713867
320,256,131580,5,0,0:0:0:0:
232,256,131874,2,0,B|144:304|48:224|56:144,1,220.000006713867
48,88,132757,1,0,0:0:0:0:
128,48,133051,2,0,L|200:48,3,55.0000016784668
128,168,133933,1,0,0:0:0:0:
128,256,134227,2,0,B|200:304|304:288|392:144|392:144|248:136,1,440.000013427735
184,136,135698,2,0,L|96:136,2,55.0000016784668
272,136,136286,1,0,0:0:0:0:
360,120,136580,6,0,P|432:176|376:304,1,220.000006713867
312,296,137463,1,0,0:0:0:0:
224,296,137757,2,0,P|120:232|144:128,1,220.000006713867
128,56,138639,1,0,0:0:0:0:
216,48,138933,2,0,B|144:128|248:72|288:64|325:103|352:176,1,220.000006713867
336,240,139815,1,0,0:0:0:0:
280,312,140110,2,0,B|336:336|304:288|280:176|176:352|120:256|152:200,1,220.000006713867
128,160,140992,1,0,0:0:0:0:
136,72,141286,2,0,P|208:24|384:40,1,220.000006713867
384,96,142168,5,0,0:0:0:0:
392,184,142463,2,0,L|392:264,3,55.0000016784668
272,296,143345,1,0,0:0:0:0:
352,320,143639,2,0,L|392:320,12,36.6666677856446
272,288,145110,1,0,0:0:0:0:
208,224,145404,1,0,0:0:0:0:
144,160,145698,1,0,0:0:0:0:
224,104,145992,6,0,L|296:72,1,59.9999981689454
368,120,146433,2,0,L|424:192,1,59.9999981689454
368,256,146874,2,0,L|296:312,1,59.9999981689454
176,312,147463,2,0,P|88:336|48:304,2,119.999996337891
232,232,148345,6,0,L|288:168,1,59.9999981689454
216,104,148786,2,0,L|136:56,1,59.9999981689454
72,112,149227,2,0,L|32:200,1,59.9999981689454
48,312,149815,2,0,P|104:344|192:304,2,119.999996337891
72,216,150698,6,0,L|152:160,1,59.9999981689454
216,176,151139,2,0,L|288:240,1,59.9999981689454
320,288,151580,2,0,L|264:344,1,59.9999981689454
272,184,152168,2,0,P|328:128|408:152,2,119.999996337891
176,208,153051,6,0,L|96:160,1,59.9999981689454
64,104,153492,2,0,L|120:56,1,59.9999981689454
208,64,153933,2,0,L|304:64,1,59.9999981689454
272,160,154374,2,0,L|272:232,3,59.9999981689454
272,320,155110,1,0,0:0:0:0:
256,192,155404,12,0,157315,0:0:0:0:
392,72,157757,6,0,L|336:128,1,59.9999981689454
280,176,158198,2,0,L|368:248,1,59.9999981689454
312,312,158639,2,0,L|248:368,1,59.9999981689454
136,296,159227,2,0,P|72:256|88:184,2,119.999996337891
232,296,160110,6,0,L|312:256,1,59.9999981689454
288,176,160551,2,0,L|216:112,1,59.9999981689454
192,56,160992,2,0,L|248:16,1,59.9999981689454
376,80,161580,2,0,P|448:112|472:184,2,119.999996337891
288,120,162463,6,0,L|192:128,1,59.9999981689454
160,192,162904,2,0,L|104:264,1,59.9999981689454
152,328,163345,2,0,L|232:336,1,59.9999981689454
256,192,163639,12,0,164815,0:0:0:0:
256,192,174227,5,0,0:0:0:0:
256,264,183639,5,0,0:0:0:0:
320,152,184080,1,0,0:0:0:0:
192,152,184521,1,0,0:0:0:0:
256,152,185992,5,0,0:0:0:0:
192,264,186433,1,0,0:0:0:0:
320,264,186874,1,0,0:0:0:0:
192,176,188345,5,0,0:0:0:0:
224,304,188786,1,0,0:0:0:0:
320,216,189227,1,0,0:0:0:0:
304,264,190698,5,0,0:0:0:0:
296,136,191139,1,0,0:0:0:0:
184,208,191580,1,0,0:0:0:0:
192,152,191874,2,0,P|224:56|288:40,1,150.000005722046
264,128,192757,1,0,0:0:0:0:
264,216,193051,5,0,0:0:0:0:
248,336,202463,6,0,L|328:296,1,59.9999981689454
256,224,202904,2,0,L|176:160,1,59.9999981689454
192,88,203345,2,0,L|104:128,1,59.9999981689454
104,256,203933,2,0,P|168:280|232:256,1,119.999996337891
304,240,204521,1,0,0:0:0:0:
304,240,204668,1,0,0:0:0:0:
304,240,204815,6,0,L|360:200,1,59.9999981689454
336,112,205257,2,0,L|272:112,1,59.9999981689454
192,160,205698,2,0,L|128:224,1,59.9999981689454
56,312,206286,2,0,P|120:336|176:304,1,119.999996337891
240,256,206874,1,0,0:0:0:0:
240,256,207021,1,0,0:0:0:0:
240,256,207168,6,0,L|328:224,1,59.9999981689454
368,168,207610,2,0,L|400:72,1,59.9999981689454
312,56,208051,2,0,L|232:88,1,59.9999981689454
152,176,208639,2,0,P|208:200|272:176,1,119.999996337891
360,176,209227,1,0,0:0:0:0:
360,176,209374,1,0,0:0:0:0:
360,176,209521,6,0,L|448:128,1,59.9999981689454
512,152,209963,2,0,L|472:224,1,59.9999981689454
424,280,210404,2,0,L|352:288,1,59.9999981689454
280,240,210845,2,0,L|208:240,3,59.9999981689454
200,144,211580,1,0,0:0:0:0:
256,192,211874,12,0,214080,0:0:0:0:
256,320,214227,6,0,L|200:288,1,59.9999981689454
136,224,214668,2,0,L|216:176,1,59.9999981689454
272,144,215110,2,0,L|184:64,1,59.9999981689454
248,248,215698,2,0,P|312:272|384:240,1,119.999996337891
432,192,216286,1,0,0:0:0:0:
432,192,216433,1,0,0:0:0:0:
432,192,216580,6,0,L|328:144,1,59.9999981689454
280,152,217021,2,0,L|192:192,1,59.9999981689454
152,240,217463,2,0,L|248:296,1,59.9999981689454
344,304,218051,2,0,P|424:264|424:208,1,119.999996337891
416,144,218639,1,0,0:0:0:0:
416,144,218786,1,0,0:0:0:0:
416,144,218933,6,0,L|320:144,1,59.9999981689454
264,144,219374,2,0,L|184:192,1,59.9999981689454
136,232,219815,2,0,L|200:272,1,59.9999981689454
280,264,220257,2,0,L|352:264,3,59.9999981689454
344,168,220992,1,0,0:0:0:0:
256,200,221286,5,0,0:0:0:0:
