osu file format v14

[General]
AudioFilename: audio.mp3
AudioLeadIn: 0
PreviewTime: -1
Countdown: 0
SampleSet: Normal
StackLeniency: 0.4
Mode: 0
LetterboxInBreaks: 0
WidescreenStoryboard: 1

[Editor]
Bookmarks: 141779,142000,142147,142367,142661,142809,142956,143103,168691,168838,169279,169426,169720,190456
DistanceSpacing: 1.9
BeatDivisor: 8
GridSize: 4
TimelineZoom: 1

[Metadata]
Title:Stay
TitleUnicode:Stay
Artist:Zedd, Alessia Cara
ArtistUnicode:Zedd, Alessia Cara
Creator:Emilia
Version:squigly sqwagly
Source:
Tags:Interscope Records
BeatmapID:1755652
BeatmapSetID:836568

[Difficulty]
HPDrainRate:4
CircleSize:4
OverallDifficulty:8
ApproachRate:9.6
SliderMultiplier:2.6
SliderTickRate:1

[Events]
//Background and Video events
0,0,"stay.jpg",0,0
//Break Periods
//Storyboard Layer 0 (Background)
//Storyboard Layer 1 (Fail)
//Storyboard Layer 2 (Pass)
//Storyboard Layer 3 (Foreground)
//Storyboard Sound Samples

[TimingPoints]
10014.9405940594,588.235294117647,4,1,0,30,1,0
11779,-166.666666666667,4,1,0,30,0,0
12367,-250.000000000001,4,1,0,30,0,0
12956,-285.714285714286,4,1,0,30,0,0
13544,-333.333333333334,4,1,0,30,0,0
14132,-400,4,1,0,30,0,0
14720,-100,4,1,0,30,0,0
16485,-166.666666666667,4,1,0,30,0,0
17073,-250.000000000001,4,1,0,30,0,0
17661,-285.714285714286,4,1,0,30,0,0
18250,-333.333333333334,4,1,0,30,0,0
18838,-400,4,1,0,30,0,0
19426,-100,4,1,0,30,0,0
20014,-90.9090909090909,4,1,0,30,0,0
20603,-71.4285714285714,4,1,0,30,0,0
21044,-45.4545454545455,4,1,0,30,0,0
21191,-62.5,4,1,0,30,0,0
21632,-37.037037037037,4,1,0,30,0,0
21779,-83.3333333333333,4,1,0,30,0,0
22367,-333.333333333333,4,1,0,30,0,0
22956,-100,4,1,0,30,0,0
23544,-43.4782608695652,4,1,0,30,0,0
24720,-200,4,1,0,30,0,0
25603,-100,4,1,0,30,0,0
25897,-41.6666666666667,4,1,0,30,0,0
26779,-100,4,1,0,30,0,0
27073,-333.333333333333,4,1,0,30,0,0
28250,-200,4,1,0,30,0,0
28838,-66.6666666666667,4,1,0,30,0,0
37661,-33.3333333333333,4,1,0,30,0,0
37956,-66.6666666666667,4,1,0,30,0,0
41191,-90.9090909090909,4,1,0,30,0,0
41779,-166.666666666667,4,1,0,30,0,0
42367,-34.4827586206897,4,1,0,30,0,0
42956,-52.6315789473684,4,1,0,30,0,0
43544,-71.4285714285714,4,1,0,30,0,0
44132,-111.111111111111,4,1,0,30,0,0
44720,-37.037037037037,4,1,0,30,0,0
45014,-83.3333333333333,4,1,0,30,0,0
45309,-58.8235294117647,4,1,0,30,0,0
45897,-83.3333333333333,4,1,0,30,0,0
46485,-25,4,1,0,30,0,0
46632,-27.7777777777778,4,1,0,30,0,0
46779,-31.25,4,1,0,30,0,0
46926,-35.7142857142857,4,1,0,30,0,0
47073,-100,4,1,0,30,0,0
47661,-41.6666666666667,4,1,0,30,0,0
48544,-166.666666666667,4,1,0,30,0,0
48838,-41.6666666666667,4,1,0,30,0,0
49720,-166.666666666667,4,1,0,30,0,0
50014,-41.6666666666667,4,1,0,30,0,0
50897,-166.666666666667,4,1,0,30,0,0
51191,-41.6666666666667,4,1,0,30,0,0
52073,-166.666666666667,4,1,0,30,0,0
52367,-41.6666666666667,4,1,0,30,0,0
53250,-166.666666666667,4,1,0,30,0,0
53544,-41.6666666666667,4,1,0,30,0,0
54426,-166.666666666667,4,1,0,30,0,0
54720,-41.6666666666667,4,1,0,30,0,0
55897,-83.3333333333333,4,1,0,30,0,0
56485,-333.333333333334,4,1,0,30,0,0
57073,-100,4,1,0,30,0,0
66485,-28.5714285714286,4,1,0,30,0,0
66779,-41.6666666666667,4,1,0,30,0,0
67367,-333.333333333333,4,1,0,30,0,0
67661,-28.5714285714286,4,1,0,30,0,0
67955,-41.6666666666667,4,1,0,30,0,0
68543,-333.333333333333,4,1,0,30,0,0
68838,-28.5714285714286,4,1,0,30,0,0
69132,-41.6666666666667,4,1,0,30,0,0
69720,-333.333333333333,4,1,0,30,0,0
70014,-28.5714285714286,4,1,0,30,0,0
70308,-41.6666666666667,4,1,0,30,0,0
70896,-333.333333333333,4,1,0,30,0,0
71191,-28.5714285714286,4,1,0,30,0,0
71485,-41.6666666666667,4,1,0,30,0,0
72073,-333.333333333333,4,1,0,30,0,0
72367,-28.5714285714286,4,1,0,30,0,0
72661,-41.6666666666667,4,1,0,30,0,0
73249,-333.333333333333,4,1,0,30,0,0
73544,-28.5714285714286,4,1,0,30,0,0
73838,-41.6666666666667,4,1,0,30,0,0
74426,-333.333333333333,4,1,0,30,0,0
74720,-41.6666666666667,4,1,0,30,0,0
75309,-28.5714285714286,4,1,0,30,0,0
75603,-41.6666666666667,4,1,0,30,0,0
76191,-333.333333333333,4,1,0,30,0,0
76485,-28.5714285714286,4,1,0,30,0,0
76779,-333.333333333333,4,1,0,30,0,0
77073,-28.5714285714286,4,1,0,30,0,0
77367,-41.6666666666667,4,1,0,30,0,0
77955,-333.333333333333,4,1,0,30,0,0
78250,-28.5714285714286,4,1,0,30,0,0
78544,-41.6666666666667,4,1,0,30,0,0
79132,-333.333333333333,4,1,0,30,0,0
79426,-28.5714285714286,4,1,0,30,0,0
79720,-41.6666666666667,4,1,0,30,0,0
80308,-333.333333333333,4,1,0,30,0,0
80603,-28.5714285714286,4,1,0,30,0,0
80897,-41.6666666666667,4,1,0,30,0,0
81485,-333.333333333333,4,1,0,30,0,0
81779,-28.5714285714286,4,1,0,30,0,0
82073,-41.6666666666667,4,1,0,30,0,0
82661,-333.333333333333,4,1,0,30,0,0
82956,-28.5714285714286,4,1,0,30,0,0
83250,-41.6666666666667,4,1,0,30,0,0
85008,-28.5714285714286,4,1,0,30,0,0
85309,-142.857142857143,4,1,0,30,0,0
85897,-166.666666666667,4,1,0,30,0,0
86485,-200,4,1,0,30,0,0
87073,-250.000000000001,4,1,0,30,0,0
87661,-83.3333333333333,4,1,0,30,0,0
98250,-62.5,4,1,0,30,0,0
98691,-41.6666666666667,4,1,0,30,0,0
98838,-55.5555555555556,4,1,0,30,0,0
99279,-34.4827586206897,4,1,0,30,0,0
99426,-38.4615384615385,4,1,0,30,0,0
100014,-83.3333333333333,4,1,0,30,0,0
100603,-83.3333333333333,4,1,0,30,0,0
100897,-71.4285714285714,4,1,0,30,0,0
101191,-41.6666666666667,4,1,0,30,0,0
101485,-32.258064516129,4,1,0,30,0,0
102073,-41.6666666666667,4,1,0,30,0,0
102367,-200,4,1,0,30,0,0
103250,-83.3333333333333,4,1,0,30,0,0
103544,-35.7142857142857,4,1,0,30,0,0
103838,-50,4,1,0,30,0,0
104720,-66.6666666666667,4,1,0,30,0,0
105309,-142.857142857143,4,1,0,30,0,0
105897,-200,4,1,0,30,0,0
106485,-66.6666666666667,4,1,0,30,0,0
115309,-33.3333333333333,4,1,0,30,0,0
115897,-66.6666666666667,4,1,0,30,0,0
116485,-43.4782608695652,4,1,0,30,0,0
117073,-133.333333333333,4,1,0,30,0,0
117661,-66.6666666666667,4,1,0,30,0,0
119720,-100,4,1,0,30,0,0
120014,-34.4827586206897,4,1,0,30,0,0
120603,-83.3333333333333,4,1,0,30,0,0
120750,-40,4,1,0,30,0,0
121191,-83.3333333333333,4,1,0,30,0,0
122367,-33.3333333333333,4,1,0,30,0,0
122661,-83.3333333333333,4,1,0,30,0,0
122956,-50,4,1,0,30,0,0
123544,-66.6666666666667,4,1,0,30,0,0
125309,-41.6666666666667,4,1,0,30,0,0
126191,-166.666666666667,4,1,0,30,0,0
126485,-41.6666666666667,4,1,0,30,0,0
127367,-166.666666666667,4,1,0,30,0,0
127661,-41.6666666666667,4,1,0,30,0,0
128544,-166.666666666667,4,1,0,30,0,0
128838,-41.6666666666667,4,1,0,30,0,0
129720,-166.666666666667,4,1,0,30,0,0
130014,-41.6666666666667,4,1,0,30,0,0
130897,-166.666666666667,4,1,0,30,0,0
131191,-41.6666666666667,4,1,0,30,0,0
132073,-166.666666666667,4,1,0,30,0,0
132367,-41.6666666666667,4,1,0,30,0,0
133544,-83.3333333333333,4,1,0,30,0,0
134132,-333.333333333334,4,1,0,30,0,0
134720,-100,4,1,0,30,0,0
143397,-25,4,1,0,30,0,0
143544,-333.333333333333,4,1,0,30,0,0
144132,-28.5714285714286,4,1,0,30,0,0
144426,-41.6666666666667,4,1,0,30,0,0
145014,-333.333333333333,4,1,0,30,0,0
145308,-28.5714285714286,4,1,0,30,0,0
145602,-41.6666666666667,4,1,0,30,0,0
146190,-333.333333333333,4,1,0,30,0,0
146485,-28.5714285714286,4,1,0,30,0,0
146779,-41.6666666666667,4,1,0,30,0,0
147367,-333.333333333333,4,1,0,30,0,0
147661,-28.5714285714286,4,1,0,30,0,0
147955,-41.6666666666667,4,1,0,30,0,0
148543,-333.333333333333,4,1,0,30,0,0
148838,-28.5714285714286,4,1,0,30,0,0
149132,-41.6666666666667,4,1,0,30,0,0
149720,-333.333333333333,4,1,0,30,0,0
150014,-28.5714285714286,4,1,0,30,0,0
150308,-41.6666666666667,4,1,0,30,0,0
150896,-333.333333333333,4,1,0,30,0,0
151191,-28.5714285714286,4,1,0,30,0,0
151485,-41.6666666666667,4,1,0,30,0,0
152073,-333.333333333333,4,1,0,30,0,0
152367,-41.6666666666667,4,1,0,30,0,0
152956,-28.5714285714286,4,1,0,30,0,0
153250,-41.6666666666667,4,1,0,30,0,0
153838,-333.333333333333,4,1,0,30,0,0
154132,-28.5714285714286,4,1,0,30,0,0
154426,-333.333333333333,4,1,0,30,0,0
154720,-28.5714285714286,4,1,0,30,0,0
155014,-41.6666666666667,4,1,0,30,0,0
155602,-333.333333333333,4,1,0,30,0,0
155897,-28.5714285714286,4,1,0,30,0,0
156191,-41.6666666666667,4,1,0,30,0,0
156779,-333.333333333333,4,1,0,30,0,0
157073,-28.5714285714286,4,1,0,30,0,0
157367,-41.6666666666667,4,1,0,30,0,0
157955,-333.333333333333,4,1,0,30,0,0
158250,-28.5714285714286,4,1,0,30,0,0
158544,-41.6666666666667,4,1,0,30,0,0
159132,-333.333333333333,4,1,0,30,0,0
159426,-28.5714285714286,4,1,0,30,0,0
159720,-41.6666666666667,4,1,0,30,0,0
160308,-333.333333333333,4,1,0,30,0,0
160603,-28.5714285714286,4,1,0,30,0,0
160897,-41.6666666666667,4,1,0,30,0,0
162655,-28.5714285714286,4,1,0,30,0,0
162956,-142.857142857143,4,1,0,30,0,0
163544,-166.666666666667,4,1,0,30,0,0
164132,-200,4,1,0,30,0,0
164720,-250.000000000001,4,1,0,30,0,0
165309,-66.6666666666667,4,1,0,30,0,0
167073,-47.6190476190476,4,1,0,30,0,0
168029,-66.6666666666667,4,1,0,30,0,0
168470,-66.6666666666667,4,1,0,5,0,0
168617,-66.6666666666667,4,1,0,30,0,0
168838,-76.9230769230769,4,1,0,30,0,0
170014,-66.6666666666667,4,1,0,30,0,0
172956,-90.9090909090909,4,1,0,30,0,0
173544,-111.111111111111,4,1,0,30,0,0
173838,-55.5555555555556,4,1,0,30,0,0
174720,-133.333333333333,4,1,0,30,0,0
175897,-200,4,1,0,30,0,0
176191,-66.6666666666667,4,1,0,30,0,0
177073,-43.4782608695652,4,1,0,30,0,0
181779,-333.333333333333,4,1,0,30,0,0
182367,-41.6666666666667,4,1,0,30,0,0
182661,-333.333333333333,4,1,0,30,0,0
182955,-28.5714285714286,4,1,0,30,0,0
183249,-41.6666666666667,4,1,0,30,0,0
183837,-333.333333333333,4,1,0,30,0,0
184132,-28.5714285714286,4,1,0,30,0,0
184426,-41.6666666666667,4,1,0,30,0,0
185014,-333.333333333333,4,1,0,30,0,0
185308,-28.5714285714286,4,1,0,30,0,0
185602,-41.6666666666667,4,1,0,30,0,0
186190,-333.333333333333,4,1,0,30,0,0
186485,-28.5714285714286,4,1,0,30,0,0
186779,-41.6666666666667,4,1,0,30,0,0
187367,-333.333333333333,4,1,0,30,0,0
187661,-28.5714285714286,4,1,0,30,0,0
187955,-41.6666666666667,4,1,0,30,0,0
188543,-333.333333333333,4,1,0,30,0,0
188838,-28.5714285714286,4,1,0,30,0,0
189132,-41.6666666666667,4,1,0,30,0,0
189720,-333.333333333333,4,1,0,30,0,0
190014,-41.6666666666667,4,1,0,30,0,0
190603,-28.5714285714286,4,1,0,30,0,0
190897,-41.6666666666667,4,1,0,30,0,0
191191,-200,4,1,0,30,0,0
191485,-333.333333333333,4,1,0,30,0,0
191779,-50,4,1,0,30,0,0
192073,-333.333333333333,4,1,0,30,0,0
192367,-28.5714285714286,4,1,0,30,0,0
192661,-41.6666666666667,4,1,0,30,0,0
193249,-333.333333333333,4,1,0,30,0,0
193544,-28.5714285714286,4,1,0,30,0,0
193838,-41.6666666666667,4,1,0,30,0,0
194426,-333.333333333333,4,1,0,30,0,0
194720,-28.5714285714286,4,1,0,30,0,0
195014,-41.6666666666667,4,1,0,30,0,0
195602,-333.333333333333,4,1,0,30,0,0
195897,-28.5714285714286,4,1,0,30,0,0
196191,-41.6666666666667,4,1,0,30,0,0
196779,-333.333333333333,4,1,0,30,0,0
197073,-28.5714285714286,4,1,0,30,0,0
197367,-41.6666666666667,4,1,0,30,0,0
197955,-333.333333333333,4,1,0,30,0,0
198250,-28.5714285714286,4,1,0,30,0,0
198544,-41.6666666666667,4,1,0,30,0,0
200302,-28.5714285714286,4,1,0,30,0,0
200603,-75.0000187500047,4,1,0,30,0,0

[Colours]
Combo1 : 128,249,255
Combo2 : 94,170,255

[HitObjects]
33,130,10014,6,0,B|79:105|128:145|128:145|147:89|203:82,1,195
302,62,10603,2,0,B|314:94|260:143|207:96|215:38|264:-9,1,195
210,165,11191,2,0,P|232:236|213:365,1,195
78,271,11779,2,0,P|94:225|155:249,1,116.999996429443
70,366,12367,6,0,P|30:343|-7:346,1,78
70,366,12956,6,0,P|26:350|3:357,1,68.2499979171754
70,366,13544,6,0,P|24:358|8:366,1,58.4999982147217
70,366,14133,6,0,P|23:366|18:370,1,48.75
70,366,14720,6,0,P|116:278|103:160,1,195
122,37,15309,2,0,B|134:12|122:-15|79:-27|45:-9|16:59|87:112,1,195
185,96,15897,2,0,B|157:115|123:112|123:112|90:109|62:128|62:128|35:148|1:145,1,195
73,278,16485,2,0,P|116:240|112:184,1,116.999996429443
4,369,17073,6,0,P|48:351|87:355,1,78
11,358,17661,6,0,P|57:347|86:356,1,68.2499979171754
21,350,18250,6,0,P|62:347|83:356,1,58.4999982147217
31,343,18838,6,0,P|55:343|78:353,1,48.75
153,384,19426,6,0,P|253:354|369:373,1,195
257,166,20014,2,0,B|265:143|245:90|196:103|169:136|167:204|233:236,1,214.500006546021
294,369,20603,6,0,B|309:328|356:308|402:320|402:320|421:356|465:365,1,181.999994445801
465,364,20970,1,0,0:0:0:0:
465,364,21044,2,0,P|412:374|391:397,1,71.5000021820069
500,288,21191,2,0,P|469:138|491:62,1,208
490,70,21559,1,0,0:0:0:0:
490,70,21632,2,0,P|484:15|392:0,1,87.7500003347397
364,346,21779,6,0,P|307:369|180:244,1,233.999992858887
364,346,22367,6,0,P|328:340|305:326,1,58.4999982147217
343,208,22956,6,0,P|363:259|353:296,1,65
204,383,23250,2,0,P|227:319|221:266,1,97.5
246,271,23544,6,0,P|215:144|108:46,1,224.250004277229
38,28,23838,2,0,B|-1:74|-1:74|271:33,1,299.000005702973
393,64,24426,2,0,L|215:49,1,149.500002851486
457,4,24720,6,0,P|497:5|513:23,2,65
307,165,25603,2,0,P|356:138|413:152,1,97.5
417,149,25897,6,0,B|461:189|462:258|423:310|357:285|341:231|378:203,1,233.999992858887
511,319,26191,6,0,B|380:267|261:306|261:306|252:301|252:301|236:315|236:315|201:310|201:310|173:348|173:348|177:335|177:335|98:366|76:422,1,467.999985717774
1,293,26779,2,0,P|43:295|73:321,1,65
177,364,27073,2,0,P|195:355|217:356,2,38.9999988098145
120,265,27956,5,0,0:0:0:0:
108,250,28029,5,0,0:0:0:0:
140,211,28103,5,0,0:0:0:0:
73,159,28176,5,0,0:0:0:0:
117,64,28250,6,0,L|110:-1,1,65
115,384,28838,5,0,0:0:0:0:
161,166,28985,1,0,0:0:0:0:
15,312,29132,1,0,0:0:0:0:
227,367,29279,1,0,0:0:0:0:
84,91,29426,2,0,P|56:159|69:212,1,97.50000371933
238,241,29720,2,0,P|266:173|253:120,1,97.50000371933
152,25,30014,5,0,0:0:0:0:
111,274,30161,1,0,0:0:0:0:
244,72,30309,1,0,0:0:0:0:
40,33,30456,1,0,0:0:0:0:
333,2,30603,2,0,P|356:58|345:122,1,97.50000371933
155,142,30897,2,0,P|132:86|143:22,1,97.50000371933
266,195,31191,5,0,0:0:0:0:
30,165,31338,1,0,0:0:0:0:
266,195,31485,1,0,0:0:0:0:
30,165,31632,1,0,0:0:0:0:
359,260,31779,2,0,P|378:200|349:130,1,97.50000371933
173,130,32073,2,0,P|154:190|183:260,1,97.50000371933
262,354,32367,6,0,L|34:378,2,195.00000743866
489,91,33250,1,0,0:0:0:0:
471,74,33323,1,0,0:0:0:0:
449,63,33397,1,0,0:0:0:0:
425,60,33470,1,0,0:0:0:0:
401,64,33544,5,0,0:0:0:0:
373,257,33691,1,0,0:0:0:0:
401,64,33838,1,0,0:0:0:0:
373,257,33985,1,0,0:0:0:0:
325,110,34132,2,0,P|312:44|333:-6,1,97.50000371933
452,213,34426,2,0,P|465:279|444:329,1,97.50000371933
301,353,34720,5,0,0:0:0:0:
77,297,34867,1,0,0:0:0:0:
301,353,35014,1,0,0:0:0:0:
77,297,35161,1,0,0:0:0:0:
367,298,35309,2,0,P|310:263|264:273,1,97.50000371933
11,352,35603,2,0,P|68:387|114:377,1,97.50000371933
154,117,35897,5,0,0:0:0:0:
178,340,36044,1,0,0:0:0:0:
154,117,36191,1,0,0:0:0:0:
178,340,36338,1,0,0:0:0:0:
248,97,36485,2,0,L|260:-15,1,97.50000371933
103,288,36779,2,0,L|92:384,1,97.50000371933
312,177,37073,5,0,0:0:0:0:
86,104,37220,1,0,0:0:0:0:
376,110,37367,2,0,P|403:167|391:225,1,97.50000371933
44,355,37661,6,0,P|17:298|29:240,1,97.50000371933
20,264,37956,5,0,0:0:0:0:
18,288,38029,1,0,0:0:0:0:
21,312,38103,1,0,0:0:0:0:
31,334,38176,1,0,0:0:0:0:
44,355,38250,6,0,B|54:205|54:205|-1:268,1,195.00000743866
187,268,38691,5,0,0:0:0:0:
187,268,38838,6,0,P|210:221|161:270,1,195.00000743866
333,198,39279,5,0,0:0:0:0:
333,198,39426,6,0,P|356:151|307:200,1,195.00000743866
479,128,39867,5,0,0:0:0:0:
479,128,40014,6,0,P|502:81|453:130,1,195.00000743866
512,228,40456,1,0,0:0:0:0:
235,227,40603,6,0,P|339:184|447:204,1,195.00000743866
418,192,41044,1,0,0:0:0:0:
293,245,41191,6,0,P|348:201|418:192,1,143.000004364014
418,192,41632,1,0,0:0:0:0:
355,233,41779,6,0,P|382:205|418:192,1,77.999997619629
418,192,42220,1,0,0:0:0:0:
432,365,42367,6,0,B|444:215|444:215|438:197|438:197|454:174|454:174|450:177|450:177|462:47,1,282.750008628845
496,11,42661,1,0,0:0:0:0:
474,1,42734,1,0,0:0:0:0:
451,0,42808,1,0,0:0:0:0:
430,10,42881,1,0,0:0:0:0:
411,28,42956,6,0,P|313:79|150:41,1,246.999993404389
181,61,43397,1,0,0:0:0:0:
354,85,43544,6,0,P|265:94|181:61,1,181.999994445801
181,61,43985,1,0,0:0:0:0:
284,108,44132,6,0,P|228:95|181:61,1,116.999996429443
181,61,44573,1,0,0:0:0:0:
41,384,44720,6,0,P|92:258|66:96,1,263.250001004219
71,124,45014,2,0,P|134:131|153:147,1,77.999997619629
140,371,45309,6,0,P|235:324|362:337,1,221.000004215241
347,331,45750,1,0,0:0:0:0:
202,290,45897,6,0,P|279:293|346:330,1,155.999995239258
347,331,46338,1,0,0:0:0:0:
461,384,46485,6,0,P|460:273|527:158,1,195
512,153,46632,2,0,P|478:186|434:312,1,175.499994644165
427,347,46779,2,0,P|429:242|459:185,1,156
471,158,46926,2,0,P|459:166|410:288,1,136.499995834351
404,308,47073,6,0,P|407:216|434:175,1,130
495,99,47661,6,0,B|413:106|379:15|379:15|403:114|302:158,1,311.999990478516
324,147,48544,6,0,P|292:153|269:174,1,58.4999982147217
367,213,48838,6,0,P|211:186|65:242,2,311.999990478516
367,213,49720,6,0,P|346:232|334:272,1,58.4999982147217
444,367,50014,6,0,B|472:313|457:229|381:197|399:236|305:158|371:87,1,311.999990478516
364,95,50897,6,0,P|335:111|300:112,1,58.4999982147217
443,105,51191,6,0,B|416:53|338:8|249:11|223:34|223:34|211:80|145:98,1,311.999990478516
187,81,52073,6,0,P|144:85|127:102,1,58.4999982147217
206,189,52367,6,0,P|167:63|109:167,1,311.999990478516
105,159,53250,6,0,P|152:178|167:198,1,58.4999982147217
48,242,53544,6,0,P|192:185|347:189,2,311.999990478516
48,242,54426,6,0,P|83:229|100:208,1,58.4999982147217
93,205,54720,6,0,B|41:248|-4:334|54:429|165:409|177:309|89:284,1,311.999990478516
119,291,55897,6,0,P|148:296|168:318,1,38.9999988098145
197,238,56044,2,0,P|219:256|225:285,1,38.9999988098145
291,231,56191,2,0,P|301:258|292:286,1,38.9999988098145
375,271,56338,2,0,P|370:300|348:320,1,38.9999988098145
428,349,56485,2,0,P|409:371|380:377,1,38.9999988098145
191,348,57073,5,0,0:0:0:0:
191,348,57367,1,0,0:0:0:0:
105,337,57514,1,0,0:0:0:0:
19,326,57661,2,0,L|23:370,3,32.5
26,312,57956,6,0,L|22:268,1,32.5
112,323,58103,2,0,L|108:279,1,32.5
234,45,58250,5,0,0:0:0:0:
320,33,58397,1,0,0:0:0:0:
406,22,58544,2,0,L|402:66,1,32.5
71,216,58838,6,0,L|68:183,1,32.5
498,85,59132,6,0,L|500:117,3,32.5
500,143,59426,5,0,0:0:0:0:
500,143,59720,1,0,0:0:0:0:
411,128,59867,1,0,0:0:0:0:
322,113,60014,2,0,L|324:145,3,32.5
316,97,60309,6,0,L|313:64,1,32.5
227,82,60456,2,0,L|224:49,1,32.5
161,310,60603,5,0,0:0:0:0:
81,294,60750,1,0,0:0:0:0:
10,341,60897,2,0,L|12:373,1,32.5
2,327,61044,6,0,L|-1:294,1,32.5
99,79,61191,2,0,L|101:46,3,32.5
97,32,61485,6,0,L|99:0,1,32.5
178,56,61632,2,0,L|180:23,1,32.5
259,80,61779,1,0,0:0:0:0:
259,80,62073,5,0,0:0:0:0:
343,63,62220,1,0,0:0:0:0:
427,46,62367,2,0,L|424:78,3,32.5
418,96,62661,6,0,L|420:128,1,32.5
502,79,62809,2,0,L|504:111,1,32.5
368,300,62956,5,0,0:0:0:0:
284,284,63103,1,0,0:0:0:0:
225,352,63250,2,0,L|222:384,1,32.5
0,37,63544,6,0,L|2:4,1,32.5
262,145,63838,6,0,L|259:177,3,32.5
258,199,64132,5,0,0:0:0:0:
249,196,64426,1,0,0:0:0:0:
249,187,64720,1,0,0:0:0:0:
258,184,65014,1,0,0:0:0:0:
264,192,65309,1,0,0:0:0:0:
0,169,65897,6,0,P|74:127|188:133,1,195
231,306,66559,6,0,B|251:315|291:331|281:395|249:451|156:415|117:356|115:276|152:234|215:206|243:191|243:191|269:172|293:140|284:70|195:69|181:112|175:143|198:179|230:191|243:191|243:191|310:153|337:137|335:61|336:30|289:0|257:0,1,910.000008678436
400,218,67367,6,0,L|367:222,1,29.2499991073609
370,221,67661,6,0,P|395:249|399:126,1,341.250003254414
387,132,67956,2,0,B|347:143|314:112|314:112|283:79|244:85|244:85|178:97|132:37,1,233.999992858887
153,75,68250,6,0,P|142:27|149:-3,1,77.999997619629
372,54,68544,2,0,L|408:46,1,29.2499991073609
401,48,68838,6,0,B|419:19|448:12|448:12|369:-6|309:41|266:92|278:180|308:254|407:308|526:236|557:210|515:132|472:38|365:86|329:204|355:327|489:333|489:333|450:318|445:273,1,910.000008678436
165,324,69720,6,0,L|179:294,1,29.2499991073609
178,298,70014,6,0,B|140:289|112:323|112:323|78:372|5:374|-32:316|-32:257|17:213|72:212|104:258|109:287,1,341.250003254414
86,250,70309,2,0,B|135:286|218:227|178:223|259:162|328:234,1,233.999992858887
312,221,70603,6,0,P|333:273|326:310,1,77.999997619629
225,353,70897,2,0,L|220:324,1,29.2499991073609
220,324,71191,6,0,B|272:274|218:186|156:211|119:237|100:260|100:260|51:286|54:348|117:386|165:341|169:259|100:260|100:260|19:281|-123:192|-47:25|52:-9|134:55|132:188|-55:147,1,910.000008678436
288,45,72073,6,0,L|278:79,1,29.2499991073609
279,73,72367,6,0,B|373:98|424:-9|424:-9|389:104|512:148,1,341.250003254414
486,141,72661,2,0,B|535:176|541:231|506:323|416:285|416:241|434:204|441:195|471:192,1,233.999992858887
428,193,72956,6,0,P|360:176|321:207,1,77.999997619629
12,318,73250,2,0,L|49:310,1,29.2499991073609
12,318,73544,6,0,B|46:248|149:260|149:260|228:289|214:341|180:385|146:359|94:338|148:260|148:260|163:208|223:184|223:184|216:250|258:326|342:346|411:325|473:259|426:148|340:152|292:238|317:276,1,910.000008678436
229,312,74279,1,0,0:0:0:0:
229,312,74426,1,0,0:0:0:0:
413,384,74720,6,0,L|429:280,1,77.999997619629
498,265,74867,2,0,L|514:161,1,77.999997619629
477,158,75014,2,0,L|493:54,1,77.999997619629
500,77,75161,2,0,L|516:-27,1,77.999997619629
179,132,75309,6,0,B|182:58|266:-9|348:9|396:53|396:53|362:76|362:152,1,341.250003254414
272,138,75603,2,0,B|166:150|166:150|171:153|171:153|141:140|141:140|128:150|128:150|56:157,1,233.999992858887
0,94,75897,2,0,B|33:72|33:72|102:88,1,77.999997619629
370,337,76191,6,0,P|370:353|382:363,1,29.2499991073609
380,361,76485,6,0,B|373:315|373:315|364:294|364:294|352:205,1,113.750001084805
458,36,76779,6,0,L|453:65,1,29.2499991073609
453,64,77073,6,0,B|473:27|513:11|513:11|465:-1|386:17|348:91|361:174,1,341.250003254414
366,187,77367,2,0,B|386:256|438:294|518:280|536:178|460:155|424:175|417:204,1,233.999992858887
440,172,77661,6,0,P|494:198|541:190,1,77.999997619629
88,84,77956,2,0,L|55:89,1,29.2499991073609
59,88,78250,6,0,B|32:126|-21:122|-46:73|-23:11|26:-14|118:14|146:61|146:61|181:111|250:130|289:89|302:43|266:-10|203:-59|152:11|123:56|115:116|161:187|247:215|335:229|410:144|400:25,1,910.000008678436
34,345,79132,6,0,L|40:311,1,29.2499991073609
39,316,79426,6,0,B|35:282|-12:252|-42:277|-17:344|-2:379|113:381|196:330|186:235,1,341.250003254414
183,242,79720,2,0,B|244:252|259:327|259:327|299:253|410:266,1,233.999992858887
365,259,80014,6,0,P|373:331|404:357,1,77.999997619629
499,159,80309,2,0,L|467:151,1,29.2499991073609
470,151,80603,6,0,B|525:143|510:47|449:59|392:90|392:90|280:141|280:141|195:189|181:273|323:351|375:260|244:283|417:196|444:206|482:226|505:267|514:348|494:388|447:413|375:396|357:349|366:310|389:281,1,910.000008678436
61,42,81485,6,0,L|28:54,1,29.2499991073609
34,52,81779,6,0,P|67:23|30:115,1,341.250003254414
40,131,82073,2,0,B|94:150|127:117|127:117|157:92|198:100|198:100|246:112|279:62,1,233.999992858887
269,73,82367,6,0,P|332:91|356:127,1,77.999997619629
35,228,82661,2,0,L|7:237,1,29.2499991073609
7,236,82956,6,0,B|-15:212|-10:160|56:117|109:137|141:202|108:246|108:246|75:296|72:336|113:414|202:376|220:323|220:323|249:288|250:252|205:199|133:244|140:311|193:333|220:323|220:323|293:322|323:259|299:198|234:158,1,910.000008678436
191,115,83691,1,0,0:0:0:0:
191,115,83838,1,0,0:0:0:0:
191,115,83985,1,0,0:0:0:0:
504,167,84132,6,0,P|452:128|405:128,1,77.999997619629
348,68,84279,2,0,P|283:100|262:143,1,77.999997619629
233,124,84426,2,0,P|205:187|211:231,1,77.999997619629
199,203,84573,2,0,P|207:249|238:296,1,77.999997619629
339,289,84720,6,0,B|378:247|385:177|352:149|305:139|276:165|279:219|306:235,1,233.999992858887
466,337,85014,2,0,B|396:253|282:307|259:342|243:393|243:393|286:362|280:307,1,341.250003254414
221,276,85309,6,0,P|176:280|141:308,1,90.9999972229005
201,263,85897,6,0,P|165:278|141:308,1,77.999997619629
180,259,86485,6,0,P|155:279|141:308,1,65
161,261,87073,6,0,P|146:282|141:308,1,52
63,120,87661,6,0,P|40:66|133:106,1,233.999992858887
4,200,88250,2,0,P|90:174|139:185,1,116.999996429443
130,171,88544,2,0,P|149:213|132:266,1,77.999997619629
12,380,88838,2,0,P|-2:332|80:276,1,155.999995239258
180,99,89426,2,0,P|245:131|240:204,1,155.999995239258
100,349,90014,5,0,0:0:0:0:
18,293,90161,2,0,P|113:301|186:330,1,155.999995239258
276,230,90603,2,0,B|236:219|222:180|222:180|228:224|180:258,1,155.999995239258
254,368,91044,1,0,0:0:0:0:
354,136,91191,2,0,P|323:280|328:312,1,155.999995239258
488,357,91779,2,0,B|443:330|390:332|390:332|361:366|326:362,1,155.999995239258
274,384,92147,5,0,0:0:0:0:
274,384,92220,1,0,0:0:0:0:
274,384,92294,1,0,0:0:0:0:
274,384,92367,2,0,P|297:344|207:331,1,155.999995239258
166,377,92809,1,0,0:0:0:0:
10,321,92956,2,0,P|77:291|149:293,1,116.999996429443
138,293,93250,2,0,L|129:203,1,77.999997619629
116,49,93544,2,0,P|127:102|36:142,1,155.999995239258
307,370,94132,2,0,P|318:317|227:277,1,155.999995239258
226,372,94720,5,0,0:0:0:0:
0,267,94867,2,0,B|34:237|77:249|77:249|89:299|136:308,1,155.999995239258
171,231,95309,2,0,L|142:405,1,155.999995239258
173,221,95750,1,0,0:0:0:0:
126,61,95897,2,0,P|183:32|257:34,1,116.999996429443
254,22,96191,2,0,P|270:72|251:120,1,77.999997619629
38,149,96485,2,0,L|215:136,1,155.999995239258
277,178,96853,5,0,0:0:0:0:
277,178,96926,1,0,0:0:0:0:
277,178,97000,1,0,0:0:0:0:
277,178,97073,2,0,B|211:153|211:153|178:206|110:184,1,155.999995239258
28,82,97514,1,0,0:0:0:0:
62,6,97661,2,0,L|33:186,1,155.999995239258
20,253,98103,1,0,0:0:0:0:
138,377,98250,6,0,B|191:351|189:287|189:287|211:358|299:339,1,208
282,339,98617,1,0,0:0:0:0:
282,339,98691,2,0,P|322:374|373:364,1,77.999997619629
489,63,98838,2,0,B|524:39|512:-15|466:-34|412:-2|380:56|427:122|467:150,1,233.999992858887
424,138,99206,1,0,0:0:0:0:
424,138,99279,2,0,P|457:187|452:229,1,94.2500028762818
0,78,99426,6,0,B|65:82|65:82|83:97|83:97|131:72|131:72|126:79|126:79|352:92,1,337.999984527589
89,7,99867,1,0,0:0:0:0:
131,209,100014,2,0,P|194:218|284:164,1,155.999995239258
273,176,100456,1,0,0:0:0:0:
70,288,100603,6,0,P|121:313|136:338,1,77.999997619629
29,146,100897,6,0,P|97:133|162:86,1,136.499995834351
123,14,101191,2,0,P|216:85|359:38,1,233.999992858887
482,115,101485,2,0,B|516:81|492:22|492:22|431:21|413:73,1,201.500001537323
413,74,101706,1,0,0:0:0:0:
413,74,101779,1,0,0:0:0:0:
430,332,102073,2,0,L|418:135,1,155.999995239258
337,380,102367,6,0,P|305:363|268:365,1,65
276,362,102809,1,0,0:0:0:0:
276,362,102956,1,0,0:0:0:0:
0,196,103250,6,0,P|65:158|134:177,1,116.999996429443
124,171,103544,6,0,B|88:206|102:243|139:278|206:265|226:171|217:123|154:81,1,272.999991668701
271,88,103838,2,0,B|246:97|215:91|215:91|192:98|192:98|170:74|170:74|172:81|172:81|97:68|48:9,1,260
50,8,104206,1,0,0:0:0:0:
47,1,104279,1,0,0:0:0:0:
34,231,104426,5,0,0:0:0:0:
115,283,104573,1,0,0:0:0:0:
54,158,104720,2,0,L|69:372,1,195.00000743866
67,352,105161,1,0,0:0:0:0:
197,384,105309,6,0,P|204:341|178:311,1,68.2499979171754
129,283,105603,5,0,0:0:0:0:
131,266,105676,5,0,0:0:0:0:
102,221,105750,5,0,0:0:0:0:
159,161,105823,5,0,0:0:0:0:
99,75,105897,6,0,L|93:3,1,65
10,299,106485,5,0,0:0:0:0:
275,266,106632,1,0,0:0:0:0:
119,109,106779,1,0,0:0:0:0:
154,384,106926,1,0,0:0:0:0:
29,145,107073,2,0,P|22:88|54:37,1,97.50000371933
205,71,107367,2,0,P|212:128|180:179,1,97.50000371933
96,279,107661,5,0,0:0:0:0:
135,21,107809,1,0,0:0:0:0:
203,281,107956,1,0,0:0:0:0:
0,234,108103,1,0,0:0:0:0:
286,240,108250,2,0,P|295:288|273:342,1,97.50000371933
80,364,108544,2,0,P|71:316|93:262,1,97.50000371933
241,113,108838,5,0,0:0:0:0:
54,142,108985,1,0,0:0:0:0:
198,37,109132,1,0,0:0:0:0:
180,232,109279,1,0,0:0:0:0:
321,188,109426,2,0,P|338:130|320:76,1,97.50000371933
196,25,109720,1,0,0:0:0:0:
243,123,109867,1,0,0:0:0:0:
155,316,110014,6,0,L|40:301,1,97.50000371933
264,369,110309,2,0,P|342:385|421:284,2,195.00000743866
243,277,111044,1,0,0:0:0:0:
243,277,111117,1,0,0:0:0:0:
243,277,111191,5,0,0:0:0:0:
1,191,111338,1,0,0:0:0:0:
238,81,111485,1,0,0:0:0:0:
183,363,111633,1,0,0:0:0:0:
339,188,111779,2,0,L|327:71,1,97.50000371933
87,18,112073,2,0,L|96:114,1,97.50000371933
114,330,112367,5,0,0:0:0:0:
248,125,112514,1,0,0:0:0:0:
4,73,112661,1,0,0:0:0:0:
261,226,112809,1,0,0:0:0:0:
374,10,112956,2,0,L|243:-3,1,97.50000371933
17,75,113250,2,0,L|114:84,1,97.50000371933
283,221,113544,5,0,0:0:0:0:
237,91,113691,1,0,0:0:0:0:
223,322,113838,1,0,0:0:0:0:
427,215,113985,1,0,0:0:0:0:
166,180,114132,2,0,P|145:239|168:297,1,97.50000371933
296,364,114426,1,0,0:0:0:0:
351,136,114573,1,0,0:0:0:0:
237,0,114720,6,0,L|247:108,1,97.50000371933
488,167,115014,2,0,P|410:131|316:153,1,146.250005578995
338,147,115309,6,0,P|276:179|206:146,1,97.50000371933
250,176,115603,1,0,0:0:0:0:
109,36,115750,1,0,0:0:0:0:
0,235,115897,6,0,B|35:216|35:216|5:400,1,195.00000743866
103,278,116338,5,0,0:0:0:0:
103,278,116485,6,0,B|127:238|117:187|117:187|168:212|168:212|209:170|209:170|217:230|267:256,1,299.000005702973
319,189,116926,5,0,0:0:0:0:
319,189,117073,6,0,L|341:301,1,97.50000371933
492,222,117514,5,0,0:0:0:0:
492,222,117661,6,0,B|452:216|412:237|412:237|380:86,1,195.00000743866
434,368,118103,5,0,0:0:0:0:
434,368,118250,6,0,P|389:321|296:337,1,146.250005578995
246,379,118654,1,0,0:0:0:0:
306,206,118838,2,0,P|230:238|128:226,1,146.250005578995
152,230,119132,2,0,P|149:290|109:328,1,97.50000371933
0,201,119426,1,0,0:0:0:0:
46,382,119573,1,0,0:0:0:0:
170,151,119720,6,0,P|139:134|108:137,1,65
70,31,120014,6,0,B|79:126|79:126|95:146|95:146|76:187|76:187|80:182|80:182|90:331,1,282.750008628845
93,373,120309,1,0,0:0:0:0:
4,159,120456,1,0,0:0:0:0:
4,159,120529,1,0,0:0:0:0:
4,159,120603,5,0,0:0:0:0:
335,176,120750,2,0,P|256:112|141:145,1,162.5
79,184,121044,1,0,0:0:0:0:
281,39,121191,6,0,P|330:103|330:190,1,155.999995239258
194,247,121632,1,0,0:0:0:0:
45,236,121779,2,0,P|106:212|147:221,1,77.999997619629
255,309,122073,2,0,P|265:356|252:403,1,77.999997619629
479,356,122367,6,0,P|517:299|411:343,1,292.50001115799
404,338,122661,2,0,P|360:307|305:316,1,77.999997619629
18,355,122956,6,0,B|48:293|129:269|185:296|185:296|215:349|262:344,1,260
231,341,123397,1,0,0:0:0:0:
303,97,123544,2,0,L|293:-21,1,97.50000371933
318,285,123838,2,0,L|326:382,1,97.50000371933
379,57,124132,5,0,0:0:0:0:
386,61,124181,1,0,0:0:0:0:
391,68,125014,1,0,0:0:0:0:
391,68,125088,1,0,0:0:0:0:
391,68,125161,1,0,0:0:0:0:
391,68,125235,1,0,0:0:0:0:
391,68,125309,6,0,B|398:37|420:18|420:18|372:12|295:38|272:139|323:218|358:235,1,311.999990478516
324,199,125897,1,0,0:0:0:0:
324,199,126191,1,0,0:0:0:0:
126,247,126485,6,0,B|119:216|97:197|97:197|145:191|222:217|245:318|194:397|159:414,1,311.999990478516
192,378,127073,1,0,0:0:0:0:
192,378,127367,1,0,0:0:0:0:
140,134,127661,6,0,P|151:87|67:158,1,311.999990478516
58,154,128250,1,0,0:0:0:0:
58,154,128544,1,0,0:0:0:0:
236,358,128838,6,0,P|224:311|308:382,1,311.999990478516
324,375,129427,1,0,0:0:0:0:
324,375,129721,1,0,0:0:0:0:
510,344,130014,6,0,B|430:327|432:220|432:220|393:330|261:288,1,311.999990478516
318,299,130603,1,0,0:0:0:0:
318,299,130897,1,0,0:0:0:0:
220,23,131191,6,0,B|140:40|142:147|142:147|103:37|-29:79,1,311.999990478516
28,68,131780,1,0,0:0:0:0:
28,68,132074,1,0,0:0:0:0:
247,295,132367,6,0,B|168:217|185:130|241:75|304:99|315:178|270:192,1,311.999990478516
276,189,132956,1,0,0:0:0:0:
276,189,133250,1,0,0:0:0:0:
276,189,133544,6,0,P|305:166|320:164,1,38.9999988098145
347,232,133691,2,0,P|381:245|390:257,1,38.9999988098145
345,314,133838,2,0,P|350:350|344:364,1,38.9999988098145
272,353,133985,2,0,P|243:376|227:378,1,38.9999988098145
202,311,134132,2,0,P|167:297|158:285,1,38.9999988098145
167,297,134720,5,0,0:0:0:0:
167,297,135014,1,0,0:0:0:0:
84,306,135161,1,0,0:0:0:0:
3,320,135309,2,0,L|-3:367,3,32.5
9,305,135603,6,0,L|4:272,1,32.5
90,292,135750,2,0,L|85:259,1,32.5
156,370,135897,5,0,0:0:0:0:
237,384,136044,1,0,0:0:0:0:
299,330,136191,2,0,L|294:297,1,32.5
76,3,136485,6,0,L|80:35,1,32.5
500,173,136779,6,0,L|495:140,3,32.5
502,131,137073,5,0,0:0:0:0:
502,131,137367,1,0,0:0:0:0:
419,122,137514,1,0,0:0:0:0:
336,113,137661,2,0,L|331:80,3,32.5
337,68,137956,6,0,L|341:35,1,32.5
254,59,138103,2,0,L|258:26,1,32.5
0,338,138250,5,0,0:0:0:0:
83,329,138397,2,0,L|87:361,1,32.5
166,320,138544,2,0,L|170:352,1,32.5
249,311,138691,1,0,0:0:0:0:
475,352,138838,6,0,L|470:384,3,32.5
478,341,139132,2,0,L|473:308,1,32.5
395,332,139279,2,0,L|390:299,1,32.5
252,349,139426,6,0,L|247:382,1,32.5
43,45,139720,5,0,0:0:0:0:
124,32,139867,1,0,0:0:0:0:
186,84,140014,2,0,L|181:117,3,32.5
173,126,140309,6,0,L|178:159,1,32.5
254,140,140456,2,0,L|259:173,1,32.5
390,60,140603,6,0,L|395:27,1,32.5
471,46,140750,1,0,0:0:0:0:
101,187,140897,6,0,L|106:220,1,32.5
465,354,141191,6,0,L|470:321,1,32.5
61,68,141485,6,0,L|56:101,3,32.5
46,115,141779,6,0,B|-3:144|5:195|44:235|110:226|153:140|137:70|68:20|68:20|90:63|142:46|142:46|181:31|220:63|220:63|230:20|279:5,1,585
275,3,143397,6,0,B|290:195,1,130
385,381,143544,6,0,P|403:368|400:326,1,68.2499979171754
399,325,144132,6,0,B|461:374|511:290|445:213|375:240|316:285|316:285|243:306|224:352|267:407|323:401|345:343|316:285|316:285|287:204|356:165|339:211|391:166|405:100|377:67|377:67|336:17|256:60|294:133|357:116,1,910.000008678436
165,306,145014,6,0,L|130:317,1,29.2499991073609
0,300,145309,6,0,B|-42:327|-30:366|4:381|55:356|65:315|48:273|51:242|109:215|148:219|179:244|186:275|178:295|154:321,1,341.250003254414
255,269,145603,2,0,B|277:292|250:347|191:348|155:307|178:223|219:197,1,233.999992858887
201,120,145897,6,0,P|245:122|275:145,1,77.999997619629
474,42,146191,2,0,L|437:47,1,29.2499991073609
381,93,146485,6,0,B|354:55|378:3|378:3|326:53|317:113|427:246|424:62|562:184|535:320|472:372|472:372|467:325|450:251|369:232|301:266|290:319|290:319|286:365|332:384,1,910.000008678436
6,42,147367,6,0,L|37:46,1,29.2499991073609
92,108,147661,6,0,B|148:128|182:97|214:44|188:61|213:4|281:6|316:40|316:40|263:72|264:135,1,341.250003254414
266,178,147956,2,0,B|231:182|180:163|163:66|220:95|140:5|101:28,1,233.999992858887
35,45,148250,6,0,P|9:122|29:160,1,77.999997619629
394,365,148544,2,0,L|401:331,1,29.2499991073609
442,263,148838,6,0,B|448:323|395:364|395:364|325:346|286:308|277:229|310:177|310:177|270:209|214:195|181:106|261:18|369:17|416:179|363:112|383:278|508:329|626:239|573:74|463:115|432:172,1,910.000008678436
122,142,149720,6,0,L|115:176,1,29.2499991073609
0,239,150014,6,0,B|39:199|84:211|84:211|124:220|154:186|154:186|175:156|213:139|252:161|252:161|200:148|154:204,1,341.250003254414
167,282,150309,2,0,B|137:309|138:341|168:374|217:368|249:328|261:269|215:218,1,233.999992858887
317,310,150603,6,0,P|317:357|350:403,1,77.999997619629
428,78,150897,2,0,L|437:112,1,29.2499991073609
509,161,151191,6,0,B|482:129|443:131|443:131|364:128|349:172|364:233|416:234|460:202|443:131|443:131|457:63|449:4|372:-40|314:-27|299:27|317:72|350:93|350:93|319:46|226:43|188:92|182:155|210:226|285:223|321:202|319:135|290:116|271:124,1,910.000008678436
351,94,151926,1,0,0:0:0:0:
351,94,152073,1,0,0:0:0:0:
0,346,152367,6,0,P|57:315|116:324,1,77.999997619629
142,201,152514,2,0,P|200:229|226:283,1,77.999997619629
295,249,152661,2,0,P|304:313|275:365,1,77.999997619629
307,336,152808,2,0,P|259:380|200:387,1,77.999997619629
239,381,152956,5,0,0:0:0:0:
295,108,153103,1,0,0:0:0:0:
235,376,153250,5,0,0:0:0:0:
291,103,153397,1,0,0:0:0:0:
421,352,153544,6,0,B|461:347|461:347|512:391,1,77.999997619629
255,36,153838,6,0,P|242:21|246:9,1,29.2499991073609
244,14,154132,6,0,B|292:22|292:22|307:19|307:19|322:26|322:26|447:45,1,113.750001084805
8,230,154426,6,0,L|40:224,1,29.2499991073609
352,207,154720,6,0,B|308:175|264:192|237:231|261:209|228:300|154:281|94:221|103:159|175:86|252:132|234:208,1,341.250003254414
223,68,155014,2,0,B|284:82|297:142|281:176|281:176|286:132|357:103|418:144,1,233.999992858887
427,169,155309,6,0,P|434:225|413:268,1,77.999997619629
153,32,155603,2,0,L|116:25,1,29.2499991073609
1,49,155897,6,0,B|53:93|118:74|153:33|153:33|92:73|65:153|79:219|137:258|168:263|168:263|255:299|212:391|139:389|107:311|168:263|168:263|174:211|210:159|285:164|311:225|270:261|231:267,1,910.000008678436
489,25,156779,6,0,L|455:19,1,29.2499991073609
326,85,157073,6,0,B|303:73|288:32|324:-12|383:-6|427:67|407:124|359:166|359:166|377:134|424:118,1,341.250003254414
512,158,157367,2,0,B|483:187|438:178|438:178|399:163|368:189|368:189|324:231|261:195,1,233.999992858887
240,153,157661,6,0,P|219:212|230:256,1,77.999997619629
4,355,157956,2,0,L|36:349,1,29.2499991073609
186,325,158250,6,0,B|147:308|92:299|54:341|27:380|27:380|82:345|144:279|130:185|130:185|118:141|95:114|53:133|16:155|26:198|62:238|92:220|130:185|130:185|101:104|113:59|165:3|212:-3|251:53|161:61,1,910.000008678436
509,110,159132,6,0,L|473:102,1,29.2499991073609
377,25,159426,6,0,B|321:48|286:102|275:179|344:239|410:254|461:190|452:116|387:93|330:106|315:110,1,341.250003254414
466,23,159720,2,0,B|430:36|393:12|393:12|346:7|315:39|315:39|286:-17|198:-5,1,233.999992858887
164,97,160014,6,0,P|209:93|246:61,1,77.999997619629
0,283,160309,2,0,L|34:287,1,29.2499991073609
143,271,160603,6,0,B|125:326|181:393|273:354|290:295|269:244|269:244|250:205|234:153|277:95|350:88|388:104|428:159|418:219|394:241|368:266|331:274|331:274|291:282|253:316|265:374|265:435|357:409|358:394,1,796.250007593632
402,343,161338,1,0,0:0:0:0:
402,343,161485,1,0,0:0:0:0:
402,343,161632,1,0,0:0:0:0:
510,0,161779,6,0,L|394:5,1,77.999997619629
326,109,161926,2,0,L|248:105,1,77.999997619629
177,49,162073,2,0,L|61:54,1,77.999997619629
83,63,162220,2,0,L|-33:58,1,77.999997619629
15,302,162367,6,0,B|24:253|97:208|144:221|144:221|174:274|254:262,1,233.999992858887
270,318,162661,2,0,B|334:216|335:112|268:67|212:85|184:140|201:194|259:208,1,341.250003254414
117,297,162956,6,0,P|154:268|206:261,1,90.9999972229005
194,255,163397,1,0,0:0:0:0:
192,251,163544,6,0,P|245:258|273:278,1,77.999997619629
264,266,163985,1,0,0:0:0:0:
263,262,164132,6,0,P|293:289|304:316,1,65
303,307,164573,1,0,0:0:0:0:
303,304,164720,6,0,P|304:346|298:362,1,52
169,384,165309,6,0,P|224:269|197:187,1,195.00000743866
217,0,165750,2,0,B|245:40|238:103|208:132|208:132|161:135|136:187,1,195.00000743866
89,334,166191,2,0,B|62:295|62:295|87:222,1,97.50000371933
0,41,166485,6,0,L|117:26,1,97.50000371933
212,12,166779,2,0,L|329:-3,1,97.50000371933
512,182,167073,2,0,B|503:90|424:46|360:68|360:68|396:94|402:133,1,272.999991668701
387,124,167441,1,0,0:0:0:0:
387,124,167514,2,0,P|330:144|313:160,1,68.2499979171754
391,351,167661,6,0,B|443:316|454:245|451:207|410:156|325:187|346:269|380:281,1,272.999991668701
512,326,168029,6,0,B|459:303|415:345|415:345|374:374|317:354|317:354|282:344|243:371|243:371|208:399|161:383|161:383|190:388|228:380|244:331,1,438.750016736985
270,230,168838,6,0,B|210:225|174:302|174:302|187:210|97:175,1,253.499988395691
18,355,169426,2,0,P|63:357|99:321,1,84.4999961318971
32,152,169720,2,0,P|80:150|160:208,1,126.749994197846
146,188,170014,6,0,B|110:139|107:100|147:44|219:74|215:131|202:151|177:156,1,195.00000743866
61,253,170456,2,0,B|90:220|157:206|202:222|202:222|227:249|269:256,1,195.00000743866
310,312,170897,1,0,0:0:0:0:
245,367,171044,6,0,P|271:258|262:157,2,195.00000743866
216,54,171779,2,0,B|235:27|273:23|303:41|318:82|295:128,1,146.250005578995
302,106,172073,2,0,P|308:56|355:23,1,97.50000371933
492,239,172367,6,0,P|457:144|355:93,1,195.00000743866
380,96,172809,1,0,0:0:0:0:
414,223,172956,6,0,P|420:154|380:96,1,143.000004364014
380,96,173397,1,0,0:0:0:0:
350,175,173544,6,0,P|375:137|379:91,1,87.7499973220826
380,83,173838,6,0,P|356:35|276:11,1,116.999996429443
73,35,174132,2,0,B|39:72|39:72|220:41,1,233.999992858887
231,48,174573,1,0,0:0:0:0:
467,74,174720,6,0,L|461:129,1,48.750001859665
186,174,175014,2,0,L|191:125,1,48.750001859665
387,85,175309,5,0,0:0:0:0:
391,95,175456,1,0,0:0:0:0:
374,172,175603,1,0,0:0:0:0:
378,182,175750,1,0,0:0:0:0:
306,30,175897,6,0,L|300:85,1,48.75
292,92,176191,6,0,L|286:147,3,48.75
278,156,176485,1,0,0:0:0:0:
282,166,176632,1,0,0:0:0:0:
332,384,176779,2,0,P|325:323|358:214,1,146.250005578995
335,229,177073,6,0,B|364:170|450:165|486:194|486:194|504:242|562:271,1,224.250004277229
512,120,177367,2,0,B|476:114|453:79|453:79|465:122|425:172,1,149.500002851486
270,384,177661,2,0,P|278:325|238:226,1,149.500002851486
261,224,177882,1,0,0:0:0:0:
261,224,177956,2,0,L|156:204,1,74.7500014257431
73,189,178103,2,0,L|-32:169,1,74.7500014257431
378,249,178250,6,0,B|450:234|450:234|524:284,1,149.500002851486
190,129,178544,2,0,P|183:37|112:95,1,224.250004277229
7,132,178838,2,0,B|45:89|103:102|134:165|98:146|118:195|167:226|209:202,1,224.250004277229
264,173,179132,2,0,P|308:176|338:212,3,74.7500014257431
154,276,179426,6,0,L|-22:296,1,149.500002851486
169,284,179720,1,0,0:0:0:0:
437,47,179867,2,0,L|261:27,1,149.500002851486
452,39,180161,1,0,0:0:0:0:
0,372,180309,5,0,0:0:0:0:
14,370,180382,5,0,0:0:0:0:
74,365,180456,5,0,0:0:0:0:
177,358,180529,5,0,0:0:0:0:
319,348,180603,5,0,0:0:0:0:
319,348,181779,6,0,P|356:349|371:367,1,58.4999982147217
319,348,182367,6,0,L|333:269,1,77.999997619629
156,14,182661,2,0,L|160:45,1,29.2499991073609
13,111,182956,6,0,B|62:59|148:45|220:105|215:177|215:177|208:117|151:80,1,341.250003254414
134,204,183250,2,0,B|155:181|139:116|50:116|29:215|90:275,1,233.999992858887
15,373,183544,6,0,P|70:352|114:368,1,77.999997619629
423,91,183838,2,0,L|426:120,1,29.2499991073609
511,228,184132,6,0,B|464:204|421:249|421:249|444:195|440:147|422:97|335:56|232:88|221:240|290:331|310:320|310:320|329:319|336:245|278:201|204:239|144:245|90:282|106:405|236:387|219:284,1,910.000008678436
58,13,185014,6,0,L|53:42,1,29.2499991073609
0,119,185309,6,0,B|-27:88|10:27|85:35|115:122|60:185|22:214|22:214|51:180|88:179,1,341.250003254414
220,149,185603,2,0,B|163:179|174:253|174:253|148:180|59:197,1,233.999992858887
103,332,185897,6,0,P|61:356|15:344,1,77.999997619629
424,133,186191,2,0,L|430:102,1,29.2499991073609
510,16,186485,6,0,B|490:87|434:133|368:117|301:67|276:9|321:-48|408:-65|465:-24|428:84|405:96|405:96|388:119|345:167|395:216|395:216|459:265|484:375|394:423|300:390|332:320|369:294,1,910.000008678436
0,73,187367,6,0,L|34:67,1,29.2499991073609
218,87,187661,6,0,B|252:107|237:166|179:194|117:169|100:106|106:38|134:-4|166:-17|171:-10|173:14|171:33|159:56|139:68|122:73,1,341.250003254414
46,174,187956,2,0,B|36:148|36:148|94:116|205:167|206:239,1,233.999992858887
240,313,188250,6,0,P|237:354|201:399,1,77.999997619629
285,92,188544,2,0,L|321:84,1,29.2499991073609
512,213,188838,6,0,B|525:186|525:186|427:134|359:200|340:256|348:309|383:351|383:351|353:305|372:258|372:258|305:145|341:41|394:-2|460:-7|460:-7|476:89|376:111,1,910.000008678436
262,103,189573,1,0,0:0:0:0:
262,103,189720,1,0,0:0:0:0:
22,369,190014,6,0,L|45:241,1,77.999997619629
89,0,190161,2,0,L|75:76,1,77.999997619629
35,292,190309,6,0,L|58:164,1,77.999997619629
75,76,190456,2,0,L|61:152,1,77.999997619629
55,183,190603,5,0,0:0:0:0:
325,150,190750,1,0,0:0:0:0:
60,188,190897,5,0,0:0:0:0:
330,155,191044,1,0,0:0:0:0:
63,197,191191,6,0,L|18:187,1,32.5
190,364,191485,5,0,0:0:0:0:
201,368,191559,5,0,0:0:0:0:
272,329,191632,5,0,0:0:0:0:
354,384,191706,5,0,0:0:0:0:
448,307,191779,6,0,L|522:295,1,65
178,110,192073,6,0,L|182:140,1,29.2499991073609
174,249,192367,6,0,B|168:194|201:166|201:166|238:126|227:76|227:76|216:20|267:-13|267:-13|227:25|241:73,1,341.250003254414
181,138,192661,2,0,B|127:113|138:39|138:39|111:116|1:102,1,233.999992858887
0,225,192956,6,0,P|56:222|89:176,1,77.999997619629
276,344,193250,2,0,L|311:352,1,29.2499991073609
442,252,193544,6,0,B|477:207|477:207|368:165|281:192|195:276|184:366|240:423|296:386|329:294|313:194|279:151|227:127|194:122|155:130|125:158|105:198|150:240|170:250|170:250|215:271|227:328|209:377|180:391|98:397,1,910.000008678436
448,42,194426,6,0,L|415:37,1,29.2499991073609
318,73,194720,6,0,B|356:46|355:2|312:-36|279:-34|243:-6|213:21|227:74|309:117|250:53|325:100|339:154|276:204,1,341.250003254414
281,294,195014,2,0,B|314:245|290:198|290:198|280:160|303:125|303:125|326:93|313:46,1,233.999992858887
381,222,195309,6,0,P|434:237|462:287,1,77.999997619629
83,370,195603,2,0,L|92:336,1,29.2499991073609
65,258,195897,6,0,B|26:221|40:137|132:102|199:147|208:236|155:270|155:270|137:283|114:294|97:349|110:379|162:405|217:412|253:362|266:308|254:274|254:274|236:246|251:194|286:166|334:190|349:220|343:256|316:276|294:284|261:301|206:262,1,910.000008678436
23,75,196779,6,0,L|56:71,1,29.2499991073609
0,160,197073,6,0,B|22:93|100:44|207:57|249:89|249:89|270:134|332:163,1,341.250003254414
337,203,197367,2,0,B|373:170|382:75|321:29|321:29|337:65|311:133,1,233.999992858887
308,275,197661,6,0,P|361:278|403:239,1,77.999997619629
30,47,197956,2,0,L|61:50,1,29.2499991073609
193,64,198250,6,0,B|209:10|269:0|269:0|146:-30|121:175|243:89|279:282|189:430|35:381|35:381|-5:365|-67:326|-40:227|17:217|69:262|89:302|44:349,1,910.000008678436
204,372,198985,1,0,0:0:0:0:
204,372,199132,1,0,0:0:0:0:
204,372,199279,1,0,0:0:0:0:
11,55,199426,6,0,P|54:5|101:-5,1,77.999997619629
218,76,199573,2,0,P|283:65|325:87,1,77.999997619629
319,171,199720,2,0,P|375:204|393:249,1,77.999997619629
374,229,199867,2,0,P|395:291|380:336,1,77.999997619629
171,384,200014,6,0,P|163:279|211:134,1,233.999992858887
141,0,200309,6,0,B|190:78|171:188|147:228|147:228|56:196|25:97|46:70,1,341.250003254414
40,250,200603,2,0,B|15:243|-21:250|-35:286|-6:319|16:315|16:315|35:314|65:320|76:370|40:391|13:397|-22:368,1,259.999947102875
122,221,201191,6,0,B|223:210|223:210|175:215|175:215|182:331,1,259.999947102875
333,338,201779,6,0,B|319:376|276:379|250:363|247:318|263:292|314:281|328:294|338:307|338:307|334:349|340:374|378:362,1,259.999947102875
399,228,202367,6,0,B|446:268|446:268|473:218|473:218|446:270|446:270|432:304|451:355,1,259.999947102875
271,183,204426,6,0,P|235:301|235:382,2,173.333298068584
230,75,205309,1,0,0:0:0:0:
