osu file format v14

[General]
AudioFilename: audio.mp3
AudioLeadIn: 0
PreviewTime: 54877
Countdown: 0
SampleSet: Normal
StackLeniency: 0.3
Mode: 0
LetterboxInBreaks: 0
WidescreenStoryboard: 1

[Editor]
DistanceSpacing: 1
BeatDivisor: 4
GridSize: 8
TimelineZoom: 1

[Metadata]
Title:Ignite (cloudfield bootleg)
TitleUnicode:Ignite (cloudfield bootleg)
Artist:Zedd x cloudfield
ArtistUnicode:Zedd x cloudfield
Creator:MerinGD
Version:Insane
Source:NewGrounds
Tags:GeomteryDash
BeatmapID:1859155
BeatmapSetID:889522

[Difficulty]
HPDrainRate:5
CircleSize:4
OverallDifficulty:6
ApproachRate:8.4
SliderMultiplier:1.89999990463257
SliderTickRate:1

[Events]
//Background and Video events
0,0,"BG.png",0,0
//Break Periods
//Storyboard Layer 0 (Background)
//Storyboard Layer 1 (Fail)
//Storyboard Layer 2 (Pass)
//Storyboard Layer 3 (Foreground)
//Storyboard Sound Samples

[TimingPoints]
50,344.827586206897,4,1,0,60,1,0
50,-133.333333333333,4,1,0,60,0,0
15050,-100,4,1,0,60,0,0
19360,-133.333333333333,4,1,0,60,0,0
28843,-100,4,1,0,60,0,0
33153,-133.333333333333,4,1,0,60,0,0
53843,-100,4,1,0,60,0,0
54532,-333.333333333333,4,1,0,60,0,0
55222,-83.3333333333333,4,1,0,60,0,0
76601,-285.714285714284,4,1,0,60,0,0
77291,-133.333333333333,4,1,0,60,0,0
77636,-83.3333333333333,4,1,0,60,0,0
82808,-52.6315789473684,4,1,0,60,0,0
83153,-83.3333333333333,4,1,0,60,0,0

[Colours]
Combo1 : 255,255,204
Combo2 : 255,66,66
Combo3 : 255,157,111
Combo4 : 255,225,225
SliderBorder : 255,177,177

[HitObjects]
198,236,50,6,0,P|195:277|179:317,2,71.2499991416931
249,91,567,2,0,P|266:122|275:173,1,71.2499991416931
281,235,912,2,0,P|289:270|307:301,1,71.2499991416931
386,306,1256,2,0,P|380:268|360:240,1,71.2499991416931
328,173,1601,2,0,P|309:141|302:107,1,71.2499991416931
292,28,1946,5,0,0:0:0:0:
292,28,2291,1,0,0:0:0:0:
223,129,2463,1,0,0:0:0:0:
223,129,2636,1,0,0:0:0:0:
262,240,2808,6,0,B|251:292|251:292|236:312,2,71.2499991416931
277,163,3325,2,0,B|292:102|292:102|306:90,1,71.2499991416931
360,147,3670,2,0,B|405:190|405:190|408:208,1,71.2499991416931
327,229,4015,2,0,B|266:246|266:246|249:240,1,71.2499991416931
225,161,4360,2,0,B|265:129|265:129|267:108,1,71.2499991416931
198,39,4705,5,0,0:0:0:0:
198,39,5050,1,0,0:0:0:0:
348,64,5222,1,0,0:0:0:0:
348,64,5394,1,0,0:0:0:0:
325,84,5567,6,0,L|254:93,1,71.2499991416931
182,165,5912,2,0,L|252:180,1,71.2499991416931
313,267,6256,2,0,L|243:275,1,71.2499991416931
252,180,6601,5,0,0:0:0:0:
252,180,6774,1,0,0:0:0:0:
193,93,6946,2,0,L|271:83,1,71.2499991416931
404,130,7291,1,0,0:0:0:0:
273,173,7463,2,0,L|203:183,2,71.2499991416931
404,130,7981,6,0,P|411:79|400:48,1,71.2499991416931
445,195,8325,2,0,P|476:154|482:121,1,71.2499991416931
451,274,8670,2,0,P|498:254|520:229,1,71.2499991416931
410,344,9015,2,0,P|461:351|491:339,1,71.2499991416931
280,299,9360,5,0,0:0:0:0:
447,277,9532,1,0,0:0:0:0:
346,136,9705,1,0,0:0:0:0:
280,299,9877,2,0,B|318:333|366:324|366:324|323:350,1,142.499998283386
373,88,10394,1,0,0:0:0:0:
343,246,10567,1,0,0:0:0:0:
306,177,10739,6,0,P|357:170|388:181,1,71.2499991416931
241,136,11083,2,0,P|282:105|315:99,1,71.2499991416931
162,130,11428,2,0,P|182:83|207:61,1,71.2499991416931
92,171,11773,2,0,P|85:120|97:90,2,71.2499991416931
118,315,12291,1,0,0:0:0:0:
275,333,12463,2,0,P|309:339|344:331,2,71.2499991416931
118,315,12981,1,0,0:0:0:0:
174,162,13153,6,0,P|228:178|270:160,1,71.2499991416931
347,82,13498,2,0,P|293:98|251:80,1,71.2499991416931
364,173,13843,2,0,P|399:174|432:160,1,71.2499991416931
328,257,14188,2,0,P|293:258|261:244,1,71.2499991416931
354,349,14532,2,0,P|389:350|421:335,1,71.2499991416931
367,253,14877,1,0,0:0:0:0:
314,140,15050,6,0,B|319:33|319:33|228:77,1,189.999990463257
133,203,15739,2,0,B|97:129|97:129|204:134,1,189.999990463257
204,134,16429,1,0,0:0:0:0:
171,253,16601,5,0,0:0:0:0:
288,92,16774,1,0,0:0:0:0:
288,291,16946,1,0,0:0:0:0:
171,130,17118,1,0,0:0:0:0:
361,192,17291,1,0,0:0:0:0:
171,253,17463,1,0,0:0:0:0:
288,92,17636,1,0,0:0:0:0:
322,180,17808,6,0,B|260:229|260:229|262:231|262:231|204:277|204:277|206:271|206:271|162:305,1,189.999990463257
344,108,18325,1,0,0:0:0:0:
132,219,18498,2,0,B|195:171|195:171|192:168|192:168|250:122|250:122|249:129|249:129|269:113,1,189.999990463257
146,295,19015,2,0,P|90:282|54:235,1,94.9999952316285
132,219,19360,6,0,B|134:193|134:193|121:167|121:167|120:133,1,71.2499991416931
213,289,19705,2,0,B|194:302|194:302|186:336|186:336|165:355,2,71.2499991416931
297,235,20222,1,0,0:0:0:0:
213,289,20394,1,0,0:0:0:0:
205,172,20567,5,0,0:0:0:0:
297,235,20739,1,0,0:0:0:0:
202,190,20912,1,0,0:0:0:0:
317,360,21084,1,0,0:0:0:0:
430,203,21256,2,0,P|470:204|424:194,1,142.499998283386
248,104,21774,2,0,P|198:94|156:109,1,71.2499991416931
200,306,22118,5,0,0:0:0:0:
208,168,22291,1,0,0:0:0:0:
325,249,22463,1,0,0:0:0:0:
201,307,22636,2,0,P|152:317|113:292,2,71.2499991416931
212,169,23153,1,0,0:0:0:0:
356,184,23325,6,0,P|363:136|338:97,2,71.2499991416931
352,328,23843,1,0,0:0:0:0:
346,43,24015,2,0,P|299:67|290:152,1,142.499998283386
417,149,24532,2,0,L|348:112,1,71.2499991416931
207,113,24877,6,0,L|138:150,1,71.2499991416931
281,247,25222,1,0,0:0:0:0:
417,149,25394,2,0,L|348:112,1,71.2499991416931
207,113,25739,2,0,L|138:150,1,71.2499991416931
144,222,26084,6,0,P|108:213|81:188,1,71.2499991416931
244,240,26429,2,0,P|280:249|306:273,1,71.2499991416931
210,171,26774,2,0,P|208:123|211:171,1,142.499998283386
216,45,27291,2,0,P|252:54|283:76,1,71.2499991416931
211,146,27636,5,0,0:0:0:0:
211,146,27981,5,0,0:0:0:0:
211,146,28325,5,0,0:0:0:0:
211,146,28670,5,0,0:0:0:0:
224,168,28843,6,0,B|230:220|230:220|225:217|225:217|237:297|237:297|241:291|241:291|251:360,1,189.999990463257
301,197,29532,2,0,B|295:145|295:145|300:148|300:148|281:124|282:106|279:88|288:68|288:68|284:74|284:74|274:5,1,189.999990463257
357,98,30222,1,0,0:0:0:0:
350,317,30394,5,0,0:0:0:0:
329,119,30567,1,0,0:0:0:0:
183,233,30739,1,0,0:0:0:0:
350,317,30912,1,0,0:0:0:0:
327,118,31084,2,0,B|266:101|266:101|202:128,1,94.9999952316285
228,308,31429,2,0,B|289:325|289:325|353:298,1,94.9999952316285
305,222,31774,6,0,L|238:211,1,47.4999976158143
237,245,31946,6,0,L|170:234,1,47.4999976158143
181,198,32118,6,0,L|114:187,1,47.4999976158143
114,220,32291,6,0,L|47:209,1,47.4999976158143
53,178,32463,2,0,P|68:70|132:195,1,332.4999833107
151,182,33153,6,0,P|175:290|277:233,1,249.374996995926
207,225,33843,1,0,0:0:0:0:
187,155,34015,2,0,B|220:147|220:147|249:106,1,71.2499991416931
302,156,34360,2,0,B|280:188|307:239|282:295,1,142.499998283386
205,229,35050,2,0,B|212:196|194:151|225:98|264:74,1,142.499998283386
354,83,35739,6,0,P|373:150|352:218,1,142.499998283386
286,242,36429,1,0,0:0:0:0:
285,69,36602,1,0,0:0:0:0:
258,220,36774,1,0,0:0:0:0:
257,47,36947,1,0,0:0:0:0:
195,200,37118,2,0,B|206:253|188:313|188:313|141:346,1,142.499998283386
272,192,37808,2,0,B|272:128|272:128|268:125|268:125|267:83|267:83|272:80|272:80|272:32,1,142.499998283386
343,219,38498,6,0,P|270:268|195:185,1,213.749997425079
306,54,39187,1,0,0:0:0:0:
272,192,39360,1,0,0:0:0:0:
118,142,39532,1,0,0:0:0:0:
159,23,39705,1,0,0:0:0:0:
89,290,39877,6,0,P|40:217|123:142,1,213.749997425079
293,141,40566,1,0,0:0:0:0:
116,219,40739,1,0,0:0:0:0:
166,65,40911,1,0,0:0:0:0:
259,223,41084,1,0,0:0:0:0:
116,219,41256,6,0,B|111:228|111:228|72:160|112:88,1,142.499998283386
166,51,41774,1,0,0:0:0:0:
187,120,41946,2,0,P|200:216|236:258,1,142.499998283386
276,186,42636,6,0,P|268:117|311:57,1,142.499998283386
376,164,43325,2,0,P|386:126|378:163,1,142.499998283386
327,236,43843,1,0,0:0:0:0:
381,42,44015,1,0,0:0:0:0:
263,198,44187,6,0,P|262:202|266:195,3,35.6249995708466
168,60,44532,6,0,P|164:59|171:63,3,35.6249995708466
102,240,44877,6,0,P|101:244|105:237,3,35.6249995708466
223,374,45222,6,0,P|227:375|220:371,3,35.6249995708466
407,261,45567,6,0,L|444:235,3,35.6249995708466
192,203,45912,6,0,L|155:177,3,35.6249995708466
410,156,46256,6,0,L|447:130,3,35.6249995708466
195,82,46601,6,0,L|158:56,3,35.6249995708466
346,121,46946,6,0,P|337:147|337:176,3,35.6249995708466
327,282,47291,6,0,P|301:273|272:273,3,35.6249995708466
166,263,47636,6,0,P|175:237|175:208,3,35.6249995708466
212,125,47981,6,0,P|186:116|157:116,3,35.6249995708466
270,276,48325,6,0,P|274:275|267:279,3,35.6249995708466
124,104,48670,6,0,P|123:100|127:107,3,35.6249995708466
298,129,49015,6,0,P|302:128|295:132,3,35.6249995708466
97,263,49360,6,0,P|98:267|94:260,3,35.6249995708466
325,343,49705,6,0,L|299:380,3,35.6249995708466
267,128,50050,6,0,L|241:91,3,35.6249995708466
220,346,50394,6,0,L|194:383,3,35.6249995708466
146,131,50739,6,0,L|120:94,3,35.6249995708466
277,300,51084,6,0,L|298:296,30,17.8124997854233
294,296,52463,5,0,0:0:0:0:
280,224,53843,6,0,L|325:266,3,47.4999976158143
248,136,54187,6,0,L|262:75,3,47.4999976158143
192,200,54532,5,0,0:0:0:0:
181,202,54618,1,0,0:0:0:0:
171,206,54704,1,0,0:0:0:0:
161,208,54790,1,0,0:0:0:0:
150,212,54876,1,0,0:0:0:0:
328,160,55222,6,0,B|358:150|358:150|357:147|357:147|406:133|406:133|406:136|406:136|450:124,1,113.999990798951
329,324,55567,2,0,B|298:333|298:333|300:337|300:337|251:351|251:351|250:347|250:347|207:360,1,113.999990798951
416,224,55912,1,0,0:0:0:0:
232,272,56084,1,0,0:0:0:0:
288,88,56256,1,0,0:0:0:0:
112,88,56429,2,0,P|80:144|80:208,2,113.999990798951
288,88,56946,5,0,0:0:0:0:
435,191,57118,2,0,P|429:247|400:296,1,113.999990798951
216,280,57463,1,0,0:0:0:0:
252,101,57636,1,0,0:0:0:0:
180,293,57808,1,0,0:0:0:0:
180,126,57981,6,0,P|226:173|289:166,1,113.999990798951
331,105,58325,1,0,0:0:0:0:
310,28,58498,2,0,P|366:34|401:76,1,113.999990798951
251,98,58842,1,0,0:0:0:0:
329,242,59015,1,0,0:0:0:0:
170,231,59187,6,0,B|204:213|204:213|243:209|243:209|288:173,1,113.999990798951
445,93,59532,2,0,P|406:51|343:48,1,113.999990798951
347,190,59877,2,0,B|312:207|312:207|274:212|274:212|229:248,1,113.999990798951
162,297,60222,1,0,0:0:0:0:
300,81,60394,1,0,0:0:0:0:
147,252,60567,1,0,0:0:0:0:
317,67,60739,6,0,B|321:112|321:112|326:116|326:116|327:162|327:162|322:166|322:166|326:182,1,113.999990798951
295,349,61084,1,0,0:0:0:0:
240,182,61256,2,0,B|236:137|236:137|231:133|231:133|230:87|230:87|235:83|235:83|231:67,1,113.999990798951
415,123,61601,2,0,B|419:167|419:167|424:171|424:171|425:218|425:218|420:221|420:221|424:237,1,113.999990798951
314,221,61946,6,0,P|262:259|197:252,1,113.999990798951
340,82,62291,2,0,P|392:44|457:51,1,113.999990798951
257,138,62636,2,0,P|219:86|226:21,1,113.999990798951
361,328,62981,1,0,0:0:0:0:
319,190,63153,1,0,0:0:0:0:
461,226,63325,1,0,0:0:0:0:
363,328,63498,6,0,B|292:349|292:349|256:324,1,113.999990798951
94,247,63843,1,0,0:0:0:0:
266,181,64015,2,0,B|337:160|337:160|369:182,1,113.999990798951
363,328,64360,2,0,B|292:349|292:349|256:324,1,113.999990798951
144,184,64705,6,0,B|123:113|123:113|145:80,1,113.999990798951
208,228,65050,2,0,P|154:263|90:241,1,113.999990798951
144,184,65394,5,0,0:0:0:0:
144,184,65739,1,0,0:0:0:0:
224,264,65912,5,0,0:0:0:0:
224,264,65998,5,0,0:0:0:0:
224,264,66084,5,0,0:0:0:0:
224,264,66170,5,0,0:0:0:0:
224,264,66256,6,0,B|214:294|214:294|211:293|211:293|197:342|197:342|200:342|200:342|188:386,1,113.999990798951
388,265,66601,2,0,B|397:234|397:234|401:236|401:236|415:187|415:187|411:186|411:186|424:143,1,113.999990798951
288,352,66946,1,0,0:0:0:0:
336,168,67118,1,0,0:0:0:0:
152,224,67290,1,0,0:0:0:0:
152,48,67463,2,0,P|208:16|272:16,2,113.999990798951
152,224,67980,5,0,0:0:0:0:
255,371,68152,2,0,P|311:365|360:336,1,113.999990798951
344,152,68497,1,0,0:0:0:0:
165,188,68670,1,0,0:0:0:0:
357,116,68842,1,0,0:0:0:0:
190,116,69015,6,0,P|237:162|230:225,1,113.999990798951
169,267,69359,1,0,0:0:0:0:
92,246,69532,2,0,P|98:302|140:337,1,113.999990798951
162,187,69876,1,0,0:0:0:0:
306,265,70049,1,0,0:0:0:0:
295,106,70221,6,0,B|277:140|277:140|273:179|273:179|237:224,1,113.999990798951
157,381,70566,2,0,P|115:342|112:279,1,113.999990798951
254,283,70911,2,0,B|271:248|271:248|276:210|276:210|312:165,1,113.999990798951
361,98,71256,1,0,0:0:0:0:
145,236,71428,1,0,0:0:0:0:
316,83,71601,1,0,0:0:0:0:
131,253,71773,6,0,B|176:257|176:257|180:262|180:262|226:263|226:263|230:258|230:258|246:262,1,113.999990798951
413,231,72118,1,0,0:0:0:0:
246,176,72290,2,0,B|201:172|201:172|197:167|197:167|151:166|151:166|147:171|147:171|131:167,1,113.999990798951
187,351,72635,2,0,B|231:355|231:355|235:360|235:360|282:361|282:361|285:356|285:356|301:360,1,113.999990798951
285,250,72980,6,0,P|323:198|316:133,1,113.999990798951
146,276,73325,2,0,P|108:328|115:393,1,113.999990798951
202,193,73670,2,0,P|150:155|85:162,1,113.999990798951
392,297,74015,1,0,0:0:0:0:
254,255,74187,1,0,0:0:0:0:
290,397,74359,1,0,0:0:0:0:
392,299,74532,6,0,B|413:228|413:228|388:192,1,113.999990798951
311,30,74877,1,0,0:0:0:0:
245,202,75049,2,0,B|224:273|224:273|246:305,1,113.999990798951
392,299,75394,2,0,B|413:228|413:228|388:192,1,113.999990798951
248,80,75739,6,0,B|177:59|177:59|144:81,1,113.999990798951
292,144,76084,2,0,P|327:90|305:26,1,113.999990798951
248,80,76428,5,0,0:0:0:0:
263,250,76601,2,0,L|215:224,1,49.8749959745409
181,233,76946,2,0,L|158:216,3,16.6249986581803
168,188,77291,6,0,P|159:173|217:114,1,106.87499871254
237,137,77636,2,0,B|206:146|206:146|208:150|208:150|159:164|159:164|158:160|158:160|115:173,1,113.999990798951
294,119,77981,1,0,0:0:0:0:
186,274,78153,1,0,0:0:0:0:
242,90,78325,1,0,0:0:0:0:
400,88,78498,2,0,P|432:144|432:208,2,113.999990798951
224,88,79015,5,0,0:0:0:0:
77,191,79187,2,0,P|83:247|112:296,1,113.999990798951
296,280,79532,1,0,0:0:0:0:
260,101,79705,1,0,0:0:0:0:
332,293,79877,1,0,0:0:0:0:
332,126,80050,6,0,P|286:173|223:166,1,113.999990798951
181,105,80394,1,0,0:0:0:0:
202,28,80567,2,0,P|146:34|111:76,1,113.999990798951
261,98,80911,1,0,0:0:0:0:
183,242,81084,1,0,0:0:0:0:
342,231,81256,6,0,B|308:213|308:213|269:209|269:209|224:173,1,113.999990798951
67,93,81601,2,0,P|106:51|169:48,1,113.999990798951
165,190,81946,2,0,B|200:207|200:207|238:212|238:212|283:248,1,113.999990798951
350,297,82291,1,0,0:0:0:0:
212,81,82463,1,0,0:0:0:0:
365,252,82636,1,0,0:0:0:0:
197,95,82808,2,0,P|104:195|156:324,1,270.749979180337
217,349,83153,1,0,0:0:0:0:
272,182,83325,2,0,B|276:137|276:137|281:133|281:133|282:87|282:87|277:83|277:83|281:67,1,113.999990798951
97,123,83670,2,0,B|93:167|93:167|88:171|88:171|87:218|87:218|92:221|92:221|88:237,1,113.999990798951
198,221,84015,6,0,P|250:259|315:252,1,113.999990798951
172,82,84360,2,0,P|120:44|55:51,1,113.999990798951
255,138,84705,2,0,P|293:86|286:21,1,113.999990798951
151,328,85050,1,0,0:0:0:0:
193,190,85222,1,0,0:0:0:0:
51,226,85394,1,0,0:0:0:0:
149,328,85567,6,0,B|220:349|220:349|256:324,1,113.999990798951
418,247,85912,1,0,0:0:0:0:
246,181,86084,2,0,B|175:160|175:160|143:182,1,113.999990798951
149,328,86429,2,0,B|220:349|220:349|256:324,1,113.999990798951
368,184,86774,6,0,B|389:113|389:113|367:80,1,113.999990798951
304,228,87119,2,0,P|358:263|422:241,1,113.999990798951
368,184,87636,5,0,0:0:0:0:
335,220,87808,1,0,0:0:0:0:
318,185,87981,1,0,0:0:0:0:
290,217,88153,1,0,0:0:0:0:
256,192,89705,12,0,91083,0:0:0:0:
