osu file format v14

[General]
AudioFilename: audio.mp3
AudioLeadIn: 0
PreviewTime: 151842
Countdown: 0
SampleSet: None
StackLeniency: 0.7
Mode: 0
LetterboxInBreaks: 0
WidescreenStoryboard: 0

[Editor]
DistanceSpacing: 2
BeatDivisor: 4
GridSize: 8
TimelineZoom: 1.4

[Metadata]
Title:Stay
TitleUnicode:Stay
Artist:Zedd feat. Alessia Cara
ArtistUnicode:Zedd feat. Alessia Cara
Creator:-scy-
Version:Stay
Source:
Tags:
BeatmapID:1451860
BeatmapSetID:685913

[Difficulty]
HPDrainRate:4
CircleSize:4
OverallDifficulty:5
ApproachRate:9
SliderMultiplier:2
SliderTickRate:1

[Events]
//Background and Video events
0,0,"50882_anime_scenery_rocket_launch_anime_scenery.jpg",0,0
//Break Periods
//Storyboard Layer 0 (Background)
//Storyboard Layer 1 (Fail)
//Storyboard Layer 2 (Pass)
//Storyboard Layer 3 (Foreground)
//Storyboard Sound Samples

[TimingPoints]
28901,588.235294117647,4,1,0,100,1,0
28901,-66.6666666666667,4,1,0,100,0,0
32430,-100,4,1,0,100,0,0
33018,-66.6666666666667,4,1,0,100,0,0
37136,-100,4,1,0,100,0,0
37724,-66.6666666666667,4,1,0,100,0,0
38312,-100,4,1,0,100,0,0
47430,-66.6666666666667,4,1,0,100,0,0
47724,-100,4,1,0,100,0,0
48606,-57.1428571428571,4,1,0,100,0,0
49195,-100,4,1,0,100,0,0
50077,-54.054054054054,4,1,0,100,0,0
50371,-100,4,1,0,100,0,0
50959,-50,4,1,0,100,0,0
58606,-100,4,1,0,100,0,0
58901,-50,4,1,0,100,0,0
61253,-100,4,1,0,100,0,0
61548,-50,4,1,0,100,0,0
66548,-100,4,1,0,100,0,1
75959,-200,4,1,0,100,0,1
76106,-50,4,1,0,100,0,1
76253,-100,4,1,0,100,0,1
76548,-50,4,1,0,100,0,1
85371,-100,4,1,0,100,0,0
144195,-100,4,1,0,100,0,1
163018,-100,4,1,0,100,0,0

[HitObjects]
208,80,28901,5,0,0:0:0:0:
304,120,29048,1,0,0:0:0:0:
227,171,29195,1,0,0:0:0:0:
320,208,29342,1,0,0:0:0:0:
291,286,29489,2,0,P|176:278|158:250,1,150.000005722046
116,133,30077,5,0,0:0:0:0:
198,255,30224,1,0,0:0:0:0:
211,109,30371,1,0,0:0:0:0:
112,216,30518,1,0,0:0:0:0:
259,189,30665,2,0,P|336:210|360:282,1,150.000005722046
252,268,31253,5,0,0:0:0:0:
352,320,31401,1,0,0:0:0:0:
280,344,31548,1,0,0:0:0:0:
320,240,31695,1,0,0:0:0:0:
264,192,31842,2,0,P|275:112|341:55,1,150.000005722046
146,67,32430,6,0,B|118:128|45:162|45:162|100:214,1,200
321,159,33606,6,0,L|240:155,1,75.0000028610231
299,253,33901,2,0,L|404:273,1,75.0000028610231
471,293,34195,1,0,0:0:0:0:
346,357,34489,1,0,0:0:0:0:
153,340,34783,6,0,P|209:277|241:295,1,75.0000028610231
331,288,35077,2,0,P|275:236|291:205,1,75.0000028610231
282,144,35371,1,0,0:0:0:0:
133,218,35665,1,0,0:0:0:0:
258,205,35959,6,0,L|293:278,1,75.0000028610231
190,71,36253,2,0,L|234:161,1,75.0000028610231
159,298,36548,2,0,L|242:162,1,150.000005722046
275,85,37136,6,0,B|355:101|338:191|338:191|403:213,1,200
162,120,38312,6,0,P|237:185|237:204,1,100
285,292,38753,2,0,L|260:234,1,50
385,112,39195,6,0,L|323:149,1,50
271,177,39489,2,0,P|188:197|152:167,1,100
113,128,39930,1,0,0:0:0:0:
77,211,40077,2,0,L|111:315,1,100
274,351,40665,6,0,L|412:363,2,100
391,291,42136,6,0,P|315:238|315:226,1,100
209,124,42724,2,0,B|217:191|217:191|276:194,2,100
347,105,44489,6,0,L|252:175,1,100
133,246,45077,2,0,B|76:291|76:291|104:333,2,100
155,135,46548,5,0,0:0:0:0:
275,268,46695,1,0,0:0:0:0:
244,138,46842,1,0,0:0:0:0:
190,269,46989,1,0,0:0:0:0:
331,141,47136,1,0,0:0:0:0:
363,273,47430,6,0,L|194:335,1,150.000005722046
139,121,48606,6,0,P|111:275|159:303,2,175.00000166893
254,190,49783,5,0,0:0:0:0:
265,325,50077,2,0,B|313:385|351:249|515:336,1,184.999999294281
372,48,50959,6,0,B|359:147|359:147|454:120|454:120|401:53,2,200
257,193,52136,5,0,0:0:0:0:
122,53,52430,2,0,P|118:146|124:53,1,200
257,193,53312,5,0,0:0:0:0:
65,271,53606,2,0,L|289:353,1,200
335,258,54489,5,0,0:0:0:0:
441,347,54783,2,0,B|514:272|352:215|517:133,1,200
352,112,55959,5,0,0:0:0:0:
264,160,56106,1,0,0:0:0:0:
336,192,56253,1,0,0:0:0:0:
278,52,56401,1,0,0:0:0:0:
208,112,56548,1,0,0:0:0:0:
76,253,56842,6,0,B|116:362|226:362|331:345,1,200
351,341,57430,1,0,0:0:0:0:
180,239,57724,6,0,P|162:129|242:78,2,200
232,168,58606,6,0,L|260:179,4,25
358,210,59195,5,0,0:0:0:0:
256,262,59489,2,0,P|121:265|74:198,1,200
61,72,60371,5,0,0:0:0:0:
61,72,60665,2,0,P|179:148|298:118,1,200
178,60,61253,6,0,L|196:29,4,25
327,120,61842,6,0,P|434:166|381:269,1,200
337,202,62430,1,0,0:0:0:0:
337,202,62724,6,0,B|265:271|265:271|188:172,2,200
256,192,63901,12,0,65959,0:0:0:0:
225,110,66548,6,0,P|272:176|313:173,2,100
178,54,67283,5,0,0:0:0:0:
124,199,67430,2,0,L|147:139,1,50
73,339,67724,2,0,L|99:266,1,50
197,333,68018,5,0,0:0:0:0:
297,338,68165,1,0,0:0:0:0:
371,271,68312,1,0,0:0:0:0:
182,271,68459,5,0,0:0:0:0:
282,276,68606,1,0,0:0:0:0:
356,209,68753,1,0,0:0:0:0:
439,220,68900,6,0,P|474:302|445:333,1,100
396,352,69342,1,0,0:0:0:0:
321,328,69489,1,0,0:0:0:0:
247,358,69636,1,0,0:0:0:0:
179,328,69783,1,0,0:0:0:0:
106,355,69930,1,0,0:0:0:0:
117,282,70077,6,0,P|135:249|111:172,1,100
52,75,70518,6,0,L|18:162,1,50
272,80,70812,2,0,L|276:171,1,50
219,246,71106,1,0,0:0:0:0:
453,187,71253,6,0,L|325:219,1,100
253,186,71695,1,0,0:0:0:0:
169,227,71842,1,0,0:0:0:0:
73,190,71989,1,0,0:0:0:0:
50,93,72136,1,0,0:0:0:0:
124,23,72283,1,0,0:0:0:0:
174,114,72430,6,0,L|262:71,2,50
114,178,72871,1,0,0:0:0:0:
122,273,73018,1,0,0:0:0:0:
192,330,73165,1,0,0:0:0:0:
283,313,73312,1,0,0:0:0:0:
333,240,73459,1,0,0:0:0:0:
296,155,73606,6,0,P|281:79|325:45,1,100
400,90,74783,5,0,0:0:0:0:
224,158,74930,1,0,0:0:0:0:
444,220,75077,5,0,0:0:0:0:
222,81,75224,1,0,0:0:0:0:
265,240,75371,6,0,L|331:257,1,50
111,201,75665,6,0,L|146:258,1,50
428,356,75959,2,0,L|383:349,1,25
138,318,76253,2,0,L|243:336,1,100
313,348,76695,5,0,0:0:0:0:
350,250,76842,1,0,0:0:0:0:
278,275,76989,1,0,0:0:0:0:
236,191,77136,1,0,0:0:0:0:
204,265,77283,1,0,0:0:0:0:
47,201,77430,6,0,L|181:198,1,100
170,89,77724,2,0,L|303:73,1,100
317,172,77871,2,0,L|435:153,1,100
496,182,78165,1,0,0:0:0:0:
472,262,78312,6,0,P|335:288|289:239,1,200
302,318,78753,6,0,P|124:275|85:345,1,200
211,321,79195,6,0,P|210:172|265:144,2,200
