osu file format v14

[General]
AudioFilename: Zedd - Stay the Night (feat. Hayley Williams of Paramore).mp3
AudioLeadIn: 0
PreviewTime: 75749
Countdown: 0
SampleSet: Soft
StackLeniency: 0.7
Mode: 0
LetterboxInBreaks: 0
WidescreenStoryboard: 0

[Editor]
Bookmarks: 73991,83366,87116,88991,92741,120865,122740,137740,145239,160239,163052,163989,180864,190239,193988
DistanceSpacing: 1.2
BeatDivisor: 12
GridSize: 4
TimelineZoom: 2.999999

[Metadata]
Title:Stay The Night feat. Hayley Williams
TitleUnicode:Stay The Night feat. Hayley Williams
Artist:Zedd
ArtistUnicode:Zedd
Creator:Mao
Version:Insane
Source:
Tags:true colors house english edm paramore dance electronic Anton Zaslavski
BeatmapID:830354
BeatmapSetID:379313

[Difficulty]
HPDrainRate:7
CircleSize:4
OverallDifficulty:7
ApproachRate:8.5
SliderMultiplier:1.8
SliderTickRate:2

[Events]
//Background and Video events
0,0,"bg.jpg",0,0
Video,378,"stay.avi"
//Break Periods
//Storyboard Layer 0 (Background)
//Storyboard Layer 1 (Fail)
//Storyboard Layer 2 (Pass)
//Storyboard Layer 3 (Foreground)
//Storyboard Layer 4 (Overlay)
//Storyboard Sound Samples

[TimingPoints]
868,468.75,4,2,0,30,1,0
868,-147.058823529412,4,2,0,30,0,0
15867,-120.481927710843,4,2,0,40,0,0
30863,-200,4,2,0,20,0,0
36257,-200,4,2,0,30,0,0
45867,-111.111111111111,4,2,1,50,0,0
53358,-100,4,2,1,50,0,0
57118,-100,4,2,1,60,0,0
60388,-80,4,2,0,60,0,0
60868,-86.9565217391304,4,2,0,70,0,1
66725,-71.4285714285714,4,2,0,70,0,1
66960,-86.9565217391304,4,2,0,70,0,1
73991,-111.111111111111,4,2,0,70,0,1
74460,-100,4,2,0,70,0,1
74928,-90.9090909090909,4,2,0,70,0,1
75397,-83.3333333333333,4,2,0,70,0,1
75750,-86.9565217391304,4,2,0,50,0,0
75868,-80,4,2,0,70,0,1
81725,-66.6666666666667,4,2,0,70,0,1
81960,-80,4,2,0,70,0,1
90868,-111.111111111111,4,2,0,50,0,0
107740,-100,4,2,0,50,0,0
122740,-200,4,2,0,30,0,0
137740,-111.111111111111,4,2,1,50,0,0
145239,-100,4,2,0,50,0,0
158364,-90.9090909090909,4,2,0,60,0,0
161177,-76.9230769230769,4,2,0,60,0,0
163052,-83.3333333333333,4,2,0,60,0,0
167270,-80,4,2,0,60,0,0
167743,-86.9565217391304,4,2,0,70,0,1
173598,-71.4285714285714,4,2,0,70,0,1
173833,-86.9565217391304,4,2,0,70,0,1
180864,-111.111111111111,4,2,0,70,0,1
181332,-100,4,2,0,70,0,1
181801,-90.9090909090909,4,2,0,70,0,1
182270,-83.3333333333333,4,2,0,70,0,1
182625,-86.9565217391304,4,2,0,70,0,0
182743,-80,4,2,0,70,0,1
188598,-71.4285714285714,4,2,0,70,0,1
188832,-80,4,2,0,70,0,1
197743,-129.87012987013,4,2,0,35,0,0
212504,-129.87012987013,4,2,0,5,0,0

[Colours]
Combo1 : 255,0,77
Combo2 : 53,70,115
Combo3 : 255,96,0
Combo4 : 129,108,78
Combo5 : 0,249,168
Combo6 : 98,145,140

[HitObjects]
72,64,868,5,2,0:0:0:0:
72,64,1102,2,0,L|213:47,1,122.40000074707
284,37,1805,2,0,P|243:66|222:158,1,122.40000074707,2|0,0:0|0:0,0:0:0:0:
257,215,2508,6,0,P|270:260|261:296,1,61.2000003735352,2|0,0:0|0:0,0:0:0:0:
243,362,2977,1,0,0:0:0:0:
361,230,3211,2,0,P|374:198|394:83,1,122.40000074707,2|0,0:0|0:0,0:0:0:0:
393,112,4149,1,0,0:0:0:0:
480,334,4618,5,2,0:0:0:0:
480,334,4852,2,0,L|345:357,1,122.40000074707
268,368,5555,1,2,0:0:0:0:
268,368,6024,1,0,0:0:0:0:
196,235,6258,6,0,P|156:237|134:321,1,122.40000074707,2|0,0:0|0:0,0:0:0:0:
54,362,6961,2,0,P|45:320|37:221,2,122.40000074707,2|0|0,0:0|0:0|0:0,0:0:0:0:
39,79,8368,5,2,0:0:0:0:
39,79,8602,2,0,P|73:65|145:117,1,122.40000074707
168,193,9305,2,0,P|226:225|284:213,1,122.40000074707,2|0,0:0|0:0,0:0:0:0:
362,177,10008,2,0,P|372:226|361:263,1,61.2000003735352,2|0,0:0|0:0,0:0:0:0:
284,129,10477,5,0,0:0:0:0:
361,90,10711,1,2,0:0:0:0:
361,90,11180,1,0,0:0:0:0:
479,331,11649,2,0,B|431:343|439:304|390:317,1,91.8000005603027,2|0,0:0|0:0,0:0:0:0:
380,330,12118,6,0,P|345:316|340:233,1,122.40000074707,4|0,0:0|0:0,0:0:0:0:
399,176,12821,2,0,P|364:152|315:84,1,122.40000074707,2|0,0:0|0:0,0:0:0:0:
219,23,13524,2,0,P|232:77|186:194,2,183.600001120605,2|2|2,0:0|0:0|0:0,0:0:0:0:
219,23,15399,1,0,0:0:0:0:
112,269,15868,5,2,0:3:0:0:
112,269,16102,2,0,L|267:290,1,149.40000216568,2|2,0:0|0:3,0:0:0:0:
337,370,16805,2,0,P|352:321|439:284,1,149.40000216568,2|2,0:0|0:3,0:0:0:0:
488,184,17547,2,0,L|454:194,2,24.9000003609467,0|2|2,0:3|0:3|0:3,0:3:0:0:
502,167,17743,6,0,P|498:130|485:88,1,74.70000108284
397,27,18211,1,2,0:0:0:0:
381,138,18446,2,0,P|357:173|255:179,1,149.40000216568,2|0,0:3|0:0,0:0:0:0:
159,126,19149,1,2,0:3:0:0:
60,72,19383,2,0,L|53:38,2,24.9000003609467,0|2|2,0:3|0:3|0:3,0:3:0:0:
48,89,19618,5,4,0:0:0:0:
67,199,19852,2,0,L|87:354,1,149.40000216568,2|2,0:0|0:3,0:0:0:0:
193,381,20555,2,0,P|241:380|290:296,1,149.40000216568,2|2,0:0|0:3,0:0:0:0:
211,221,21258,2,0,L|180:228,2,24.9000003609467,0|2|2,0:0|0:3|0:3,0:0:0:0:
233,202,21493,6,0,B|310:182|298:245|378:224,1,149.40000216568,2|0,0:0|0:0,0:0:0:0:
450,141,22196,2,0,P|480:194|465:287,1,149.40000216568,2|2,0:3|0:3,0:0:0:0:
394,342,22899,2,0,L|385:374,2,24.9000003609467,2|0|0,0:3|0:3|0:3,0:3:0:0:
361,353,23133,2,0,L|352:385,2,24.9000003609467,2|0|0,0:3|0:3|0:3,0:3:0:0:
336,364,23368,37,4,0:0:0:0:
223,310,23602,2,0,P|195:265|228:179,1,149.40000216568,2|2,0:0|0:3,0:0:0:0:
262,84,24305,2,0,P|237:130|146:145,1,149.40000216568,2|2,0:0|0:3,0:0:0:0:
28,87,25047,2,0,L|21:53,2,24.9000003609467,0|2|2,0:0|0:3|0:3,0:0:0:0:
11,114,25243,6,0,P|28:151|35:185,1,74.70000108284,2|0,0:0|0:0,0:0:0:0:
93,258,25711,2,0,P|80:297|76:330,1,74.70000108284,2|2,0:0|0:3,0:0:0:0:
179,316,26180,2,0,P|231:309|286:227,1,149.40000216568,2|2,0:0|0:3,0:0:0:0:
259,136,26922,2,0,L|246:98,2,24.9000003609467,0|2|2,0:0|0:3|0:3,0:0:0:0:
274,150,27118,6,0,P|335:154|398:97,1,149.40000216568,4|0,0:0|0:0,0:0:0:0:
464,7,27821,2,0,P|471:80|492:164,1,149.40000216568,2|0,0:3|0:0,0:0:0:0:
427,296,28524,6,0,P|383:319|344:304,1,74.70000108284,2|2,0:3|0:3,0:0:0:0:
342,302,28836,2,0,L|332:340,2,24.9000003609467,0|0|0,3:0|3:0|3:0,3:0:0:0:
254,244,29227,2,0,P|181:244|130:296,1,149.40000216568,2|2,0:0|0:3,0:0:0:0:
40,232,29930,5,2,0:0:0:0:
38,217,30399,1,2,0:3:0:0:
37,201,30868,6,0,L|52:66,1,135,4|0,0:1|0:0,0:0:0:0:
180,23,32039,1,0,0:0:0:0:
269,123,32508,2,0,P|313:143|398:92,1,135,4|0,0:0|0:0,0:0:0:0:
425,42,33446,1,6,0:0:0:0:
138,323,34618,6,0,P|178:341|222:335,1,90,4|0,0:0|0:0,0:0:0:0:
295,303,35321,2,0,P|339:297|380:315,1,90
454,211,36258,2,0,L|431:65,1,135,4|2,0:0|0:0,0:0:0:0:
418,0,37196,1,6,0:0:0:0:
84,46,38368,5,6,0:0:0:0:
154,64,38602,1,2,0:0:0:0:
110,257,39071,5,0,0:0:0:0:
128,187,39305,1,2,0:0:0:0:
321,231,39774,5,0,0:0:0:0:
251,213,40008,1,2,0:0:0:0:
295,20,40477,5,0,0:0:0:0:
277,90,40711,1,2,0:0:0:0:
273,289,41180,1,2,0:0:0:0:
278,296,41649,1,2,0:0:0:0:
281,301,42118,6,0,P|351:333|410:334,2,135,4|0|4,0:2|0:0|0:0,0:0:0:0:
88,47,44461,2,0,L|74:141,1,90,2|2,0:0|0:0,0:0:0:0:
138,327,45399,1,8,0:1:0:0:
138,326,45868,22,0,P|212:304|274:352,1,161.999995056153,4|8,0:0|0:0,0:0:0:0:
368,267,46571,1,2,0:0:0:0:
339,252,46688,1,0,0:0:0:0:
318,227,46805,1,8,0:0:0:0:
307,197,46922,1,0,0:0:0:0:
308,165,47039,1,0,0:0:0:0:
435,146,47274,1,8,0:0:0:0:
284,21,47508,6,0,P|268:77|182:131,1,161.999995056153,4|0,0:0|0:0,0:0:0:0:
65,52,48211,1,10,0:0:0:0:
49,228,48446,1,2,0:0:0:0:
49,228,48563,1,0,0:0:0:0:
49,228,48680,2,0,L|54:312,1,80.9999975280763,10|0,0:0|0:0,0:0:0:0:
131,375,49149,1,10,0:0:0:0:
183,290,49383,1,0,0:0:0:0:
340,357,49618,6,0,P|378:370|456:295,1,161.999995056153,12|8,0:0|0:0,0:0:0:0:
341,214,50321,1,0,0:0:0:0:
372,208,50438,1,0,0:0:0:0:
404,202,50555,1,8,0:0:0:0:
436,196,50672,1,0,0:0:0:0:
468,191,50789,1,2,0:0:0:0:
380,84,51024,1,8,0:0:0:0:
263,264,51258,6,0,P|212:255|147:154,1,161.999995056153,4|0,0:0|0:0,0:0:0:0:
264,146,51961,1,10,0:0:0:0:
125,306,52196,1,2,0:0:0:0:
125,306,52313,1,0,0:0:0:0:
125,306,52430,2,0,L|42:297,1,80.9999975280763,10|0,0:0|0:0,0:0:0:0:
230,365,52899,2,0,L|313:374,1,80.9999975280763,10|0,0:0|0:0,0:0:0:0:
480,289,53368,38,0,P|430:309|385:296,1,90,4|2,1:2|0:0,0:0:0:0:
351,244,53719,2,0,L|374:153,1,90,0|0,1:0|1:0,0:0:0:0:
333,96,54071,2,0,P|289:89|248:109,1,90,0|2,1:0|1:2,0:0:0:0:
176,236,54539,1,0,1:0:0:0:
134,271,54657,1,0,1:0:0:0:
79,264,54774,1,2,0:2:0:0:
46,221,54891,1,0,1:0:0:0:
55,167,55008,1,2,1:2:0:0:
185,223,55243,6,0,L|199:322,1,90,0|2,1:0|0:0,0:0:0:0:
269,268,55594,2,0,L|323:351,1,90,0|0,1:0|1:0,0:0:0:0:
364,273,55946,2,0,L|448:325,1,90,0|2,1:0|1:2,0:0:0:0:
489,163,56414,1,0,0:0:0:0:
473,179,56532,1,0,0:0:0:0:
452,184,56649,1,10,0:0:0:0:
431,177,56766,1,0,0:0:0:0:
417,160,56883,1,2,1:2:0:0:
416,138,57000,1,2,0:0:0:0:
436,98,57118,5,4,1:2:0:0:
398,123,57235,1,0,1:0:0:0:
355,135,57352,1,0,1:0:0:0:
311,127,57469,1,0,1:0:0:0:
276,100,57586,1,2,1:2:0:0:
240,73,57703,1,0,1:0:0:0:
196,65,57821,1,2,1:2:0:0:
153,77,57938,1,0,1:0:0:0:
116,102,58055,2,0,L|106:150,1,45,0|0,1:0|0:0,0:0:0:0:
20,210,58289,2,0,L|30:254,1,45,0|0,1:0|0:0,0:0:0:0:
123,367,58524,5,4,1:2:0:0:
131,312,58641,1,0,0:0:0:0:
169,271,58758,1,2,1:2:0:0:
223,258,58875,1,0,0:0:0:0:
275,277,58993,38,0,L|281:310,7,22.5,2|0|0|0|0|0|0|0,0:0|0:0|0:0|0:0|0:0|0:0|0:0|0:0,0:0:0:0:
355,314,59461,2,0,L|360:346,7,22.5,2|0|0|0|0|0|0|0,0:0|0:0|0:0|0:0|0:0|0:0|0:0|0:0,0:0:0:0:
434,350,59930,2,0,L|439:382,7,22.5,2|0|2|0|2|0|2|0,0:0|0:0|0:0|0:0|0:0|0:0|0:0|0:0,0:0:0:0:
497,300,60399,6,2,B|468:274|440:270|440:270|403:224|439:164,1,168.75,8|0,1:1|0:0,0:0:0:0:
479,112,60868,6,0,L|364:130,1,103.500001974106,4|0,1:0|0:0,0:0:0:0:
282,65,61336,2,0,L|179:49,1,103.500001974106,0|0,1:0|0:0,0:0:0:0:
10,28,61805,1,0,1:0:0:0:
8,207,62039,2,0,P|5:234|17:264,1,51.7500009870529,2|0,0:1|0:0,0:0:0:0:
58,118,62274,1,0,1:0:0:0:
107,299,62508,6,0,P|153:334|282:277,1,207.000003948212,2|0,0:1|0:0,0:0:0:0:
186,237,63211,1,2,1:0:0:0:
347,147,63446,2,0,P|362:239|373:358,1,207.000003948212,2|2,0:1|0:0,0:0:0:0:
475,224,64149,2,0,P|467:173|462:121,1,103.500001974106,2|0,1:0|0:0,0:0:0:0:
314,48,64618,37,6,1:2:0:0:
205,192,64852,1,2,0:1:0:0:
366,129,65086,5,0,1:0:0:0:
216,55,65321,1,2,0:1:0:0:
412,38,65555,5,0,1:0:0:0:
275,134,65789,1,2,0:1:0:0:
133,49,66024,5,0,1:0:0:0:
37,184,66258,2,0,P|49:256|64:354,1,155.250002961159,2|0,0:1|0:0,0:0:0:0:
73,351,66727,38,0,P|96:354|62:325,1,125.999996154785,2|0,0:1|1:0,0:0:0:0:
225,374,67196,6,0,P|304:349|344:235,1,207.000003948212,2|2,0:1|0:1,0:0:0:0:
272,141,67899,1,0,1:0:0:0:
226,254,68133,1,2,0:1:0:0:
393,127,68368,6,0,P|388:76|379:16,1,103.500001974106,4|0,1:2|0:0,0:0:0:0:
299,256,68836,2,0,P|307:308|307:359,1,103.500001974106,0|0,1:0|0:0,0:0:0:0:
92,306,69305,1,0,1:0:0:0:
172,223,69539,2,0,P|169:202|171:164,1,51.7500009870529,2|0,0:1|0:0,0:0:0:0:
196,341,69774,1,0,1:0:0:0:
192,78,70008,6,0,P|130:156|30:157,1,207.000003948212,2|0,0:1|0:0,0:0:0:0:
76,47,70711,1,2,1:0:0:0:
230,197,70946,2,0,P|331:173|434:164,1,207.000003948212,2|0,0:1|0:0,0:0:0:0:
264,303,71649,2,0,P|209:306|163:286,1,103.500001974106,2|2,1:0|0:1,0:0:0:0:
27,110,72118,38,0,L|49:326,1,207.000003948212,2|2,1:0|1:2,0:0:0:0:
127,207,72821,1,2,0:1:0:0:
41,19,73055,2,0,P|87:43|138:40,1,103.500001974106,0|2,1:0|0:1,0:0:0:0:
354,61,73524,2,0,P|308:84|257:81,1,103.500001974106,2|0,1:0|0:0,0:0:0:0:
474,73,73993,6,0,L|470:153,1,80.9999975280763,2|0,0:0|0:0,0:0:0:0:
368,348,74461,6,0,L|363:258,1,90,2|0,0:0|0:0,0:0:0:0:
258,82,74930,6,0,L|253:180,1,99.0000030212403,2|0,0:0|0:0,0:0:0:0:
181,353,75399,38,0,P|178:308|167:283,1,53.9999983520508,0|2,1:0|0:3,0:0:0:0:
99,228,75633,2,0,P|72:224|46:226,1,53.9999983520508,0|0,1:0|0:0,0:0:0:0:
86,319,75868,6,0,P|133:281|130:129,1,225,4|0,1:0|1:0,0:0:0:0:
296,35,76571,2,0,P|285:92|281:151,1,112.5,2|0,0:0|1:0,0:0:0:0:
426,299,77039,2,0,L|493:291,1,56.25,2|0,0:1|0:0,0:0:0:0:
329,245,77274,1,0,1:0:0:0:
171,360,77508,6,0,P|158:295|25:217,1,225,4|0,1:2|0:0,0:0:0:0:
44,345,78211,1,0,1:0:0:0:
250,49,78446,2,0,L|234:275,1,225,2|2,0:1|0:0,0:0:0:0:
345,361,79149,1,2,1:0:0:0:
470,216,79383,1,0,0:0:0:0:
470,216,79500,1,0,0:0:0:0:
470,216,79618,6,0,P|406:236|346:111,1,225,4|0,1:2|1:0,0:0:0:0:
211,55,80321,2,0,L|197:171,1,112.5,2|0,0:0|1:0,0:0:0:0:
65,131,80789,2,0,L|46:17,1,112.5,2|0,0:1|1:0,0:0:0:0:
24,340,81258,2,0,P|105:291|175:312,1,168.75,2|0,0:1|0:0,0:0:0:0:
188,321,81727,38,0,P|234:328|189:307,1,135.000005149842,2|0,0:1|1:0,0:0:0:0:
362,367,82196,6,0,P|419:352|380:228,1,225,2|2,0:1|0:1,0:0:0:0:
320,136,82899,1,0,1:0:0:0:
396,54,83133,1,2,0:1:0:0:
168,83,83368,6,0,L|55:78,1,112.5,4|2,1:2|0:0,0:0:0:0:
20,146,83719,2,0,L|72:246,1,112.5,0|0,1:0|1:0,0:0:0:0:
148,242,84071,2,0,L|208:146,1,112.5,0|0,1:0|1:0,0:0:0:0:
386,283,84539,1,2,1:0:0:0:
342,249,84657,1,0,1:0:0:0:
288,256,84774,1,0,0:0:0:0:
255,299,84891,1,0,1:0:0:0:
263,353,85008,1,2,1:0:0:0:
422,214,85243,6,0,P|434:159|468:115,1,112.5,0|2,1:0|0:0,0:0:0:0:
399,75,85594,2,0,P|345:91|290:83,1,112.5,0|0,1:0|1:0,0:0:0:0:
279,159,85946,2,0,P|319:197|341:248,1,112.5,2|4,1:0|1:2,0:0:0:0:
230,354,86414,1,0,0:0:0:0:
202,332,86532,1,0,1:0:0:0:
190,344,86649,1,6,0:2:0:0:
152,360,86766,1,0,1:0:0:0:
128,347,86883,1,2,1:2:0:0:
119,356,87000,1,0,0:0:0:0:
71,352,87118,37,0,1:0:0:0:
103,325,87235,1,0,1:0:0:0:
118,286,87352,1,0,1:0:0:0:
111,245,87469,1,0,1:0:0:0:
86,212,87586,1,0,1:0:0:0:
60,179,87703,1,0,1:0:0:0:
53,138,87821,1,0,1:0:0:0:
68,99,87938,1,0,1:0:0:0:
101,72,88055,5,0,1:0:0:0:
122,108,88172,1,0,1:0:0:0:
153,135,88289,1,0,1:0:0:0:
192,151,88407,1,0,1:0:0:0:
234,153,88524,1,0,1:0:0:0:
275,142,88641,1,0,1:0:0:0:
309,118,88758,1,0,1:0:0:0:
334,85,88875,1,0,1:0:0:0:
347,44,88993,6,0,L|390:29,7,28.125,2|0|0|0|0|0|0|0,1:2|0:0|0:0|0:0|0:0|0:0|0:0|0:0,0:0:0:0:
408,110,89461,2,0,L|453:117,7,28.125,2|0|0|0|0|0|0|0,1:2|0:0|0:0|0:0|0:0|0:0|0:0|0:0,0:0:0:0:
428,197,89930,2,0,L|464:226,7,28.125,2|0|0|0|0|0|0|0,1:2|0:0|0:0|0:0|0:0|0:0|0:0|0:0,0:0:0:0:
403,283,90399,2,0,L|419:326,7,28.125,2|0|0|0|0|0|0|0,1:2|3:0|3:0|3:0|3:0|3:0|3:0|3:0,3:0:0:0:
32,337,92743,5,4,0:1:0:0:
32,337,92977,2,0,P|71:356|127:357,1,80.9999975280763,2|0,0:0|0:0,0:0:0:0:
212,345,93446,1,0,0:0:0:0:
87,250,93680,2,0,P|165:257|224:204,1,161.999995056153,2|0,0:0|0:0,0:0:0:0:
276,109,94383,38,0,P|276:196|324:254,1,161.999995056153,2|0,0:0|0:0,0:0:0:0:
415,280,95086,1,2,0:0:0:0:
512,161,95321,1,0,0:0:0:0:
512,161,95555,2,0,P|511:201|497:239,1,80.9999975280763
435,97,96024,2,0,P|435:57|450:20,1,80.9999975280763
348,156,96493,5,2,0:0:0:0:
348,156,96727,2,0,P|299:162|216:87,1,161.999995056153,2|0,0:0|0:0,0:0:0:0:
142,20,97430,2,0,P|121:56|117:99,1,80.9999975280763,2|0,0:0|0:0,0:0:0:0:
163,179,97899,1,0,0:0:0:0:
25,288,98133,6,0,P|96:333|169:306,1,161.999995056153,2|0,0:0|0:0,0:0:0:0:
233,244,98836,1,2,0:0:0:0:
314,372,99071,1,0,0:0:0:0:
355,286,99305,1,0,0:0:0:0:
432,354,99539,2,0,L|472:358,2,40.4999987640381,0|2|0,0:0|0:0|0:0,0:0:0:0:
356,273,100008,1,0,0:0:0:0:
495,172,100243,5,4,0:0:0:0:
495,172,100477,2,0,P|506:132|509:89,1,80.9999975280763,2|0,0:0|0:0,0:0:0:0:
438,13,100946,1,0,0:0:0:0:
397,157,101180,2,0,P|371:117|257:94,1,161.999995056153,2|0,0:0|0:0,0:0:0:0:
205,205,101883,38,0,L|234:367,1,161.999995056153,2|0,0:0|0:0,0:0:0:0:
132,335,102586,2,0,L|103:175,1,161.999995056153,2|2,0:0|0:0,0:0:0:0:
159,86,103289,1,0,0:0:0:0:
80,15,103524,1,2,0:0:0:0:
28,106,103758,1,0,0:0:0:0:
214,173,103993,6,0,P|263:152|299:56,1,161.999995056153,2|0,0:0|0:0,0:0:0:0:
383,120,104696,2,0,P|375:173|440:252,1,161.999995056153,2|0,0:0|0:0,0:0:0:0:
343,293,105399,2,0,P|299:259|198:276,1,161.999995056153,2|0,0:0|0:0,0:0:0:0:
94,250,106102,2,0,L|100:338,2,80.9999975280763,2|0|0,0:0|0:0|0:0,0:0:0:0:
30,165,106805,2,0,L|-4:247,2,80.9999975280763,2|0|0,0:0|0:0|0:0,0:0:0:0:
61,64,107508,1,0,0:0:0:0:
250,119,107743,5,4,0:0:0:0:
250,119,107977,2,0,P|293:115|332:93,1,90,2|0,0:0|0:0,0:0:0:0:
421,16,108446,1,0,0:0:0:0:
495,173,108680,2,0,L|471:353,1,180,2|0,0:0|0:0,0:0:0:0:
345,377,109383,6,0,P|316:326|369:224,1,180,2|0,0:0|0:0,0:0:0:0:
393,111,110086,2,0,P|347:112|304:128,1,90,2|0,0:0|0:0,0:0:0:0:
196,82,110555,1,0,0:0:0:0:
196,82,110789,1,0,0:0:0:0:
148,188,111024,1,2,0:0:0:0:
44,132,111258,1,0,0:0:0:0:
21,297,111493,37,2,0:0:0:0:
21,297,111727,2,0,P|51:332|100:351,1,90,2|0,0:0|0:0,0:0:0:0:
206,360,112196,1,0,0:0:0:0:
233,190,112430,2,0,P|188:263|103:260,1,180,2|0,0:0|0:0,0:0:0:0:
163,122,113133,6,0,P|243:161|336:166,1,180,4|0,0:0|0:0,0:0:0:0:
420,125,113836,1,2,0:0:0:0:
250,38,114071,2,0,P|170:77|77:82,1,180,4|0,0:0|0:0,0:0:0:0:
0,26,114774,1,0,0:0:0:0:
0,26,115008,1,0,0:0:0:0:
41,192,115243,5,2,0:0:0:0:
41,192,115477,2,0,P|76:218|100:263,1,90,2|0,0:0|0:0,0:0:0:0:
126,362,115946,1,0,0:0:0:0:
233,353,116180,2,0,P|277:362|400:304,1,180,2|0,0:0|0:0,0:0:0:0:
366,203,116883,6,0,P|318:274|232:269,1,180,2|0,0:0|0:0,0:0:0:0:
265,127,117586,2,0,L|282:38,1,90,2|0,0:0|0:0,0:0:0:0:
177,66,118055,2,0,L|159:154,1,90,2|0,0:0|0:0,0:0:0:0:
67,97,118524,1,2,0:0:0:0:
67,97,118758,1,0,0:0:0:0:
195,246,118993,38,0,B|106:273|108:206|16:233,1,180,4|0,0:0|0:0,0:0:0:0:
227,335,119696,2,0,B|316:308|314:375|406:348,1,180,4|0,0:0|0:0,0:0:0:0:
474,251,120399,1,2,0:0:0:0:
469,218,120516,1,0,0:0:0:0:
465,185,120633,1,2,0:0:0:0:
461,151,120750,1,0,0:0:0:0:
457,118,120868,6,0,P|438:77|399:58,1,90,2|0,0:0|1:0,0:0:0:0:
324,59,121219,2,0,L|225:88,1,90,0|0,1:0|1:0,0:0:0:0:
110,230,121688,1,0,1:0:0:0:
110,230,121805,2,0,L|196:205,1,90,2|0,1:3|1:0,0:0:0:0:
369,249,122274,1,2,1:2:0:0:
359,217,122391,1,0,0:0:0:0:
350,185,122508,1,2,1:2:0:0:
340,152,122625,1,0,1:0:0:0:
331,120,122743,38,0,P|275:67|211:49,1,135,4|0,0:1|0:0,0:0:0:0:
151,166,123914,1,0,0:0:0:0:
79,281,124383,2,0,L|55:145,1,135,4|2,0:0|0:0,0:0:0:0:
40,74,125321,1,4,0:0:0:0:
373,362,126493,6,0,P|371:322|393:276,1,90,4|0,0:0|0:0,0:0:0:0:
456,236,127196,2,0,P|475:196|474:151,1,90,2|0,0:0|0:0,0:0:0:0:
318,34,128133,2,0,B|250:32|259:76|189:73,1,135,4|2,0:0|0:0,0:0:0:0:
122,40,129071,1,4,0:0:0:0:
477,238,130243,5,4,0:0:0:0:
407,220,130477,1,2,0:0:0:0:
281,365,130946,5,0,0:0:0:0:
299,295,131180,1,2,0:0:0:0:
154,169,131649,5,0,0:0:0:0:
224,187,131883,1,2,0:0:0:0:
350,42,132352,5,0,0:0:0:0:
332,112,132586,1,2,0:0:0:0:
223,266,133055,1,2,0:0:0:0:
214,264,133524,1,2,0:0:0:0:
205,261,133993,6,0,B|137:272|155:313|85:323,2,135,4|0|4,0:0|0:0|0:0,0:0:0:0:
456,357,136336,2,0,L|483:266,1,90,2|2,0:0|0:0,0:0:0:0:
452,138,137274,1,8,0:1:0:0:
452,138,137743,22,0,B|408:144|408:144|344:192|344:192|304:196,1,161.999995056153,14|8,0:0|0:0,0:0:0:0:
182,135,138446,1,2,0:0:0:0:
186,165,138563,1,0,0:0:0:0:
190,195,138680,1,8,0:0:0:0:
194,225,138797,1,0,0:0:0:0:
198,255,138914,1,2,0:0:0:0:
222,376,139149,1,8,0:0:0:0:
69,239,139383,6,0,P|49:184|43:79,1,161.999995056153,4|0,0:0|0:0,0:0:0:0:
156,16,140086,1,8,0:0:0:0:
301,118,140321,1,2,0:0:0:0:
301,118,140438,1,0,0:0:0:0:
301,118,140555,2,0,P|356:120|415:85,2,121.499996292114,8|0|0,0:0|0:0|0:0,0:0:0:0:
472,11,141493,6,0,L|451:185,1,161.999995056153,12|8,0:0|0:0,0:0:0:0:
368,338,142196,1,2,0:0:0:0:
381,310,142313,1,0,0:0:0:0:
402,288,142430,1,8,0:0:0:0:
427,272,142547,1,0,0:0:0:0:
456,264,142664,1,2,0:0:0:0:
479,382,142899,1,8,0:0:0:0:
318,233,143133,6,0,P|237:205|174:243,1,161.999995056153,4|0,0:0|0:0,0:0:0:0:
119,349,143836,1,10,0:0:0:0:
48,168,144071,1,2,0:0:0:0:
48,168,144188,1,0,0:0:0:0:
48,168,144305,2,0,L|24:293,2,121.499996292114,8|0|0,0:0|0:0|0:0,0:0:0:0:
185,31,145243,38,0,P|224:58|270:61,1,90,0|2,1:0|0:0,0:0:0:0:
255,146,145594,2,0,P|301:137|336:107,1,90,0|0,1:0|1:0,0:0:0:0:
385,177,145946,2,0,P|412:137|415:91,1,90,0|0,1:0|1:0,0:0:0:0:
496,269,146414,1,2,1:2:0:0:
453,283,146532,1,0,1:0:0:0:
410,298,146649,1,2,0:0:0:0:
368,312,146766,1,0,1:0:0:0:
325,327,146883,1,2,1:2:0:0:
173,262,147118,6,0,P|193:301|191:346,1,90,0|2,1:0|0:0,0:0:0:0:
116,320,147469,2,0,P|71:317|33:293,1,90,0|0,1:0|1:0,0:0:0:0:
94,241,147821,2,0,P|118:203|157:183,1,90,0|0,1:0|1:0,0:0:0:0:
342,248,148289,1,0,1:0:0:0:
342,248,148407,2,0,L|251:225,1,90,0|0,1:0|1:0,0:0:0:0:
248,208,148758,1,0,1:0:0:0:
241,191,148875,1,0,0:0:0:0:
234,174,148993,6,0,P|230:121|251:83,1,90,6|2,1:2|0:0,0:0:0:0:
298,31,149344,2,0,L|406:47,1,90,0|0,1:0|1:0,0:0:0:0:
417,112,149696,2,0,L|525:128,1,90,0|0,1:0|1:0,0:0:0:0:
388,263,150164,1,0,1:0:0:0:
388,263,150282,2,0,L|280:279,1,90,0|0,1:0|1:0,0:0:0:0:
225,285,150633,1,0,1:0:0:0:
56,360,150868,6,0,P|99:328|107:239,1,135,0|0,1:0|1:0,0:0:0:0:
62,194,151336,1,2,0:0:0:0:
45,187,151453,1,0,1:0:0:0:
28,180,151571,1,0,1:0:0:0:
85,33,151805,2,0,P|106:93|186:90,1,135,0|0,1:0|1:0,0:0:0:0:
235,53,152274,1,2,0:0:0:0:
252,58,152391,1,0,0:0:0:0:
269,63,152508,1,2,1:2:0:0:
286,68,152625,1,0,1:0:0:0:
304,74,152743,38,0,P|379:81|446:65,1,135,4|0,1:0|1:0,0:0:0:0:
496,22,153211,2,0,L|463:173,1,135,0|0,1:0|1:0,0:0:0:0:
391,188,153680,2,0,L|358:339,1,135,4|0,1:2|1:0,0:0:0:0:
418,377,154149,1,2,0:0:0:0:
443,363,154266,1,0,1:0:0:0:
453,335,154383,1,0,1:0:0:0:
440,308,154500,1,0,1:0:0:0:
362,319,154618,6,0,L|221:346,1,135,4|0,1:2|1:0,0:0:0:0:
157,325,155086,2,0,P|155:351|157:373,3,45,0|0|0|0,1:0|1:0|1:0|1:0,1:0:0:0:
213,271,155555,2,0,P|222:211|163:165,1,135,4|0,1:2|1:0,0:0:0:0:
108,220,156024,1,2,0:0:0:0:
84,202,156141,1,0,1:0:0:0:
79,174,156258,1,0,1:0:0:0:
95,149,156375,1,0,1:0:0:0:
170,165,156493,6,0,L|305:205,1,135,4|0,1:2|1:0,0:0:0:0:
352,270,156961,2,0,P|368:255|378:235,1,45,0|0,1:0|1:0,0:0:0:0:
457,244,157196,2,0,P|457:221|451:200,1,45,0|0,1:0|1:0,0:0:0:0:
512,150,157430,2,0,P|496:120|407:77,1,135,4|0,1:2|1:0,0:0:0:0:
333,112,157899,1,2,0:0:0:0:
293,131,158016,1,0,1:0:0:0:
252,117,158133,1,0,1:0:0:0:
233,78,158250,1,0,1:0:0:0:
243,30,158368,6,0,L|180:165,1,148.50000453186,4|0,1:2|1:0,0:0:0:0:
131,222,158836,1,0,1:0:0:0:
84,214,158953,1,0,1:0:0:0:
72,169,159071,1,0,1:0:0:0:
108,139,159188,1,0,1:0:0:0:
180,164,159305,2,0,P|208:207|163:291,1,148.50000453186,4|0,1:2|1:0,0:0:0:0:
180,363,159774,1,2,3:2:0:0:
223,340,159891,1,0,1:0:0:0:
257,304,160008,1,2,1:2:0:0:
277,259,160125,1,0,1:0:0:0:
280,211,160243,38,0,P|302:200|333:199,1,49.5000015106202,4|0,1:2|0:0,0:0:0:0:
206,195,160477,2,0,P|214:171|235:148,1,49.5000015106202,0|0,1:0|0:0,0:0:0:0:
142,234,160711,2,0,P|131:211|129:180,1,49.5000015106202,2|0,1:2|0:0,0:0:0:0:
126,306,160946,2,0,P|102:297|79:276,1,49.5000015106202,0|0,1:0|0:0,0:0:0:0:
0,184,161180,6,0,P|12:196|75:197,1,58.4999973220826,2|0,1:2|0:0,0:0:0:0:
51,70,161414,2,0,P|56:92|100:138,1,58.4999973220826,0|0,1:0|0:0,0:0:0:0:
173,33,161649,2,0,P|161:53|159:116,1,58.4999973220826,0|0,1:0|0:0,0:0:0:0:
285,92,161883,2,0,P|262:98|216:141,1,58.4999973220826,0|0,1:0|0:0,0:0:0:0:
179,246,162118,5,4,1:2:0:0:
195,268,162235,1,0,3:0:0:0:
183,300,162352,1,2,3:0:0:0:
202,330,162469,1,2,3:0:0:0:
196,361,162586,5,2,1:2:0:0:
242,308,162703,1,0,1:0:0:0:
311,296,162821,1,2,1:2:0:0:
375,323,162938,1,0,1:0:0:0:
423,374,163055,38,0,L|466:362,7,26.9999991760254,6|0|0|0|0|0|0|0,1:2|0:0|0:0|0:0|1:0|0:0|0:0|0:0,0:0:0:0:
424,257,163524,2,0,L|468:270,7,26.9999991760254,2|0|0|0|0|0|0|0,1:2|0:0|0:0|0:0|1:0|0:0|0:0|0:0,0:0:0:0:
496,181,163993,1,4,1:0:0:0:
489,346,167274,6,0,B|440:365|380:344|380:344|407:329|412:294,1,168.75,8|0,1:0|0:0,0:0:0:0:
340,281,167743,6,0,L|241:328,1,103.500001974106,4|0,1:0|0:0,0:0:0:0:
111,251,168211,2,0,L|10:274,1,103.500001974106,0|0,1:0|0:0,0:0:0:0:
85,348,168680,1,0,1:0:0:0:
172,197,168914,2,0,P|184:217|187:255,1,51.7500009870529,2|0,0:1|0:0,0:0:0:0:
67,97,169149,1,0,1:0:0:0:
246,158,169383,6,0,P|336:159|405:47,1,207.000003948212,2|0,0:1|0:0,0:0:0:0:
286,47,170086,1,2,1:0:0:0:
134,157,170321,2,0,P|158:261|174:372,1,207.000003948212,2|0,0:1|0:0,0:0:0:0:
21,210,171024,2,0,P|14:158|21:107,1,103.500001974106,2|0,1:0|0:0,0:0:0:0:
252,40,171493,37,4,1:2:0:0:
134,157,171727,1,2,0:1:0:0:
299,132,171961,5,0,1:0:0:0:
149,55,172196,1,2,0:1:0:0:
368,48,172430,5,0,1:0:0:0:
227,206,172664,1,2,0:1:0:0:
422,254,172899,5,0,1:0:0:0:
299,132,173133,2,0,L|263:287,1,155.250002961159,2|0,0:1|0:0,0:0:0:0:
246,295,173602,38,0,P|255:344|267:298,1,125.999996154785,2|0,0:1|1:0,0:0:0:0:
118,346,174071,6,0,P|72:372|23:254,1,207.000003948212,2|2,0:1|0:1,0:0:0:0:
131,236,174774,1,0,1:0:0:0:
43,147,175008,1,2,0:1:0:0:
219,67,175243,6,0,L|197:172,1,103.500001974106,4|0,1:2|0:0,0:0:0:0:
293,317,175711,2,0,L|315:212,1,103.500001974106,0|0,1:0|0:0,0:0:0:0:
389,123,176180,1,0,1:0:0:0:
397,363,176414,2,2,L|408:310,1,51.7500009870529,2|0,0:1|0:0,0:1:0:0:
485,187,176649,1,0,1:0:0:0:
278,112,176883,6,0,P|376:127|451:61,1,207.000003948212,2|0,0:1|0:0,0:0:0:0:
343,10,177586,1,2,1:0:0:0:
165,92,177821,2,0,B|171:175|171:175|197:203|197:203|205:287,1,207.000003948212,2|0,0:1|0:0,0:0:0:0:
54,354,178524,2,0,P|28:311|38:255,1,103.500001974106,2|0,1:0|0:0,0:0:0:0:
205,287,178993,38,0,P|260:324|397:310,1,207.000003948212,2|0,1:0|1:0,0:0:0:0:
474,215,179696,1,2,0:1:0:0:
398,87,179930,2,0,L|506:98,1,103.500001974106,2|0,1:0|0:0,0:0:0:0:
271,145,180399,2,0,L|163:156,1,103.500001974106,2|0,1:0|0:0,0:0:0:0:
60,364,180868,6,0,P|73:326|70:282,1,80.9999975280763,2|0,0:0|0:0,0:0:0:0:
123,64,181336,6,0,P|151:99|164:142,1,90,2|0,0:0|0:0,0:0:0:0:
250,365,181805,6,0,P|282:324|296:274,1,99.0000030212403,2|0,0:0|0:0,0:0:0:0:
337,44,182274,38,0,P|361:56|382:74,1,53.9999983520508,0|2,1:0|0:3,0:0:0:0:
420,157,182508,2,0,P|420:183|414:210,1,53.9999983520508,0|0,1:0|0:0,0:0:0:0:
314,128,182743,6,0,P|385:50|500:83,1,225,4|0,1:0|1:0,0:0:0:0:
505,232,183446,2,0,P|471:284|427:309,1,112.5,2|0,0:0|1:0,0:0:0:0:
224,253,183914,2,0,P|216:219|220:187,1,56.25,2|0,0:1|0:0,0:0:0:0:
318,299,184149,1,0,1:0:0:0:
127,356,184383,6,0,P|147:268|63:172,1,225,4|0,0:0|0:0,0:0:0:0:
28,288,185086,1,2,1:0:0:0:
225,193,185321,2,0,P|311:181|409:277,1,225,2|0,0:1|0:0,0:0:0:0:
426,380,186024,1,0,1:0:0:0:
286,302,186258,1,0,0:0:0:0:
286,302,186375,1,0,0:0:0:0:
286,302,186493,6,0,L|352:85,1,225,6|0,1:2|1:0,0:0:0:0:
160,29,187196,2,0,P|177:89|170:140,1,112.5,2|0,0:1|1:0,0:0:0:0:
21,217,187664,2,0,P|15:161|31:108,1,112.5,2|0,0:1|1:0,0:0:0:0:
157,318,188133,2,0,B|109:368|41:357|41:357|73:315,1,168.75,2|0,0:1|0:0,0:0:0:0:
79,334,188602,38,0,P|96:338|68:306,1,125.999996154785,2|0,0:1|1:0,0:0:0:0:
300,371,189071,6,0,P|356:379|461:262,1,225,2|0,0:1|0:0,0:0:0:0:
412,164,189774,1,2,1:0:0:0:
342,256,190008,1,0,0:0:0:0:
421,64,190243,6,0,L|310:88,1,112.5,4|2,1:2|0:0,0:0:0:0:
229,65,190594,2,0,L|195:172,1,112.5,0|0,1:0|1:0,0:0:0:0:
117,151,190946,2,0,L|6:175,1,112.5,0|0,1:0|1:0,0:0:0:0:
154,310,191414,1,2,1:0:0:0:
196,274,191532,1,0,1:0:0:0:
251,277,191649,1,0,0:0:0:0:
290,315,191766,1,0,1:0:0:0:
294,370,191883,1,2,1:0:0:0:
88,369,192118,6,0,P|40:357|4:291,1,112.5,0|2,1:0|0:0,0:0:0:0:
56,245,192469,2,0,P|30:202|51:130,1,112.5,0|0,1:0|1:0,0:0:0:0:
121,134,192821,2,0,P|133:85|199:50,1,112.5,2|0,1:0|1:0,0:0:0:0:
349,83,193289,1,0,0:0:0:0:
385,106,193407,1,0,1:0:0:0:
395,116,193524,1,2,1:0:0:0:
423,80,193641,1,0,1:0:0:0:
462,78,193758,1,0,1:0:0:0:
472,65,193875,1,0,0:0:0:0:
458,0,193993,37,2,1:0:0:0:
427,42,194110,1,0,1:0:0:0:
412,93,194227,1,0,1:0:0:0:
416,148,194344,1,0,1:0:0:0:
437,198,194461,1,0,1:0:0:0:
466,247,194578,1,0,1:0:0:0:
466,305,194696,1,2,1:0:0:0:
436,355,194813,1,0,1:0:0:0:
386,381,194930,1,0,1:0:0:0:
328,379,195047,1,0,1:0:0:0:
279,350,195164,1,0,1:0:0:0:
253,299,195282,1,0,1:0:0:0:
227,248,195399,1,2,1:0:0:0:
177,218,195516,1,0,1:0:0:0:
120,217,195633,1,0,1:0:0:0:
70,244,195750,1,0,1:0:0:0:
44,287,195868,6,0,L|56:319,7,28.125,2|0|0|0|0|0|0|0,1:2|0:0|0:0|0:0|0:0|0:0|0:0|0:0,0:0:0:0:
103,232,196336,2,0,L|128:255,7,28.125,2|0|0|0|0|0|0|0,1:2|0:0|0:0|0:0|0:0|0:0|0:0|0:0,0:0:0:0:
134,157,196805,2,0,L|167:168,7,28.125,2|0|0|0|0|0|0|0,1:0|0:0|0:0|0:0|0:0|0:0|0:0|0:0,0:0:0:0:
130,76,197274,2,0,L|165:72,7,28.125,2|0|0|0|0|0|0|0,1:2|0:0|0:0|0:0|0:0|0:0|0:0|0:0,0:0:0:0:
74,22,197743,38,0,P|143:37|209:0,1,138.599997250671,4|0,0:1|0:0,0:0:0:0:
304,63,198446,2,0,P|367:38|428:67,1,138.599997250671,2|0,0:0|0:0,0:0:0:0:
480,268,199383,2,0,B|372:273|404:348|295:353,1,207.899995876007,4|2,0:0|0:0,0:0:0:0:
195,332,200321,1,4,0:0:0:0:
34,128,201493,6,0,P|14:195|23:270,1,138.599997250671,4|0,0:1|0:0,0:0:0:0:
127,199,202196,2,0,P|133:130|113:64,1,138.599997250671,2|0,0:0|0:0,0:0:0:0:
324,7,203133,2,0,P|303:86|283:211,1,207.899995876007,4|2,0:0|0:0,0:0:0:0:
293,313,204071,1,4,0:0:0:0:
429,50,205243,5,4,0:0:0:0:
332,89,205477,1,2,0:0:0:0:
398,365,205946,5,0,0:0:0:0:
359,268,206180,1,2,0:0:0:0:
83,334,206649,5,0,0:0:0:0:
180,295,206883,1,2,0:0:0:0:
114,19,207352,5,0,0:0:0:0:
153,116,207586,1,2,0:0:0:0:
217,313,208055,5,2,0:0:0:0:
228,300,208524,1,2,0:0:0:0:
241,288,208993,2,0,P|337:325|441:286,2,207.899995876007,4|0|4,0:1|0:0|0:0,0:0:0:0:
102,33,211336,5,2,0:0:0:0:
409,33,211805,1,2,0:0:0:0:
