osu file format v14

[General]
AudioFilename: audio.mp3
AudioLeadIn: 0
PreviewTime: 160566
Countdown: 0
SampleSet: None
StackLeniency: 1
Mode: 1
LetterboxInBreaks: 0
WidescreenStoryboard: 1

[Editor]
Bookmarks: 20410,60020,71270,93535,106660,146270,157520
DistanceSpacing: 1.1
BeatDivisor: 4
GridSize: 8
TimelineZoom: 0.7000004

[Metadata]
Title:Ignite
TitleUnicode:Ignite
Artist:Zedd
ArtistUnicode:Zedd
Creator:fusionnqn
Version:ash11143's Mazukashii
Source:League of Legends
Tags:League of Legends Worlds 2016 Worldsong
BeatmapID:1789341
BeatmapSetID:828847

[Difficulty]
HPDrainRate:5
CircleSize:4
OverallDifficulty:5
ApproachRate:5
SliderMultiplier:1
SliderTickRate:2

[Events]
//Background and Video events
0,0,"maxresdefault2.jpg",0,0
//Break Periods
//Storyboard Layer 0 (Background)
//Storyboard Layer 1 (Fail)
//Storyboard Layer 2 (Pass)
//Storyboard Layer 3 (Foreground)
//Storyboard Sound Samples

[TimingPoints]
20,468.75,4,2,0,30,1,0
20410,-80,4,2,0,45,0,0
26270,-100,4,2,0,45,0,0
39160,-100,4,2,0,45,0,0
75020,-80,4,2,0,45,0,1
90020,-80,4,2,0,45,0,0

[Colours]
Combo1 : 242,172,77
Combo2 : 238,77,68
Combo3 : 108,220,240
Combo4 : 182,109,248

[HitObjects]
253,189,20,5,0,0:0:0:0:
253,189,254,5,0,0:0:0:0:
253,189,488,1,0,0:0:0:0:
253,189,723,1,2,0:0:0:0:
253,189,957,1,0,0:0:0:0:
253,189,1191,1,0,0:0:0:0:
253,189,1426,1,0,0:0:0:0:
253,189,1660,1,2,0:0:0:0:
253,190,2129,1,2,0:0:0:0:
253,191,2598,1,2,0:0:0:0:
253,191,3066,1,2,0:0:0:0:
253,191,3301,1,2,0:0:0:0:
253,191,3535,1,2,0:0:0:0:
253,191,3770,1,2,0:0:0:0:
258,199,4004,1,0,0:0:0:0:
258,199,4238,1,0,0:0:0:0:
258,199,4473,1,2,0:0:0:0:
258,199,4707,1,0,0:0:0:0:
258,199,4941,1,0,0:0:0:0:
258,199,5176,1,0,0:0:0:0:
258,199,5410,1,2,0:0:0:0:
258,199,5879,1,2,0:0:0:0:
258,199,6348,1,2,0:0:0:0:
257,189,6816,1,2,0:0:0:0:
257,189,7051,1,2,0:0:0:0:
257,189,7285,1,2,0:0:0:0:
257,189,7402,1,0,0:0:0:0:
257,189,7520,1,2,0:0:0:0:
257,189,7754,1,0,0:0:0:0:
257,189,7988,1,0,0:0:0:0:
257,189,8223,1,2,0:0:0:0:
257,189,8457,1,0,0:0:0:0:
257,189,8691,1,0,0:0:0:0:
257,189,8926,1,2,0:0:0:0:
257,189,9160,1,0,0:0:0:0:
257,189,9395,1,2,0:0:0:0:
257,189,9629,1,2,0:0:0:0:
254,194,10098,1,0,0:0:0:0:
254,194,10332,1,2,0:0:0:0:
254,194,10566,1,2,0:0:0:0:
254,194,10801,1,2,0:0:0:0:
254,194,11035,1,2,0:0:0:0:
261,205,11270,1,0,0:0:0:0:
254,194,11504,1,0,0:0:0:0:
254,194,11738,1,0,0:0:0:0:
254,194,11973,1,0,0:0:0:0:
254,194,12207,1,0,0:0:0:0:
254,194,12441,1,0,0:0:0:0:
254,194,12676,1,2,0:0:0:0:
254,194,12910,1,0,0:0:0:0:
254,194,13145,1,2,0:0:0:0:
254,194,13379,1,2,0:0:0:0:
255,195,13848,1,2,0:0:0:0:
255,195,14082,1,2,0:0:0:0:
255,195,14316,1,2,0:0:0:0:
255,195,14551,1,2,0:0:0:0:
255,195,14785,1,2,0:0:0:0:
255,195,14902,1,0,0:0:0:0:
255,195,15020,1,2,0:0:0:0:
255,195,15254,1,0,0:0:0:0:
255,195,15488,1,0,0:0:0:0:
255,195,15723,1,0,0:0:0:0:
255,195,15957,1,0,0:0:0:0:
255,195,16191,1,0,0:0:0:0:
255,195,16426,1,2,0:0:0:0:
255,195,16660,1,0,0:0:0:0:
255,195,16895,1,2,0:0:0:0:
255,195,17129,1,2,0:0:0:0:
255,195,17598,1,0,0:0:0:0:
255,195,17832,1,2,0:0:0:0:
255,195,18066,1,2,0:0:0:0:
255,195,18301,1,2,0:0:0:0:
255,195,18535,1,0,0:0:0:0:
255,195,18770,1,0,0:0:0:0:
255,195,19004,1,0,0:0:0:0:
255,195,19238,1,0,0:0:0:0:
255,195,19473,1,0,0:0:0:0:
255,195,19707,1,0,0:0:0:0:
255,195,19941,1,0,0:0:0:0:
255,195,20176,1,0,0:0:0:0:
255,195,20410,1,6,0:0:0:0:
255,195,20879,1,6,0:0:0:0:
255,195,21348,1,4,0:0:0:0:
255,195,21816,1,4,0:0:0:0:
255,195,22285,1,0,0:0:0:0:
255,195,22520,1,2,0:0:0:0:
255,195,22754,1,0,0:0:0:0:
255,195,22988,1,2,0:0:0:0:
255,195,23223,1,0,0:0:0:0:
255,195,23457,1,2,0:0:0:0:
255,195,23926,1,2,0:0:0:0:
255,195,24160,1,0,0:0:0:0:
255,195,24395,1,2,0:0:0:0:
255,195,24629,1,0,0:0:0:0:
255,195,24863,1,2,0:0:0:0:
255,195,25098,1,6,0:0:0:0:
255,195,25566,1,6,0:0:0:0:
255,195,26035,1,4,0:0:0:0:
260,200,26738,1,0,0:0:0:0:
260,200,26973,1,0,0:0:0:0:
260,200,27207,1,0,0:0:0:0:
260,200,27441,1,2,0:0:0:0:
260,200,27676,1,2,0:0:0:0:
260,200,27910,1,0,0:0:0:0:
266,211,28145,1,2,0:0:0:0:
266,211,28379,1,2,0:0:0:0:
266,211,28848,1,2,0:0:0:0:
266,211,29082,1,2,0:0:0:0:
266,211,29316,1,0,0:0:0:0:
266,211,29551,1,2,0:0:0:0:
266,211,29785,1,0,0:0:0:0:
