osu file format v14

[General]
AudioFilename: audio.mp3
AudioLeadIn: 0
PreviewTime: 160566
Countdown: 0
SampleSet: Soft
StackLeniency: 1
Mode: 0
LetterboxInBreaks: 0
WidescreenStoryboard: 1

[Editor]
Bookmarks: 20410,60020,71270,93535,106660,146270,157520
DistanceSpacing: 1.1
BeatDivisor: 2
GridSize: 8
TimelineZoom: 0.8000004

[Metadata]
Title:Ignite
TitleUnicode:Ignite
Artist:Zedd
ArtistUnicode:Zedd
Creator:fusionnqn
Version:ash11143's Easy
Source:League of Legends
Tags:League of Legends Worlds 2016 Worldsong
BeatmapID:1789340
BeatmapSetID:828847

[Difficulty]
HPDrainRate:2
CircleSize:2.5
OverallDifficulty:2
ApproachRate:3
SliderMultiplier:0.8
SliderTickRate:1

[Events]
//Background and Video events
0,0,"maxresdefault2.jpg",0,0
//Break Periods
2,44282,59282
2,67953,69830
2,112485,123970
2,131470,145533
//Storyboard Layer 0 (Background)
//Storyboard Layer 1 (Fail)
//Storyboard Layer 2 (Pass)
//Storyboard Layer 3 (Foreground)
//Storyboard Sound Samples

[TimingPoints]
20,468.75,4,2,0,30,1,0
75020,-100,4,2,0,30,0,1
90020,-100,4,2,0,30,0,0
161270,-100,4,2,0,30,0,1
187520,-100,4,2,0,30,0,0

[Colours]
Combo1 : 242,172,77
Combo2 : 238,77,68
Combo3 : 108,220,240
Combo4 : 182,109,248

[HitObjects]
56,240,8926,5,0,0:0:0:0:
104,314,9394,2,0,P|161:324|212:309,1,80
264,288,10332,1,0,0:0:0:0:
344,328,10801,2,0,P|357:281|346:231,1,80
248,184,12676,5,0,0:0:0:0:
304,104,13145,2,0,P|251:93|208:96,1,80
192,8,14082,2,0,P|143:45|163:160,1,160
120,272,16426,1,0,0:0:0:0:
182,335,16895,2,0,P|235:345|279:336,1,80
323,280,17832,1,0,0:0:0:0:
399,236,18301,2,0,L|405:137,1,80
285,49,20410,5,0,0:0:0:0:
216,104,20879,1,0,0:0:0:0:
128,88,21348,1,0,0:0:0:0:
64,152,21816,2,0,P|52:223|80:296,1,120
144,216,22988,5,0,0:0:0:0:
208,280,23457,1,0,0:0:0:0:
272,216,23926,1,0,0:0:0:0:
360,224,24395,1,0,0:0:0:0:
408,152,24863,1,0,0:0:0:0:
255,191,26035,5,0,0:0:0:0:
132,141,27441,2,0,L|145:257,1,80
163,263,28145,2,0,L|275:255,1,80
303,321,29082,2,0,P|320:257|281:162,1,160
136,146,31426,5,0,0:0:0:0:
174,224,31895,2,0,L|269:257,1,80
331,281,32832,1,0,0:0:0:0:
400,336,33301,2,0,P|415:301|414:258,1,80
426,143,35176,5,0,0:0:0:0:
364,80,35645,2,0,L|280:56,1,80
199,68,36582,1,0,0:0:0:0:
118,33,37051,2,0,P|115:78|127:123,1,80
240,192,39160,5,0,0:0:0:0:
299,258,39629,1,0,0:0:0:0:
386,269,40098,1,0,0:0:0:0:
456,216,40566,1,0,0:0:0:0:
479,131,41035,2,0,P|467:61|427:13,1,120
351,11,42207,5,0,0:0:0:0:
263,23,42676,1,0,0:0:0:0:
193,77,43145,2,0,B|199:97|199:97|190:116|190:116|200:132|200:132|190:150|190:150|200:170|200:170|187:189|187:189|198:231|198:231,1,160
62,138,60722,6,0,P|128:93|222:84,1,160
290,107,62129,1,0,0:0:0:0:
366,151,62598,2,0,P|371:195|368:259,2,80
224,45,64473,5,0,0:0:0:0:
154,98,64941,1,0,0:0:0:0:
91,159,65410,2,0,L|112:265,1,80
184,278,66348,1,0,0:0:0:0:
274,274,66816,1,0,0:0:0:0:
345,215,67285,2,0,L|317:102,1,80
17,166,71270,6,0,B|124:108|201:249|339:135,1,320
236,58,75020,5,0,0:0:0:0:
112,152,75488,2,0,P|157:209|252:208,1,160
264,128,76895,2,0,P|318:137|375:241,1,160
304,264,78301,1,0,0:0:0:0:
304,264,78770,1,0,0:0:0:0:
224,304,79238,6,0,P|165:270|151:176,1,160
232,160,80645,2,0,P|217:93|121:54,1,160
96,128,82051,1,0,0:0:0:0:
96,128,82520,1,0,0:0:0:0:
112,216,82988,6,0,B|195:203|219:151|208:100,1,160
256,40,84395,2,0,B|316:54|349:86|343:190,1,160
280,216,85801,1,0,0:0:0:0:
280,216,86270,1,0,0:0:0:0:
232,144,86738,6,0,B|141:202|184:296,1,160
256,320,88145,2,0,B|352:280|328:192,1,160
384,128,89551,1,0,0:0:0:0:
256,192,91426,12,0,93770,0:0:0:0:
154,194,95176,5,0,0:0:0:0:
218,254,95645,2,0,P|270:257|312:250,1,80
367,199,96582,2,0,L|337:93,2,80
192,80,98691,5,0,0:0:0:0:
80,176,99395,2,0,P|88:248|184:272,1,160
240,224,100801,1,0,0:0:0:0:
328,264,102676,6,0,P|376:224|344:136,1,160
280,80,104082,1,0,0:0:0:0:
208,136,104551,1,0,0:0:0:0:
432,200,106660,6,0,B|336:144|296:240|248:160|192:232|112:176,1,320
96,64,109238,1,0,0:0:0:0:
184,40,109707,1,0,0:0:0:0:
256,88,110176,2,0,B|248:168|384:96|288:192|424:136|280:264|448:248,1,280
448,160,112285,1,0,0:0:0:0:
272,96,125410,5,0,0:0:0:0:
272,96,125879,1,0,0:0:0:0:
344,168,126348,1,0,0:0:0:0:
272,216,126816,2,0,P|224:240|200:288,1,80
296,296,127988,5,0,0:0:0:0:
296,304,128457,1,0,0:0:0:0:
368,248,128926,1,0,0:0:0:0:
368,248,129395,2,0,B|392:208|376:200|312:176|256:144|376:128|304:96,1,160
256,40,131270,1,0,0:0:0:0:
62,246,146973,6,0,P|128:291|222:300,1,160
232,216,148380,1,0,0:0:0:0:
312,184,148849,2,0,P|317:140|288:80,2,80
232,240,150724,5,0,0:0:0:0:
154,286,151192,1,0,0:0:0:0:
91,225,151661,2,0,L|112:119,1,80
184,106,152599,1,0,0:0:0:0:
248,48,153067,1,0,0:0:0:0:
328,80,153536,2,0,L|368:184,1,80
256,192,154941,5,0,0:0:0:0:
256,192,155410,1,0,0:0:0:0:
233,37,157520,6,0,B|188:98|216:144|266:172|307:155|329:124|356:86|395:66|445:78|488:134|446:193,1,400
352,304,161270,5,0,0:0:0:0:
429,231,161738,2,0,B|396:206|396:206|346:203,1,80
184,175,162911,2,0,P|181:128|200:98,1,80
310,160,163848,2,0,L|327:249,1,80
143,306,165020,1,0,0:0:0:0:
328,64,165488,6,0,P|387:98|401:192,1,160
320,200,166895,2,0,P|335:267|431:306,1,160
456,232,168301,1,0,0:0:0:0:
424,152,168770,1,0,0:0:0:0:
376,80,169238,6,0,B|293:93|269:145|280:196,1,160
248,264,170645,2,0,B|188:250|155:218|161:114,1,160
232,96,172051,1,0,0:0:0:0:
288,168,172520,1,0,0:0:0:0:
344,232,172988,6,0,B|435:174|392:80,1,160
320,48,174395,2,0,B|224:88|248:176,1,160
176,224,175801,1,0,0:0:0:0:
224,296,176270,1,0,0:0:0:0:
296,248,176973,6,0,P|336:208|328:128,1,120
296,64,177910,2,0,P|256:88|240:128,1,80
168,168,178848,1,0,0:0:0:0:
168,168,179316,1,0,0:0:0:0:
168,168,179785,1,0,0:0:0:0:
304,296,180723,6,0,P|344:256|304:192,1,120
256,152,181660,2,0,P|296:120|352:120,1,80
400,72,182598,1,0,0:0:0:0:
400,72,183066,1,0,0:0:0:0:
400,72,183535,1,0,0:0:0:0:
256,192,184941,5,0,0:0:0:0:
256,192,185410,1,0,0:0:0:0:
184,144,186816,2,0,P|208:96|264:80,1,80
256,72,187520,5,0,0:0:0:0:
360,112,187988,1,0,0:0:0:0:
360,112,188223,1,0,0:0:0:0:
280,192,188691,2,0,P|304:256|344:264,2,80
288,96,190098,1,0,0:0:0:0:
200,56,190566,2,0,P|176:104|184:144,1,80
