osu file format v14

[General]
AudioFilename: audio.mp3
AudioLeadIn: 0
PreviewTime: 34634
Countdown: 1
SampleSet: Soft
StackLeniency: 0.7
Mode: 0
LetterboxInBreaks: 0
WidescreenStoryboard: 0

[Editor]
Bookmarks: 841,6358,17392,20151,31185,33944,44978,53254,56013,67047,89116,91875,102909,105668,116703,119461,130496,141530,152565,163599,163944,174634
DistanceSpacing: 2.8
BeatDivisor: 4
GridSize: 8
TimelineZoom: 2.04

[Metadata]
Title:Ignite (cloudfield Edit)
TitleUnicode:Ignite (cloudfield Edit)
Artist:Zedd
ArtistUnicode:Zedd
Creator:- Founntain -
Version:Win or Die
Source:
Tags:
BeatmapID:1842601
BeatmapSetID:881232

[Difficulty]
HPDrainRate:5
CircleSize:4
OverallDifficulty:6
ApproachRate:9
SliderMultiplier:2
SliderTickRate:1

[Events]
//Background and Video events
0,0,"451370.jpg",0,0
//Break Periods
2,89316,91275
//Storyboard Layer 0 (Background)
//Storyboard Layer 1 (Fail)
//Storyboard Layer 2 (Pass)
//Storyboard Layer 3 (Foreground)
//Storyboard Layer 4 (Overlay)
//Storyboard Sound Samples

[TimingPoints]
841,344.827586206897,4,2,0,80,1,0
15841,-50,4,2,0,100,0,0
20151,-100,4,2,0,100,0,0
29634,-50,4,2,0,100,0,0
32909,-66.6666666666667,4,2,0,100,0,0
33254,-200,4,2,0,100,0,0
34634,-133.333333333333,4,2,0,100,0,0
44978,-66.6666666666667,4,2,0,100,0,0
53254,-200,4,2,0,100,0,0
54634,-66.6666666666667,4,2,0,100,0,0
56013,-50,4,2,0,100,0,1
67004,-50,4,2,0,100,0,0
67047,-50,4,2,0,100,0,1
78082,-50,4,2,0,100,0,0
78427,-50,4,2,0,100,0,1
89116,-200,4,2,0,100,0,0
91875,-100,4,2,0,100,0,0
101358,-50,4,2,0,100,0,0
105668,-100,4,2,0,100,0,0
115151,-50,4,2,0,100,0,0
118427,-66.6666666666667,4,2,0,100,0,0
118772,-200,4,2,0,100,0,0
120151,-133.333333333333,4,2,0,100,0,0
138772,-200,4,2,0,100,0,0
140151,-66.6666666666667,4,2,0,100,0,0
141530,-50,4,2,0,100,0,1
163599,-50,4,2,0,100,0,0
163944,-50,4,2,0,100,0,1
164116,-66.6666666666667,4,2,0,100,0,0
174634,-50,4,2,0,100,0,0

[Colours]
Combo1 : 255,198,0
Combo2 : 244,114,9
Combo3 : 255,0,0
Combo4 : 128,0,0

[HitObjects]
83,194,841,5,0,0:0:0:0:
204,138,1013,1,0,0:0:0:0:
337,105,1185,1,0,0:0:0:0:
244,238,1358,2,0,P|295:249|353:225,1,100,8|0,0:0|0:0,0:0:0:0:
281,59,1703,2,0,P|339:49|401:62,1,100,8|0,0:0|0:0,0:0:0:0:
436,315,2047,2,0,P|373:335|315:321,1,100,8|0,0:0|0:0,0:0:0:0:
154,230,2392,2,0,P|225:208|277:218,1,100,8|0,0:0|0:0,0:0:0:0:
466,162,2737,2,0,P|404:203|358:206,1,100,8|0,0:0|0:0,0:0:0:0:
133,192,3082,5,0,0:0:0:0:
320,98,3254,1,8,0:0:0:0:
152,251,3427,1,8,0:0:0:0:
195,275,3513,1,0,0:0:0:0:
244,276,3599,1,8,0:0:0:0:
440,135,3772,6,0,P|361:121|322:135,1,100,8|0,0:0|0:0,0:0:0:0:
121,154,4116,2,0,P|185:191|231:200,1,100,8|0,0:0|0:0,0:0:0:0:
36,151,4461,2,0,P|94:227|131:250,1,100,8|0,0:0|0:0,0:0:0:0:
426,98,4806,1,8,0:0:0:0:
426,98,4978,1,8,0:0:0:0:
426,98,5151,1,0,0:0:0:0:
426,98,5323,1,8,0:0:0:0:
98,127,5496,6,0,L|226:195,1,100,0|8,0:0|0:0,0:0:0:0:
388,237,5841,1,0,0:0:0:0:
186,278,6013,1,0,0:0:0:0:
422,223,6185,1,8,0:0:0:0:
384,190,6271,1,0,0:0:0:0:
336,176,6357,1,8,0:0:0:0:
71,194,6530,5,10,0:0:0:0:
201,83,6703,1,0,0:0:0:0:
345,89,6875,1,2,0:0:0:0:
201,83,7047,1,0,0:0:0:0:
249,211,7220,1,2,0:0:0:0:
430,243,7392,1,2,0:0:0:0:
397,280,7478,1,0,0:0:0:0:
351,300,7564,1,2,0:0:0:0:
160,297,7737,6,0,P|101:259|78:200,1,100,2|0,0:0|0:0,0:0:0:0:
351,300,8082,2,0,P|430:269|446:238,1,100,2|2,0:0|0:0,0:0:0:0:
445,260,8341,1,0,0:0:0:0:
445,260,8427,1,2,0:0:0:0:
314,157,8599,2,0,P|220:138|181:155,1,100,2|0,0:0|0:0,0:0:0:0:
433,108,8944,5,2,0:0:0:0:
410,115,9030,1,0,0:0:0:0:
390,129,9116,1,2,0:0:0:0:
123,202,9289,5,2,0:0:0:0:
299,245,9461,1,0,0:0:0:0:
185,180,9634,1,2,0:0:0:0:
362,261,9806,1,0,0:0:0:0:
246,82,9978,2,0,P|161:62|116:90,1,100,2|0,0:0|0:0,0:0:0:0:
39,222,10323,2,0,P|86:277|140:293,1,100,2|2,0:0|0:0,0:0:0:0:
136,297,10582,1,0,0:0:0:0:
165,300,10668,1,2,0:0:0:0:
321,262,10841,6,0,P|398:229|424:190,1,100,2|0,0:0|0:0,0:0:0:0:
202,231,11185,2,2,P|279:212|325:176,1,100
289,178,11444,1,0,0:0:0:0:
281,145,11530,2,2,P|329:98|362:30,1,100
130,195,11875,5,2,0:0:0:0:
130,195,12047,1,0,0:0:0:0:
130,195,12220,1,2,0:0:0:0:
321,280,12392,1,2,0:0:0:0:
321,280,12565,1,0,0:0:0:0:
321,280,12737,2,2,L|377:297,2,50,2|0|2,0:0|0:0|0:0,0:0:0:0:
130,195,13082,1,2,0:0:0:0:
349,195,13254,6,0,P|391:159|412:110,1,100,2|0,0:0|0:0,0:0:0:0:
227,62,13599,2,0,P|145:98|113:140,1,100,2|2,0:0|0:0,0:0:0:0:
136,136,13858,1,0,0:0:0:0:
146,175,13944,1,2,0:0:0:0:
329,270,14116,1,2,0:0:0:0:
357,251,14203,1,0,0:0:0:0:
378,232,14289,2,0,P|410:167|390:113,2,100,2|2|2,0:0|0:0|0:0,0:0:0:0:
118,258,14806,5,2,0:0:0:0:
257,237,14978,1,0,0:0:0:0:
77,206,15151,1,2,0:0:0:0:
299,176,15323,1,2,0:0:0:0:
45,139,15496,1,0,0:0:0:0:
328,108,15668,1,2,0:0:0:0:
199,297,15841,6,0,L|92:100,1,200,4|0,0:0|0:0,0:0:0:0:
310,335,16185,2,0,L|194:125,1,200,4|0,0:0|0:0,0:0:0:0:
398,357,16530,2,0,L|296:169,1,200,4|0,0:0|0:0,0:0:0:0:
181,354,16875,2,0,B|124:259|124:259|130:255|130:255|45:104,1,200,4|8,0:0|0:0,0:0:0:0:
96,165,17134,1,8,0:0:0:0:
106,147,17220,1,8,0:0:0:0:
120,137,17306,1,0,0:0:0:0:
421,256,17392,6,0,P|337:179|246:186,1,200,8|0,0:0|0:0,0:0:0:0:
48,182,17737,2,0,P|118:279|221:283,1,200,8|0,0:0|0:0,0:0:0:0:
223,286,17996,1,0,0:0:0:0:
242,272,18082,1,8,0:0:0:0:
399,157,18254,1,8,0:0:0:0:
168,117,18427,1,0,0:0:0:0:
429,95,18599,1,8,0:0:0:0:
118,196,18772,5,8,0:0:0:0:
138,212,18858,1,0,0:0:0:0:
169,226,18944,1,8,0:0:0:0:
431,249,19116,1,0,0:0:0:0:
140,344,19289,6,8,B|179:313|179:313|180:282|180:282|303:280,1,200
326,299,19547,1,0,0:0:0:0:
360,295,19634,1,8,0:0:0:0:
390,282,19720,1,0,0:0:0:0:
413,268,19806,1,8,0:0:0:0:
431,249,19892,1,8,0:0:0:0:
443,226,19978,2,0,B|477:172|469:116|440:87|347:70,1,200,8|4,0:0|0:0,0:0:0:0:
91,161,20323,6,0,P|131:214|197:228,1,100,2|0,0:0|0:0,0:0:0:0:
469,101,20668,2,0,P|418:76|350:85,1,100,2|0,0:0|0:0,0:0:0:0:
150,283,21013,2,0,P|192:274|271:275,1,100,2|2,0:0|0:0,0:0:0:0:
265,273,21272,1,0,0:0:0:0:
286,273,21358,1,2,0:0:0:0:
305,273,21444,1,0,0:0:0:0:
321,269,21530,6,0,P|369:224|384:186,1,100,2|2,0:0|0:0,0:0:0:0:
364,177,21789,1,0,0:0:0:0:
345,160,21875,2,0,P|294:122|225:107,1,100,2|0,0:0|0:0,0:0:0:0:
378,263,22220,2,0,P|315:208|268:179,1,100,2|0,0:0|0:0,0:0:0:0:
460,272,22565,2,0,P|416:208|377:176,1,100,2|0,0:0|0:0,0:0:0:0:
111,157,22909,5,2,0:0:0:0:
111,157,23082,1,0,0:0:0:0:
111,157,23254,1,2,0:0:0:0:
280,279,23427,1,0,0:0:0:0:
280,279,23600,1,2,0:0:0:0:
280,279,23772,5,2,0:0:0:0:
280,279,23858,2,0,L|331:308,1,50,0|2,0:0|0:0,0:0:0:0:
480,278,24116,2,0,P|434:213|404:187,1,100,2|0,0:0|0:0,0:0:0:0:
249,147,24461,2,0,P|178:111|146:75,2,100,2|0|2,0:0|0:0|0:0,0:0:0:0:
449,129,24978,1,0,0:0:0:0:
104,194,25151,1,2,0:0:0:0:
261,288,25323,2,0,P|342:262|377:230,2,100,0|2|0,0:0|0:0|0:0,0:0:0:0:
143,206,25841,5,2,0:0:0:0:
294,155,26013,1,0,0:0:0:0:
69,129,26185,1,2,0:0:0:0:
339,112,26358,2,0,P|389:87|424:35,2,100,0|2|0,0:0|0:0|0:0,0:0:0:0:
99,179,26875,1,2,0:0:0:0:
284,258,27047,2,0,P|359:293|386:340,2,100,0|2|2,0:0|0:0|0:0,0:0:0:0:
261,253,27478,1,0,0:0:0:0:
239,245,27565,1,2,0:0:0:0:
31,155,27737,6,0,P|106:158|134:139,1,100,2|2,0:0|0:0,0:0:0:0:
144,128,27996,1,0,0:0:0:0:
161,113,28082,2,0,P|204:85|268:87,1,100,2|0,0:0|0:0,0:0:0:0:
144,288,28427,5,8,0:0:0:0:
368,288,28599,1,0,0:0:0:0:
256,80,28772,1,8,0:0:0:0:
368,288,28944,1,0,0:0:0:0:
256,80,29116,1,8,0:0:0:0:
144,288,29289,1,8,0:0:0:0:
256,80,29461,1,8,0:0:0:0:
208,336,29634,6,0,P|128:224|160:128,1,200,4|0,0:0|0:0,0:0:0:0:
304,336,29978,2,0,P|384:224|352:128,1,200,4|0,0:0|0:0,0:0:0:0:
256,80,30323,2,0,L|256:320,1,200,4|0,0:0|0:0,0:0:0:0:
144,176,30668,2,0,L|352:176,1,200,4|8,0:0|0:0,0:0:0:0:
359,187,30927,1,8,0:0:0:0:
370,207,31013,1,8,0:0:0:0:
374,230,31099,1,8,0:0:0:0:
369,259,31185,6,0,P|265:347|186:323,1,200,8|8,0:0|0:0,0:0:0:0:
54,267,31530,2,0,P|164:270|213:375,1,200,8|8,0:0|0:0,0:0:0:0:
211,337,31789,1,0,0:0:0:0:
211,337,31875,1,8,0:0:0:0:
416,213,32047,5,8,0:0:0:0:
122,151,32220,1,0,0:0:0:0:
418,187,32392,1,8,0:0:0:0:
120,237,32565,5,8,0:0:0:0:
167,250,32651,1,0,0:0:0:0:
216,241,32737,1,8,0:0:0:0:
255,211,32823,1,0,0:0:0:0:
243,152,32909,6,0,L|159:90,1,75.0000028610231,8|0,0:0|0:0,0:0:0:0:
347,180,33082,2,0,L|422:230,1,75.0000028610231,8|0,0:0|0:0,0:0:0:0:
302,81,33254,2,0,B|237:61|199:92|199:92|233:160|199:186,1,200,10|4,0:0|0:0,0:0:0:0:
116,195,34634,5,8,0:0:0:0:
204,144,34806,1,0,0:0:0:0:
297,138,34978,2,0,P|356:145|387:168,1,75.0000028610231
428,203,35323,2,0,P|446:248|431:280,1,75.0000028610231
373,316,35668,2,0,P|312:319|288:291,1,75.0000028610231,0|0,0:0|0:0,0:0:0:0:
283,299,35927,1,0,0:0:0:0:
262,289,36013,1,8,0:0:0:0:
139,233,36185,5,0,0:0:0:0:
209,172,36358,2,0,P|263:137|296:138,1,75.0000028610231
294,142,36616,1,0,0:0:0:0:
317,159,36703,2,0,P|367:174|409:152,1,75.0000028610231
446,245,37047,1,0,0:0:0:0:
397,309,37220,1,0,0:0:0:0:
311,335,37392,2,0,P|238:319|214:307,1,75.0000028610231,8|0,0:0|0:0,0:0:0:0:
217,307,37651,1,0,0:0:0:0:
201,290,37737,1,0,0:0:0:0:
156,232,37909,6,0,P|120:194|114:162,1,75.0000028610231
225,219,38254,1,0,0:0:0:0:
293,248,38427,1,0,0:0:0:0:
390,197,38599,2,0,P|448:159|485:157,1,75.0000028610231,0|8,0:0|0:0,0:0:0:0:
293,248,38944,1,0,0:0:0:0:
220,249,39116,1,0,0:0:0:0:
138,179,39289,2,0,P|107:143|59:125,1,75.0000028610231
371,149,39634,5,0,0:0:0:0:
185,127,39806,1,0,0:0:0:0:
375,108,39978,1,0,0:0:0:0:
399,114,40065,1,0,0:0:0:0:
416,134,40151,1,8,0:0:0:0:
146,206,40323,6,0,P|110:174|66:154,1,75.0000028610231
350,283,40668,2,0,P|407:312|426:336,1,75.0000028610231
413,319,40927,1,0,0:0:0:0:
413,319,41013,1,0,0:0:0:0:
186,252,41185,5,0,0:0:0:0:
186,252,41358,1,0,0:0:0:0:
186,252,41530,1,8,0:0:0:0:
351,177,41703,6,0,P|393:151|429:152,1,75.0000028610231
192,172,42047,2,0,P|139:146|106:137,1,75.0000028610231
114,140,42306,1,0,0:0:0:0:
103,140,42392,1,0,0:0:0:0:
188,258,42565,5,8,0:0:0:0:
393,208,42737,2,0,P|408:166|402:125,1,75.0000028610231,8|0,0:0|0:0,0:0:0:0:
114,195,43082,2,0,P|72:147|63:106,1,75.0000028610231,8|0,0:0|0:0,0:0:0:0:
461,232,43427,2,0,P|488:166|482:138,1,75.0000028610231,8|0,0:0|0:0,0:0:0:0:
131,126,43772,2,8,P|86:84|76:62,1,75.0000028610231
382,184,44116,1,8,0:0:0:0:
144,256,44461,5,8,0:0:0:0:
256,48,44634,1,8,0:0:0:0:
384,256,44806,1,8,0:0:0:0:
81,197,44978,5,2,0:0:0:0:
105,225,45064,1,0,0:0:0:0:
134,249,45150,1,0,0:0:0:0:
166,268,45236,1,0,0:0:0:0:
202,280,45322,1,2,0:0:0:0:
239,284,45409,1,0,0:0:0:0:
313,286,45496,6,0,L|380:340,1,75.0000028610231
308,198,45668,2,0,L|249:140,1,75.0000028610231,2|0,0:0|0:0,0:0:0:0:
393,210,45841,2,0,L|461:269,1,75.0000028610231
234,227,46013,2,0,L|174:162,1,75.0000028610231,2|0,0:0|0:0,0:0:0:0:
181,150,46185,5,0,0:0:0:0:
204,120,46271,1,0,0:0:0:0:
232,95,46357,1,2,0:0:0:0:
265,79,46443,1,0,0:0:0:0:
302,74,46529,1,0,0:0:0:0:
339,82,46616,1,0,0:0:0:0:
370,101,46702,1,2,0:0:0:0:
377,162,46789,6,0,L|302:219,1,75.0000028610231
274,186,46961,2,0,L|198:227,1,75.0000028610231,0|2,0:0|0:0,0:0:0:0:
220,258,47134,2,0,L|143:289,5,75.0000028610231,0|0|0|2|0|0,0:0|0:0|0:0|0:0|0:0|0:0,0:0:0:0:
255,301,47651,2,0,B|283:284|283:284|278:250|278:250|294:229,7,75.0000028610231,0|2|0|0|0|2|0|0,0:0|0:0|0:0|0:0|0:0|0:0|0:0|0:0,0:0:0:0:
310,230,48341,5,0,0:0:0:0:
341,210,48427,1,2,0:0:0:0:
360,178,48513,1,0,0:0:0:0:
362,141,48599,1,0,0:0:0:0:
347,107,48685,1,0,0:0:0:0:
318,84,48772,1,2,0:0:0:0:
282,77,48858,1,0,0:0:0:0:
252,87,48944,1,0,0:0:0:0:
228,115,49030,1,0,0:0:0:0:
197,136,49116,1,2,0:0:0:0:
161,146,49202,1,0,0:0:0:0:
123,145,49288,1,0,0:0:0:0:
88,133,49375,1,0,0:0:0:0:
58,112,49461,1,2,0:0:0:0:
46,90,49547,2,0,B|31:52|31:52|46:39|46:39|53:21,6,75.0000028610231,0|0|0|2|0|0|0,0:0|0:0|0:0|0:0|0:0|0:0|0:0,0:0:0:0:
66,154,50151,5,2,0:0:0:0:
92,190,50237,1,0,0:0:0:0:
121,224,50323,1,0,0:0:0:0:
154,255,50409,1,0,0:0:0:0:
191,281,50495,1,2,0:0:0:0:
232,299,50582,1,0,0:0:0:0:
257,269,50668,1,0,0:0:0:0:
266,226,50754,5,0,0:0:0:0:
261,181,50840,1,2,0:0:0:0:
256,137,50926,1,0,0:0:0:0:
275,96,51013,1,0,0:0:0:0:
307,64,51099,1,0,0:0:0:0:
343,39,51185,1,2,0:0:0:0:
383,59,51271,1,0,0:0:0:0:
409,95,51357,5,0,0:0:0:0:
413,139,51444,1,0,0:0:0:0:
400,182,51530,1,2,0:0:0:0:
385,225,51616,1,0,0:0:0:0:
383,269,51702,1,0,0:0:0:0:
363,305,51788,1,0,0:0:0:0:
327,329,51875,1,2,0:0:0:0:
267,319,51961,6,0,L|231:298,9,37.5000014305115
209,301,52392,2,0,L|149:285,8,37.5000014305115
157,253,52780,2,0,L|105:224,3,37.5000014305115
116,192,52953,2,0,L|161:185,3,37.5000014305115
168,151,53125,2,0,L|205:137,2,37.5000014305115
270,122,53254,6,0,B|311:67|389:70|389:70|421:150|334:163|420:207|420:207|423:271|341:268,1,400,4|0,0:0|0:0,0:0:0:0:
328,279,54720,1,0,0:0:0:0:
285,293,54806,1,0,0:0:0:0:
241,291,54892,1,0,0:0:0:0:
198,277,54978,1,8,0:0:0:0:
157,257,55064,1,0,0:0:0:0:
168,224,55151,1,8,0:0:0:0:
167,180,55237,1,0,0:0:0:0:
140,144,55323,1,8,0:0:0:0:
100,125,55409,1,8,0:0:0:0:
55,124,55496,1,8,0:0:0:0:
63,83,55582,1,8,0:0:0:0:
99,57,55668,1,4,0:0:0:0:
168,78,56013,5,8,0:0:0:0:
369,96,56185,1,0,0:0:0:0:
344,261,56358,1,8,0:0:0:0:
200,73,56530,1,0,0:0:0:0:
162,269,56703,1,8,0:0:0:0:
349,181,56875,1,0,0:0:0:0:
141,185,57047,2,0,B|120:270|120:270|155:325|246:290,1,200,8|0,0:0|0:0,0:0:0:0:
236,290,57306,1,0,0:0:0:0:
251,280,57392,1,8,0:0:0:0:
424,116,57565,6,0,B|372:48|372:48|293:27|270:114,1,200,0|8,0:0|0:0,0:0:0:0:
60,215,57909,2,0,B|91:292|91:292|169:336|216:245,1,200,0|8,0:0|0:0,0:0:0:0:
437,340,58254,2,0,B|406:258|406:258|331:309|307:253,1,200,0|8,0:0|0:0,0:0:0:0:
291,238,58513,1,0,0:0:0:0:
266,225,58599,1,0,0:0:0:0:
233,224,58685,1,0,0:0:0:0:
207,234,58772,2,0,B|151:262|151:262|74:232|95:152,1,200,8|0,0:0|0:0,0:0:0:0:
387,87,59116,5,8,0:0:0:0:
387,87,59289,1,0,0:0:0:0:
136,166,59461,1,8,0:0:0:0:
387,87,59634,1,0,0:0:0:0:
170,229,59806,1,8,0:0:0:0:
170,229,59892,1,0,0:0:0:0:
170,229,59978,1,0,0:0:0:0:
387,87,60151,1,8,0:0:0:0:
85,159,60323,6,0,B|133:113|186:127|186:127|166:183|229:227,1,200,0|8,0:0|0:0,0:0:0:0:
432,227,60668,2,0,B|404:177|404:177|423:122|423:122|385:91|342:114,1,200,0|8,0:0|0:0,0:0:0:0:
476,313,61013,1,0,0:0:0:0:
476,313,61099,1,0,0:0:0:0:
476,313,61185,1,8,0:0:0:0:
476,313,61272,1,0,0:0:0:0:
476,313,61358,1,0,0:0:0:0:
113,188,61530,6,0,B|67:150|67:150|107:124|107:124|105:64|175:50|200:117,1,200,8|0,0:0|0:0,0:0:0:0:
422,265,61875,2,0,B|374:333|374:333|280:303|296:244,1,200,8|0,0:0|0:0,0:0:0:0:
232,71,62220,2,0,B|158:25|119:75|119:75|109:138|175:227,1,200,8|0,0:0|0:0,0:0:0:0:
331,58,62565,2,0,B|396:33|396:33|411:71|411:71|432:74|432:74|449:145,1,200,8|0,0:0|0:0,0:0:0:0:
445,166,62823,1,0,0:0:0:0:
427,191,62909,1,8,0:0:0:0:
128,272,63082,5,0,0:0:0:0:
128,48,63254,1,8,0:0:0:0:
368,48,63427,1,0,0:0:0:0:
368,288,63599,1,8,0:0:0:0:
128,48,63772,5,0,0:0:0:0:
112,75,63858,1,0,0:0:0:0:
109,101,63944,1,8,0:0:0:0:
125,125,64030,1,0,0:0:0:0:
130,158,64116,1,0,0:0:0:0:
112,192,64203,1,0,0:0:0:0:
109,221,64289,6,0,B|109:280|147:324|147:324|233:340|262:267,1,200,8|0,0:0|0:0,0:0:0:0:
392,190,64634,2,0,B|438:101|438:101|410:52|330:74,1,200,8|0,0:0|0:0,0:0:0:0:
94,107,64978,2,0,B|101:208|101:208|150:280|237:227,1,200,8|0,0:0|0:0,0:0:0:0:
422,247,65323,1,8,0:0:0:0:
173,184,65496,2,0,B|129:96|129:96|74:180|134:219,1,200,0|8,0:0|0:0,0:0:0:0:
118,223,65754,1,0,0:0:0:0:
137,250,65841,1,0,0:0:0:0:
157,272,65927,1,0,0:0:0:0:
183,289,66013,1,8,0:0:0:0:
342,269,66185,5,0,0:0:0:0:
198,91,66530,1,0,0:0:0:0:
336,308,66703,1,0,0:0:0:0:
357,296,66789,1,0,0:0:0:0:
377,283,66875,1,0,0:0:0:0:
390,268,66961,1,0,0:0:0:0:
403,244,67047,6,0,B|441:133|384:93|324:140,1,200,12|0,0:0|0:0,0:0:0:0:
236,244,67392,2,0,B|197:354|128:351|109:277,1,200,8|0,0:0|0:0,0:0:0:0:
369,245,67737,2,0,B|314:127|236:128|216:199,1,200,8|0,0:0|0:0,0:0:0:0:
215,203,67996,1,0,0:0:0:0:
190,217,68082,1,8,0:0:0:0:
415,64,68254,6,0,B|323:60|323:60|339:143|224:96,1,200,0|8,0:0|0:0,0:0:0:0:
121,112,68599,2,0,B|50:173|50:173|110:262|165:177,1,200,0|8,0:0|0:0,0:0:0:0:
326,178,68944,2,0,B|275:109|275:109|202:109|192:191,1,200,0|8,0:0|0:0,0:0:0:0:
194,207,69203,1,0,0:0:0:0:
182,231,69289,1,0,0:0:0:0:
178,261,69375,1,0,0:0:0:0:
192,283,69461,1,8,0:0:0:0:
216,303,69547,1,0,0:0:0:0:
246,315,69634,1,0,0:0:0:0:
266,319,69720,1,0,0:0:0:0:
287,323,69806,1,8,0:0:0:0:
109,145,69978,5,0,0:0:0:0:
376,129,70151,1,8,0:0:0:0:
123,274,70323,1,0,0:0:0:0:
123,274,70409,1,0,0:0:0:0:
123,274,70495,1,8,0:0:0:0:
254,77,70668,5,0,0:0:0:0:
389,300,70841,1,8,0:0:0:0:
131,154,71013,1,0,0:0:0:0:
131,154,71099,1,0,0:0:0:0:
131,154,71185,1,8,0:0:0:0:
365,124,71358,2,0,B|421:190|421:190|419:248|347:285,1,200,0|8,0:0|0:0,0:0:0:0:
87,223,71703,1,0,0:0:0:0:
87,223,71875,2,0,B|56:162|63:105|153:115|153:115|206:100|206:100,1,200,8|0,0:0|0:0,0:0:0:0:
204,114,72134,5,0,0:0:0:0:
232,128,72220,1,8,0:0:0:0:
255,145,72306,1,0,0:0:0:0:
273,170,72392,1,0,0:0:0:0:
275,196,72478,1,0,0:0:0:0:
244,222,72565,6,0,P|147:170|137:42,1,200,8|0,0:0|0:0,0:0:0:0:
244,222,72909,2,0,P|383:154|382:61,1,200,8|0,0:0|0:0,0:0:0:0:
81,186,73254,2,0,P|151:64|267:72,1,200,8|0,0:0|0:0,0:0:0:0:
199,52,73513,1,0,0:0:0:0:
199,52,73599,1,8,0:0:0:0:
353,81,73772,6,0,B|450:122|450:122|497:233|345:220,1,200,0|8,0:0|0:0,0:0:0:0:
302,291,74116,2,0,B|298:204|298:204|363:129|413:181,1,200,0|8,0:0|0:0,0:0:0:0:
64,212,74461,5,0,0:0:0:0:
87,173,74634,1,8,0:0:0:0:
113,217,74806,1,0,0:0:0:0:
316,126,74978,1,8,0:0:0:0:
330,142,75065,1,0,0:0:0:0:
305,148,75151,1,0,0:0:0:0:
306,132,75237,1,0,0:0:0:0:
323,145,75323,1,8,0:0:0:0:
199,313,75496,1,0,0:0:0:0:
65,123,75668,6,0,B|142:48|142:48|229:110|277:37,1,200,8|0,0:0|0:0,0:0:0:0:
455,312,76013,2,0,B|350:346|333:304|333:304|287:275|235:314,1,200,8|0,0:0|0:0,0:0:0:0:
245,316,76272,1,0,0:0:0:0:
209,318,76358,1,8,0:0:0:0:
123,275,76530,2,0,B|79:199|79:199|96:167|96:167|61:91,1,200,0|8,0:0|0:0,0:0:0:0:
261,170,76875,5,0,0:0:0:0:
420,134,77047,2,0,L|306:88,1,100,8|0,0:0|0:0,0:0:0:0:
291,96,77220,1,0,0:0:0:0:
123,149,77392,6,0,B|93:181|93:181|129:195|129:195|75:233|75:233|135:248|135:248|95:310|95:310,1,200,8|0,0:0|0:0,0:0:0:0:
286,275,77737,1,0,0:0:0:0:
286,275,77823,1,0,0:0:0:0:
286,275,77909,1,0,0:0:0:0:
286,275,77996,1,0,0:0:0:0:
286,275,78082,2,0,B|333:322|333:322|412:296|336:241|336:241|342:182|427:191|427:191|409:81,1,400,0|4,0:0|0:0,0:0:0:0:
130,56,78599,5,0,0:0:0:0:
179,312,78772,1,8,0:0:0:0:
351,186,78944,1,0,0:0:0:0:
165,100,79116,1,0,0:0:0:0:
90,295,79289,5,0,0:0:0:0:
107,312,79375,1,0,0:0:0:0:
136,329,79461,1,8,0:0:0:0:
330,264,79634,5,0,0:0:0:0:
298,261,79720,1,0,0:0:0:0:
266,278,79806,1,8,0:0:0:0:
412,145,79978,6,0,B|429:76|341:47|341:47|270:69|265:130,1,200,0|8,0:0|0:0,0:0:0:0:
220,236,80323,2,0,B|172:301|113:301|113:301|61:233|121:214,1,200,0|8,0:0|0:0,0:0:0:0:
99,223,80582,1,0,0:0:0:0:
104,213,80668,1,0,0:0:0:0:
108,205,80754,1,0,0:0:0:0:
113,197,80841,1,8,0:0:0:0:
223,150,81013,1,0,0:0:0:0:
383,222,81185,6,0,B|431:187|431:187|383:154|383:154|388:104|324:72,1,200,8|0,0:0|0:0,0:0:0:0:
72,181,81530,2,0,B|44:254|90:280|90:280|123:268|123:268|157:199|212:216,1,200,8|0,0:0|0:0,0:0:0:0:
433,166,81875,2,0,B|341:174|342:110|342:110|281:66|245:105,1,200,8|0,0:0|0:0,0:0:0:0:
255,90,82134,1,0,0:0:0:0:
239,100,82220,1,8,0:0:0:0:
74,167,82392,5,0,0:0:0:0:
78,182,82478,1,0,0:0:0:0:
88,198,82565,1,8,0:0:0:0:
207,279,82737,2,0,B|247:317|247:317|282:287|282:287|372:336,1,200,0|8,0:0|0:0,0:0:0:0:
390,336,82996,1,0,0:0:0:0:
407,329,83082,1,0,0:0:0:0:
421,317,83168,1,0,0:0:0:0:
427,303,83254,1,8,0:0:0:0:
428,290,83341,1,0,0:0:0:0:
423,276,83427,1,0,0:0:0:0:
416,263,83513,1,0,0:0:0:0:
113,170,83944,5,12,0:0:0:0:
260,117,84116,1,0,0:0:0:0:
233,254,84289,1,8,0:0:0:0:
113,170,84461,1,0,0:0:0:0:
260,117,84634,5,8,0:0:0:0:
233,254,84806,1,0,0:0:0:0:
260,117,84978,1,8,0:0:0:0:
113,170,85151,1,0,0:0:0:0:
260,117,85323,5,8,0:0:0:0:
233,254,85496,1,0,0:0:0:0:
113,170,85668,1,8,0:0:0:0:
376,141,85841,5,0,0:0:0:0:
182,61,86013,1,0,0:0:0:0:
182,61,86099,1,0,0:0:0:0:
182,61,86185,1,0,0:0:0:0:
365,184,86358,5,8,0:0:0:0:
148,74,86530,1,0,0:0:0:0:
387,146,86703,1,8,0:0:0:0:
387,146,86789,1,0,0:0:0:0:
387,146,86875,1,0,0:0:0:0:
122,195,87047,5,8,0:0:0:0:
122,195,87220,1,0,0:0:0:0:
325,256,87392,1,8,0:0:0:0:
325,256,87565,1,0,0:0:0:0:
74,232,87737,5,2,0:0:0:0:
102,190,87823,1,0,0:0:0:0:
136,154,87909,1,0,0:0:0:0:
179,129,87995,1,0,0:0:0:0:
227,136,88081,1,2,0:0:0:0:
256,175,88168,1,0,0:0:0:0:
302,168,88254,1,0,0:0:0:0:
339,134,88340,1,0,0:0:0:0:
376,102,88426,1,2,0:0:0:0:
423,108,88512,5,0,0:0:0:0:
435,155,88599,1,2,0:0:0:0:
430,205,88685,1,0,0:0:0:0:
437,254,88771,1,2,0:0:0:0:
443,304,88857,1,0,0:0:0:0:
425,349,88943,1,2,0:0:0:0:
378,362,89030,1,0,0:0:0:0:
328,356,89116,1,4,0:0:0:0:
353,133,91875,5,2,0:0:0:0:
153,235,92047,1,0,0:0:0:0:
356,291,92220,1,2,0:0:0:0:
172,83,92392,2,2,B|100:99|85:161|80:166,1,100,0|2,0:0|0:0,0:0:0:0:
258,289,92737,2,0,P|287:216|268:178,1,100,0|2,0:0|0:0,0:0:0:0:
440,77,93082,2,0,P|359:79|301:109,1,100,0|2,0:0|0:0,0:0:0:0:
434,286,93427,2,0,P|418:220|352:186,1,100,0|2,0:0|0:0,0:0:0:0:
160,238,93772,2,0,B|184:177|158:154|213:146,1,100,0|2,0:0|0:0,0:0:0:0:
364,116,94116,5,0,0:0:0:0:
204,67,94289,1,2,0:0:0:0:
356,222,94461,1,2,0:0:0:0:
342,269,94547,1,0,0:0:0:0:
303,298,94633,1,2,0:0:0:0:
100,154,94806,6,0,B|157:126|164:142|164:142|219:113,1,100,0|2,0:0|0:0,0:0:0:0:
405,119,95151,2,0,B|355:137|355:137|337:172|337:172|297:189,1,100,0|2,0:0|0:0,0:0:0:0:
145,249,95496,1,0,0:0:0:0:
236,71,95668,1,2,0:0:0:0:
389,239,95841,1,2,0:0:0:0:
386,254,95927,1,0,0:0:0:0:
379,270,96013,1,2,0:0:0:0:
180,256,96185,6,0,P|147:233|127:167,1,100,0|2,0:0|0:0,0:0:0:0:
240,90,96530,1,0,0:0:0:0:
449,132,96703,1,2,0:0:0:0:
253,253,96875,1,2,0:0:0:0:
232,250,96961,1,0,0:0:0:0:
212,241,97047,1,2,0:0:0:0:
311,141,97220,6,0,B|356:103|272:52|336:39|373:51,2,100,0|2|0,0:0|0:0|0:0,0:0:0:0:
101,177,97737,5,2,0:0:0:0:
145,256,97909,1,0,0:0:0:0:
242,264,98082,1,2,0:0:0:0:
333,246,98254,2,0,P|404:243|458:280,2,100,0|2|0,0:0|0:0|0:0,0:0:0:0:
159,185,98772,2,0,P|97:150|86:113,1,100,2|0,0:0|0:0,0:0:0:0:
298,62,99116,1,2,0:0:0:0:
440,189,99289,5,2,0:0:0:0:
436,212,99375,1,0,0:0:0:0:
426,229,99461,1,2,0:0:0:0:
260,280,99634,2,0,B|213:277|213:277|229:239|182:220,1,100,0|2,0:0|0:0,0:0:0:0:
314,86,99978,2,0,P|256:110|240:154,1,100,0|2,0:0|0:0,0:0:0:0:
80,282,100323,2,0,P|148:239|178:245,1,100,0|2,0:0|0:0,0:0:0:0:
389,182,100668,5,0,0:0:0:0:
214,84,100841,1,2,0:0:0:0:
258,322,101013,1,0,0:0:0:0:
52,160,101185,1,2,0:0:0:0:
326,85,101358,6,0,B|247:175|358:142|414:268,1,200,4|0,0:0|0:0,0:0:0:0:
114,307,101703,2,0,B|169:169|199:320|326:284,1,200,4|0,0:0|0:0,0:0:0:0:
152,47,102047,2,0,B|112:178|228:88|281:197,1,200,4|0,0:0|0:0,0:0:0:0:
351,355,102392,2,0,B|418:297|264:321|297:243|448:190|386:139,1,200,4|8,0:0|0:0,0:0:0:0:
387,156,102651,1,8,0:0:0:0:
386,114,102737,1,8,0:0:0:0:
364,79,102823,1,0,0:0:0:0:
332,74,102909,6,0,B|273:122|290:208|290:208|194:221,1,200,8|0,0:0|0:0,0:0:0:0:
92,223,103254,2,0,B|51:175|144:179|121:88|121:88|219:116,1,200,8|0,0:0|0:0,0:0:0:0:
191,114,103513,1,0,0:0:0:0:
226,110,103599,1,8,0:0:0:0:
411,91,103772,5,8,0:0:0:0:
212,199,103944,1,0,0:0:0:0:
378,252,104116,1,8,0:0:0:0:
171,322,104289,1,8,0:0:0:0:
136,320,104375,1,0,0:0:0:0:
110,297,104461,1,8,0:0:0:0:
221,151,104634,5,0,0:0:0:0:
328,323,104806,2,0,B|412:290|412:290|364:211|414:185,1,200,8|8,0:0|0:0,0:0:0:0:
418,173,105065,1,0,0:0:0:0:
433,128,105151,1,8,0:0:0:0:
422,81,105237,1,0,0:0:0:0:
388,48,105323,1,8,0:0:0:0:
342,37,105409,1,8,0:0:0:0:
305,40,105496,2,0,P|231:88|264:211,1,200,8|4,0:0|0:0,0:0:0:0:
355,280,105841,6,0,P|306:322|249:322,1,100,0|2,0:0|0:0,0:0:0:0:
124,252,106185,2,0,P|183:200|228:205,1,100,0|2,0:0|0:0,0:0:0:0:
62,165,106530,2,0,P|115:117|159:108,1,100,0|2,0:0|0:0,0:0:0:0:
257,60,106789,1,0,0:0:0:0:
283,45,106875,1,2,0:0:0:0:
313,42,106961,1,0,0:0:0:0:
346,50,107047,2,0,P|396:97|442:97,1,100,2|2,0:0|0:0,0:0:0:0:
480,106,107306,1,0,0:0:0:0:
436,154,107392,2,0,P|389:157|352:192,1,100,2|0,0:0|0:0,0:0:0:0:
261,296,107737,6,0,P|180:298|150:273,1,100,2|0,0:0|0:0,0:0:0:0:
66,202,108082,2,0,P|130:169|204:173,1,100,2|0,0:0|0:0,0:0:0:0:
355,148,108427,2,0,P|269:103|222:104,1,100,2|0,0:0|0:0,0:0:0:0:
348,313,108772,1,2,0:0:0:0:
220,223,108944,1,0,0:0:0:0:
355,148,109116,1,2,0:0:0:0:
168,188,109289,5,0,0:0:0:0:
168,188,109375,1,0,0:0:0:0:
168,188,109461,1,2,0:0:0:0:
314,255,109634,2,0,B|345:286|345:286|396:264|428:278,1,100,0|2,0:0|0:0,0:0:0:0:
196,235,109978,2,0,B|229:189|229:189|289:178,1,100,0|2,0:0|0:0,0:0:0:0:
401,106,110323,5,0,0:0:0:0:
307,68,110496,1,2,0:0:0:0:
334,165,110668,1,0,0:0:0:0:
149,98,110841,2,0,B|111:141|111:141|113:197,2,100,2|0|2,0:0|0:0|0:0,0:0:0:0:
299,162,111358,2,0,B|355:145|355:145|377:107,1,100,0|2,0:0|0:0,0:0:0:0:
110,269,111703,1,0,0:0:0:0:
161,155,111875,1,2,0:0:0:0:
293,258,112047,1,0,0:0:0:0:
324,98,112220,6,0,P|269:98|225:133,1,100,2|0,0:0|0:0,0:0:0:0:
155,272,112565,2,0,B|86:265|86:265|60:220,2,100,2|0|2,0:0|0:0|0:0,0:0:0:0:
184,273,112996,1,0,0:0:0:0:
216,263,113082,1,2,0:0:0:0:
333,192,113254,2,0,B|358:151|358:151|421:111,1,100,2|2,0:0|0:0,0:0:0:0:
423,95,113513,1,0,0:0:0:0:
397,79,113599,2,0,B|344:75|344:75|276:25,1,100,2|0,0:0|0:0,0:0:0:0:
163,97,113944,5,8,0:0:0:0:
209,279,114116,1,0,0:0:0:0:
366,171,114289,1,8,0:0:0:0:
163,97,114461,1,0,0:0:0:0:
209,279,114634,1,8,0:0:0:0:
163,97,114806,1,8,0:0:0:0:
366,171,114978,1,8,0:0:0:0:
155,205,115151,6,0,B|116:158|176:63|176:63|221:157|271:99,1,200,4|0,0:0|0:0,0:0:0:0:
347,229,115496,2,0,B|385:282|335:357|335:357|272:300|278:239,1,200,4|0,0:0|0:0,0:0:0:0:
176,207,115841,2,0,B|123:245|48:195|48:195|105:132|166:138,1,200,4|0,0:0|0:0,0:0:0:0:
330,141,116185,2,0,B|383:103|458:153|458:153|401:216|340:210,1,200,4|8,0:0|0:0,0:0:0:0:
379,198,116444,1,8,0:0:0:0:
341,208,116530,1,10,0:0:0:0:
317,225,116616,1,8,0:0:0:0:
278,254,116703,6,0,B|220:243|156:212|156:212|241:147|200:105,1,200,8|8,0:0|0:0,0:0:0:0:
354,77,117047,2,0,B|399:49|399:49|386:119|467:113|429:224,1,200,8|8,0:0|0:0,0:0:0:0:
429,225,117306,1,0,0:0:0:0:
398,257,117392,1,8,0:0:0:0:
195,324,117565,5,8,0:0:0:0:
204,158,117737,1,0,0:0:0:0:
326,281,117909,1,8,0:0:0:0:
385,126,118082,1,0,0:0:0:0:
347,78,118168,1,0,0:0:0:0:
289,62,118254,1,0,0:0:0:0:
232,81,118340,1,0,0:0:0:0:
187,129,118427,6,0,L|95:152,1,75.0000028610231,8|0,0:0|0:0,0:0:0:0:
243,186,118599,2,0,L|334:219,1,75.0000028610231,8|0,0:0|0:0,0:0:0:0:
272,320,118772,2,0,B|207:340|169:309|169:309|203:241|169:215,1,200,2|4,0:0|0:0,0:0:0:0:
130,162,120151,5,8,0:0:0:0:
185,232,120323,1,0,0:0:0:0:
269,264,120496,1,0,0:0:0:0:
370,212,120668,2,0,P|405:165|401:122,1,75.0000028610231
243,129,121013,2,0,P|298:91|333:87,1,75.0000028610231
348,90,121272,1,0,0:0:0:0:
378,99,121358,1,0,0:0:0:0:
296,293,121530,5,8,0:0:0:0:
106,296,121703,2,0,P|172:255|177:232,1,75.0000028610231
134,102,122047,1,0,0:0:0:0:
156,84,122134,1,0,0:0:0:0:
181,74,122220,1,0,0:0:0:0:
347,104,122392,6,0,P|401:132|422:160,1,75.0000028610231
219,266,122737,2,0,P|270:262|318:229,1,75.0000028610231,0|8,0:0|0:0,0:0:0:0:
311,227,122996,1,0,0:0:0:0:
313,192,123082,1,0,0:0:0:0:
126,219,123254,6,0,P|173:188|209:182,1,75.0000028610231
417,137,123599,1,0,0:0:0:0:
224,127,123772,1,0,0:0:0:0:
168,283,123944,1,0,0:0:0:0:
352,273,124116,2,0,P|393:242|404:208,1,75.0000028610231,0|8,0:0|0:0,0:0:0:0:
279,122,124461,1,0,0:0:0:0:
215,219,124634,1,0,0:0:0:0:
108,229,124806,2,0,P|112:174|132:151,1,75.0000028610231
351,226,125151,5,0,0:0:0:0:
209,75,125323,1,0,0:0:0:0:
155,291,125496,1,0,0:0:0:0:
190,304,125582,1,0,0:0:0:0:
225,298,125668,1,8,0:0:0:0:
181,204,125841,6,0,P|123:214|94:231,1,75.0000028610231
278,142,126185,2,0,P|322:129|372:128,1,75.0000028610231
376,135,126444,1,0,0:0:0:0:
414,129,126530,1,0,0:0:0:0:
274,274,126703,5,0,0:0:0:0:
126,197,126875,1,0,0:0:0:0:
321,212,127047,1,8,0:0:0:0:
206,147,127220,6,0,P|167:109|156:76,1,75.0000028610231
312,174,127565,2,0,P|335:215|331:253,1,75.0000028610231
318,273,127823,1,0,0:0:0:0:
293,283,127909,1,0,0:0:0:0:
367,164,128082,5,8,0:0:0:0:
177,214,128254,2,0,B|160:190|160:190|129:187|129:187|105:158,1,75.0000028610231,8|0,0:0|0:0,0:0:0:0:
289,196,128599,2,0,B|302:168|302:168|314:163|314:163|333:132,1,75.0000028610231,8|0,0:0|0:0,0:0:0:0:
182,151,128944,2,0,B|156:123|156:123|137:120|137:120|115:95,1,75.0000028610231,8|0,0:0|0:0,0:0:0:0:
280,145,129289,2,0,B|301:118|301:118|329:102|329:102|333:80,1,75.0000028610231,8|0,0:0|0:0,0:0:0:0:
241,215,129634,1,8,0:0:0:0:
162,278,129978,1,8,0:0:0:0:
244,102,130151,1,8,0:0:0:0:
384,283,130323,1,8,0:0:0:0:
167,116,130496,5,2,0:0:0:0:
165,136,130582,1,0,0:0:0:0:
160,156,130668,1,0,0:0:0:0:
152,175,130754,1,0,0:0:0:0:
140,192,130840,1,2,0:0:0:0:
126,207,130927,1,0,0:0:0:0:
112,222,131013,1,0,0:0:0:0:
99,238,131099,1,0,0:0:0:0:
89,256,131185,1,2,0:0:0:0:
86,276,131271,1,0,0:0:0:0:
91,296,131358,5,0,0:0:0:0:
103,312,131444,1,0,0:0:0:0:
120,325,131530,1,2,0:0:0:0:
139,333,131616,1,0,0:0:0:0:
159,336,131702,1,0,0:0:0:0:
180,335,131789,1,0,0:0:0:0:
199,329,131875,1,2,0:0:0:0:
215,316,131961,1,0,0:0:0:0:
226,298,132047,1,0,0:0:0:0:
231,278,132133,1,0,0:0:0:0:
246,262,132220,6,0,L|285:227,5,37.5000014305115,2|0|0|0|2|0,0:0|0:0|0:0|0:0|0:0|0:0,0:0:0:0:
217,246,132738,2,0,L|182:227,6,37.5000014305115,0|0|2|0|0|0|2,0:0|0:0|0:0|0:0|0:0|0:0|0:0,0:0:0:0:
165,215,133341,5,0,0:0:0:0:
150,191,133427,1,0,0:0:0:0:
146,164,133513,1,0,0:0:0:0:
152,137,133599,1,2,0:0:0:0:
169,115,133685,1,0,0:0:0:0:
192,100,133772,1,0,0:0:0:0:
219,94,133858,1,0,0:0:0:0:
246,98,133944,1,2,0:0:0:0:
267,115,134030,1,0,0:0:0:0:
273,141,134116,1,0,0:0:0:0:
269,169,134203,5,0,0:0:0:0:
276,194,134289,1,2,0:0:0:0:
302,201,134375,1,0,0:0:0:0:
329,196,134461,1,0,0:0:0:0:
353,183,134547,1,0,0:0:0:0:
374,164,134634,1,2,0:0:0:0:
389,141,134720,1,0,0:0:0:0:
353,122,134806,5,0,0:0:0:0:
292,94,134892,1,0,0:0:0:0:
227,97,134978,1,2,0:0:0:0:
170,123,135064,1,0,0:0:0:0:
131,180,135150,1,0,0:0:0:0:
150,240,135237,6,0,L|191:263,3,37.5000014305115,0|2|0|0,0:0|0:0|0:0|0:0,0:0:0:0:
235,227,135582,5,0,0:0:0:0:
239,180,135668,1,2,0:0:0:0:
269,210,135754,1,0,0:0:0:0:
243,205,135841,5,0,0:0:0:0:
259,249,135927,1,0,0:0:0:0:
280,217,136013,1,2,0:0:0:0:
338,206,136099,5,0,0:0:0:0:
338,206,136185,1,0,0:0:0:0:
338,206,136272,1,0,0:0:0:0:
338,206,136358,1,2,0:0:0:0:
338,206,136444,1,0,0:0:0:0:
338,206,136530,1,0,0:0:0:0:
349,244,136616,5,0,0:0:0:0:
352,273,136702,1,2,0:0:0:0:
345,302,136788,1,0,0:0:0:0:
322,320,136874,1,0,0:0:0:0:
293,326,136960,1,0,0:0:0:0:
263,324,137047,1,2,0:0:0:0:
233,320,137133,1,0,0:0:0:0:
204,313,137219,1,0,0:0:0:0:
176,303,137305,1,0,0:0:0:0:
177,245,137392,6,0,L|161:237,5,18.7500007152558
145,216,137651,2,0,L|150:184,7,18.7500007152558
183,168,137996,2,0,L|211:152,7,18.7500007152558
242,150,138341,2,0,L|270:134,9,18.7500007152558
303,122,138772,6,0,B|325:52|413:130|413:130|275:226|424:233|386:273|295:343,1,400,4|0,0:0|0:0,0:0:0:0:
274,344,140237,1,0,0:0:0:0:
231,358,140323,1,0,0:0:0:0:
187,356,140409,1,0,0:0:0:0:
144,342,140495,1,8,0:0:0:0:
103,322,140581,1,0,0:0:0:0:
125,290,140668,1,8,0:0:0:0:
124,246,140754,1,0,0:0:0:0:
97,210,140840,1,8,0:0:0:0:
128,189,140926,1,8,0:0:0:0:
159,162,141013,1,8,0:0:0:0:
167,121,141099,1,8,0:0:0:0:
203,95,141185,1,4,0:0:0:0:
414,294,141530,5,8,0:0:0:0:
147,288,141703,1,0,0:0:0:0:
263,90,141875,1,8,0:0:0:0:
131,185,142047,1,0,0:0:0:0:
131,185,142134,1,0,0:0:0:0:
131,185,142220,1,8,0:0:0:0:
347,99,142392,6,0,B|449:135|343:175|343:175|421:246|320:283,1,200,0|8,0:0|0:0,0:0:0:0:
260,302,142737,1,0,0:0:0:0:
145,222,142909,2,0,B|74:192|74:192|156:147|104:91,2,200,8|0|8,0:0|0:0|0:0,0:0:0:0:
299,285,143427,2,0,B|372:287|393:268|393:268|343:198|422:187,1,200,0|8,0:0|0:0,0:0:0:0:
274,78,143772,1,0,0:0:0:0:
134,154,143944,1,8,0:0:0:0:
114,175,144030,1,0,0:0:0:0:
107,202,144116,1,0,0:0:0:0:
114,230,144202,1,0,0:0:0:0:
130,252,144289,6,0,B|143:305|143:305|175:199|260:226,1,200,8|0,0:0|0:0,0:0:0:0:
342,265,144634,2,0,B|435:242|435:242|374:208|431:148,1,200,8|0,0:0|0:0,0:0:0:0:
221,81,144978,2,0,B|122:106|122:106|162:171|212:183,1,200,8|0,0:0|0:0,0:0:0:0:
319,186,145323,2,0,B|280:278|399:288|424:340,2,200,8|0|8,0:0|0:0|0:0,0:0:0:0:
219,60,145841,1,0,0:0:0:0:
182,59,145927,1,0,0:0:0:0:
148,74,146013,1,8,0:0:0:0:
144,260,146185,5,0,0:0:0:0:
340,236,146358,1,8,0:0:0:0:
145,203,146530,1,0,0:0:0:0:
312,162,146703,2,0,B|355:126|355:126|419:171|396:71|486:89,2,200,8|0|8,0:0|0:0|0:0,0:0:0:0:
190,185,147220,5,0,0:0:0:0:
157,198,147306,1,0,0:0:0:0:
132,222,147392,1,8,0:0:0:0:
307,241,147565,1,0,0:0:0:0:
332,280,147651,1,0,0:0:0:0:
378,287,147737,1,8,0:0:0:0:
256,130,147909,1,0,0:0:0:0:
275,97,147996,1,0,0:0:0:0:
296,80,148082,1,8,0:0:0:0:
159,174,148254,6,0,B|112:215|41:187|41:187|11:147|51:148|-6:119,2,200,0|8|0,0:0|0:0|0:0,0:0:0:0:
294,192,148772,2,0,B|324:202|340:261|340:261|391:253|391:253|429:201,1,200,8|0,0:0|0:0,0:0:0:0:
285,105,149116,2,0,B|212:78|212:78|221:25|120:62|135:127,1,200,8|0,0:0|0:0,0:0:0:0:
138,151,149375,1,0,0:0:0:0:
163,181,149461,1,8,0:0:0:0:
173,216,149547,1,0,0:0:0:0:
149,251,149634,1,0,0:0:0:0:
193,252,149720,1,0,0:0:0:0:
165,230,149806,1,8,0:0:0:0:
331,291,149978,5,0,0:0:0:0:
381,169,150151,6,0,P|336:52|250:51,1,200,8|0,0:0|0:0,0:0:0:0:
381,169,150496,2,0,P|336:52|250:51,1,200,8|0,0:0|0:0,0:0:0:0:
113,158,150841,6,0,P|155:269|267:282,1,200,8|0,0:0|0:0,0:0:0:0:
113,158,151186,2,0,P|155:269|267:282,1,200,8|0,0:0|0:0,0:0:0:0:
376,149,151703,5,0,0:0:0:0:
159,140,152047,1,2,0:0:0:0:
150,164,152134,1,0,0:0:0:0:
183,160,152220,1,2,0:0:0:0:
159,140,152306,1,0,0:0:0:0:
183,160,152392,1,2,0:0:0:0:
150,164,152478,1,0,0:0:0:0:
233,207,152565,6,0,B|286:179|286:179|189:139|232:13|338:89,1,200,8|0,0:0|0:0,0:0:0:0:
385,142,152909,2,0,B|453:125|453:125|496:187|354:210|387:295,1,200,8|0,0:0|0:0,0:0:0:0:
233,207,153254,2,0,B|180:179|73:97|203:93|203:93|174:69,1,200,8|0,0:0|0:0,0:0:0:0:
228,100,153513,1,0,0:0:0:0:
212,68,153599,1,8,0:0:0:0:
376,171,153772,6,0,B|285:232|285:232|369:253|369:253|387:275,1,200,0|8,0:0|0:0,0:0:0:0:
118,297,154116,2,0,B|216:258|216:258|109:236|152:216,1,200,0|8,0:0|0:0,0:0:0:0:
201,64,154461,2,0,B|279:22|279:22|313:61|313:61|325:90|264:140,1,200,0|8,0:0|0:0,0:0:0:0:
121,182,154806,1,0,0:0:0:0:
270,289,154978,1,8,0:0:0:0:
255,89,155151,1,0,0:0:0:0:
231,60,155237,1,0,0:0:0:0:
271,58,155323,1,8,0:0:0:0:
119,281,155496,5,0,0:0:0:0:
154,253,155582,1,0,0:0:0:0:
172,208,155668,1,8,0:0:0:0:
306,132,155841,1,0,0:0:0:0:
342,113,155927,1,0,0:0:0:0:
396,111,156013,1,8,0:0:0:0:
204,99,156185,5,0,0:0:0:0:
192,128,156272,1,0,0:0:0:0:
228,125,156358,1,8,0:0:0:0:
198,113,156444,1,0,0:0:0:0:
225,131,156530,1,0,0:0:0:0:
185,152,156616,1,0,0:0:0:0:
192,193,156703,2,0,B|135:260|64:237|64:237|130:316|153:300,1,200,8|0,0:0|0:0,0:0:0:0:
235,307,157047,1,8,0:0:0:0:
354,175,157220,6,0,B|303:198|303:198|312:124|220:114|183:216,1,200,0|8,0:0|0:0,0:0:0:0:
105,105,157565,2,0,P|18:173|125:231,1,200,0|8,0:0|0:0,0:0:0:0:
105,105,157909,2,0,P|42:162|120:258,1,200,0|8,0:0|0:0,0:0:0:0:
348,245,158254,1,0,0:0:0:0:
209,96,158427,1,8,0:0:0:0:
247,332,158599,1,0,0:0:0:0:
394,127,158772,1,8,0:0:0:0:
150,214,158944,6,0,B|96:200|96:200|119:106|223:117,1,200,0|8,0:0|0:0,0:0:0:0:
347,238,159289,2,0,B|421:207|421:207|325:162|462:112,2,200,0|8|0,0:0|0:0|0:0,0:0:0:0:
156,261,159806,2,0,B|93:229|91:154|91:154|192:143,1,200,8|0,0:0|0:0,0:0:0:0:
136,283,160151,2,0,B|93:229|91:154|91:154|179:102,1,200,8|0,0:0|0:0,0:0:0:0:
171,111,160409,1,0,0:0:0:0:
203,116,160496,1,8,0:0:0:0:
351,102,160668,1,0,0:0:0:0:
326,290,160841,6,0,B|267:229|267:229|246:314|138:265|138:265|191:197|111:175|111:175|96:100,1,400,8|8,0:0|0:0,0:0:0:0:
285,73,161358,1,0,0:0:0:0:
426,201,161530,1,8,0:0:0:0:
238,166,161703,1,0,0:0:0:0:
111,285,161875,1,8,0:0:0:0:
94,267,161961,1,0,0:0:0:0:
126,260,162047,1,0,0:0:0:0:
156,104,162220,6,0,B|191:46|191:46|258:27|226:94|324:88,1,200,8|0,0:0|0:0,0:0:0:0:
222,171,162737,5,0,0:0:0:0:
312,264,162909,1,8,0:0:0:0:
177,287,163082,1,0,0:0:0:0:
203,116,163254,6,0,B|167:156|167:156|162:212,1,100,8|0,0:0|0:0,0:0:0:0:
246,168,163427,2,0,B|288:150|288:150|348:186,1,100
339,67,163599,6,0,B|414:53|452:147|452:147|368:155|476:247|476:247|384:278|384:278|342:276,1,400,0|12,0:0|0:0,0:0:0:0:
157,241,164116,6,0,P|137:175|235:131,1,150.000005722046,0|8,0:0|0:0,0:0:0:0:
290,190,164461,2,0,P|363:142|350:75,1,150.000005722046,0|8,0:0|0:0,0:0:0:0:
322,202,164806,2,0,P|363:142|326:75,1,150.000005722046,0|8,0:0|0:0,0:0:0:0:
112,203,165151,6,0,B|168:146|168:146|204:112|263:157,1,150.000005722046,0|8,0:0|0:0,0:0:0:0:
129,260,165496,2,0,B|185:203|185:203|221:169|280:214,1,150.000005722046,0|8,0:0|0:0,0:0:0:0:
128,138,165841,2,0,B|184:81|184:81|220:47|279:92,1,150.000005722046,0|8,0:0|0:0,0:0:0:0:
362,213,166185,6,0,B|403:166|403:166|316:153|330:90,1,150.000005722046,0|8,0:0|0:0,0:0:0:0:
229,298,166530,2,0,B|161:268|177:208|177:208|117:177,1,150.000005722046,0|8,0:0|0:0,0:0:0:0:
153,54,166875,2,0,B|221:22|221:22|178:110|282:94,1,150.000005722046,0|8,0:0|0:0,0:0:0:0:
226,288,167220,6,0,P|134:253|95:276,1,150.000005722046,0|8,0:0|0:0,0:0:0:0:
194,226,167565,2,0,P|250:186|350:191,1,150.000005722046,0|8,0:0|0:0,0:0:0:0:
119,121,167909,2,0,P|217:140|269:176,1,150.000005722046,0|8,0:0|0:0,0:0:0:0:
375,103,168254,6,0,B|281:80|281:80|186:109,1,150.000005722046,0|8,0:0|0:0,0:0:0:0:
86,171,168599,2,0,B|198:206|198:206|278:167,1,150.000005722046,0|8,0:0|0:0,0:0:0:0:
422,205,168944,2,0,B|316:158|316:158|246:158,1,150.000005722046,0|8,0:0|0:0,0:0:0:0:
83,92,169289,2,0,B|180:80|180:80|261:108,1,150.000005722046,0|8,0:0|0:0,0:0:0:0:
177,214,169634,5,0,0:0:0:0:
432,289,169806,1,8,0:0:0:0:
298,83,169978,1,0,0:0:0:0:
360,330,170151,1,8,0:0:0:0:
198,137,170323,1,0,0:0:0:0:
417,109,170496,1,8,0:0:0:0:
246,268,170668,2,0,B|194:288|194:288|142:263|209:209,1,150.000005722046,0|8,0:0|0:0,0:0:0:0:
371,126,171013,2,0,B|404:60|404:60|378:27|312:68,1,150.000005722046,0|8,0:0|0:0,0:0:0:0:
193,142,171358,5,0,0:0:0:0:
356,251,171530,1,8,0:0:0:0:
373,71,171703,1,0,0:0:0:0:
201,294,171875,1,8,0:0:0:0:
193,85,172047,5,0,0:0:0:0:
168,122,172133,1,0,0:0:0:0:
161,167,172219,1,2,0:0:0:0:
175,211,172305,1,0,0:0:0:0:
204,246,172391,1,0,0:0:0:0:
242,270,172478,1,0,0:0:0:0:
287,281,172564,1,2,0:0:0:0:
332,276,172650,5,0,0:0:0:0:
365,246,172736,1,0,0:0:0:0:
360,202,172822,1,0,0:0:0:0:
332,166,172909,1,2,0:0:0:0:
290,168,172995,1,0,0:0:0:0:
260,165,173081,1,0,0:0:0:0:
263,119,173167,1,0,0:0:0:0:
262,75,173254,5,2,0:0:0:0:
234,60,173340,1,0,0:0:0:0:
203,52,173426,1,0,0:0:0:0:
172,54,173512,1,0,0:0:0:0:
142,63,173598,1,2,0:0:0:0:
116,80,173685,1,0,0:0:0:0:
95,104,173771,1,0,0:0:0:0:
81,132,173857,1,0,0:0:0:0:
75,163,173943,5,2,0:0:0:0:
78,194,174029,1,0,0:0:0:0:
88,224,174116,1,2,0:0:0:0:
106,249,174202,1,0,0:0:0:0:
131,269,174288,1,2,0:0:0:0:
159,282,174374,1,0,0:0:0:0:
190,287,174460,1,2,0:0:0:0:
221,285,174547,1,4,0:0:0:0:
256,192,174634,12,4,177392,0:0:0:0:
