osu file format v14

[General]
AudioFilename: iwytn.mp3
AudioLeadIn: 0
PreviewTime: 193902
Countdown: 0
SampleSet: Soft
StackLeniency: 0.7
Mode: 0
LetterboxInBreaks: 1
WidescreenStoryboard: 0

[Editor]
Bookmarks: 144517
DistanceSpacing: 1
BeatDivisor: 4
GridSize: 4
TimelineZoom: 1

[Metadata]
Title:I Want You To Know (feat. Selena Gomez)
TitleUnicode:I Want You To Know (feat. Selena Gomez)
Artist:Zedd
ArtistUnicode:Zedd
Creator:Tari
Version:Normal
Source:
Tags:electric electronic dj electronica true colors ryan tedder electropop edm color ft.
BeatmapID:782275
BeatmapSetID:355300

[Difficulty]
HPDrainRate:3
CircleSize:3
OverallDifficulty:4
ApproachRate:4
SliderMultiplier:1.1
SliderTickRate:1

[Events]
//Background and Video events
0,0,"1234.png",0,0
//Break Periods
2,112409,116889
//Storyboard Layer 0 (Background)
//Storyboard Layer 1 (Fail)
//Storyboard Layer 2 (Pass)
//Storyboard Layer 3 (Foreground)
//Storyboard Sound Samples

[TimingPoints]
56,461.538461538462,4,2,0,60,1,0
22209,-100,4,2,0,65,0,0
53132,-100,4,2,1,70,0,0
68363,-100,4,2,0,75,0,0
79440,-100,4,2,0,76,0,0
80132,-100,4,2,0,78,0,0
80825,-100,4,2,0,79,0,0
81286,-100,4,2,1,80,0,0
83132,-100,4,1,2,80,0,1
83248,-100,4,2,2,80,0,1
96056,-100,4,1,1,65,0,1
97902,-100,4,1,2,80,0,1
98017,-100,4,2,2,80,0,1
112671,-133.333333333333,4,2,0,40,0,0
120056,-100,4,2,0,70,0,0
149132,-133.333333333333,4,2,0,60,0,0
149594,-100,4,2,1,75,0,0
164363,-100,4,2,1,77,0,0
179132,-100,4,2,1,80,0,0
190209,-100,4,2,0,76,0,0
190902,-100,4,2,0,78,0,0
191825,-100,4,2,0,79,0,0
192056,-100,4,2,1,80,0,0
193902,-100,4,2,2,80,0,1
206825,-100,4,1,1,75,0,1
208671,-100,4,2,2,85,0,1
230363,-133.333333333333,4,2,0,30,0,1
230825,-100,4,2,2,70,0,1
234517,-100,4,2,1,50,0,0
237748,-100,4,2,1,20,0,0

[Colours]
Combo1 : 255,203,45
Combo2 : 255,126,64
Combo3 : 53,145,255
Combo4 : 236,0,118

[HitObjects]
256,192,7440,5,4,0:3:0:0:
60,96,8363,2,0,B|44:168|44:168|76:220|76:220|56:308,1,220,2|2,0:0|0:0,0:0:0:0:
272,352,10209,2,0,P|280:292|268:244,1,110,0|0,0:0|0:0,0:0:0:0:
168,204,11132,5,2,0:0:0:0:
168,204,11363,2,0,P|156:152|172:84,1,110,0|2,0:0|0:0,0:0:0:0:
256,40,12286,2,0,L|368:32,1,110,2|0,0:0|0:0,0:0:0:0:
420,32,12979,2,0,P|476:68|488:164,2,165,8|2|0,0:3|0:0|0:0,0:0:0:0:
388,136,14825,5,2,0:0:0:0:
388,136,15056,1,2,0:0:0:0:
356,296,15748,2,0,B|256:332|256:332|136:296,1,220,2|2,0:0|0:0,0:0:0:0:
64,88,17594,2,0,P|52:152|64:200,1,110,2|0,0:0|0:0,0:0:0:0:
156,140,18517,5,2,0:0:0:0:
156,140,18748,2,0,L|272:140,1,110,2|2,0:0|0:0,0:0:0:0:
328,232,19671,2,0,L|218:232,1,110,2|0,0:0|0:0,0:0:0:0:
164,236,20363,2,0,P|160:304|252:348,2,165,2|2|0,0:0|0:0|0:0,0:0:0:0:
244,152,22209,6,0,P|256:100|240:40,1,110,6|8,0:0|0:0,0:0:0:0:
148,104,23132,2,0,P|96:92|36:108,1,110,0|8,0:0|0:0,0:0:0:0:
92,204,24056,6,0,P|80:256|96:316,1,110,2|8,0:0|0:0,0:0:0:0:
140,336,24748,1,2,0:0:0:0:
188,356,24979,2,0,P|244:364|304:352,1,110,0|8,0:0|0:0,0:0:0:0:
408,352,25902,1,2,0:0:0:0:
476,268,26363,1,8,0:0:0:0:
368,260,26825,6,0,P|376:200|364:144,1,110,0|8,0:0|0:0,0:0:0:0:
420,56,27748,2,0,P|360:48|304:60,1,110,2|8,0:0|0:0,0:0:0:0:
200,57,28671,2,0,P|146:47|92:56,1,110,2|8,0:0|0:0,0:0:0:0:
145,151,29594,6,0,P|135:205|144:260,1,110,2|8,0:0|0:0,0:0:0:0:
240,316,30517,1,2,0:0:0:0:
348,292,30979,1,8,0:0:0:0:
440,232,31440,6,0,P|450:286|441:341,2,110,2|8|0,0:0|0:0|0:0,0:0:0:0:
412,124,32825,1,8,0:0:0:0:
340,40,33286,1,2,0:0:0:0:
292,140,33748,2,0,L|292:200,1,55,8|2,0:0|0:0,0:0:0:0:
288,248,34209,6,0,P|236:280|184:284,1,110,0|8,0:0|0:0,0:0:0:0:
204,176,35132,2,0,P|172:124|168:72,1,110,2|8,0:0|0:0,0:0:0:0:
276,96,36056,2,0,P|328:64|380:60,1,110,2|8,0:0|0:0,0:0:0:0:
360,168,36979,6,0,P|392:220|396:272,1,110,4|8,0:0|0:0,0:0:0:0:
320,348,37902,1,0,0:0:0:0:
256,260,38363,1,8,0:0:0:0:
196,352,38825,6,0,P|128:336|104:296,1,110,2|8,0:0|0:0,0:0:0:0:
96,252,39517,1,2,0:0:0:0:
100,196,39748,2,0,L|112:68,1,110,0|8,0:0|0:0,0:0:0:0:
216,52,40671,6,0,L|205:161,1,110,4|8,0:3|0:0,0:0:0:0:
256,260,41594,2,0,L|260:320,2,55,0|2|8,0:0|0:0|0:0,0:0:0:0:
348,200,42517,5,4,0:3:0:0:
456,192,42979,1,8,0:0:0:0:
460,300,43440,1,0,0:0:0:0:
352,308,43902,1,8,0:0:0:0:
256,260,44363,6,0,P|212:252|140:264,1,110,2|8,0:0|0:0,0:0:0:0:
52,316,45286,2,0,P|40:252|56:192,1,110,0|8,0:0|0:0,0:0:0:0:
124,128,46209,5,2,0:0:0:0:
224,84,46671,2,0,L|220:28,2,55,8|2|0,0:0|0:0|0:0,0:0:0:0:
260,188,47594,1,8,0:0:0:0:
300,292,48056,6,0,P|356:300|408:284,1,110,4|8,3:0|0:0,0:0:0:0:
460,188,48979,2,0,L|448:72,2,110,0|8|2,0:0|0:0|0:0,0:0:0:0:
492,292,50363,1,8,0:0:0:0:
256,192,50825,12,10,53594,0:0:0:0:
52,52,54517,5,10,0:0:0:0:
144,104,54979,1,8,0:0:0:0:
68,184,55440,2,0,L|56:304,1,110,10|8,0:0|0:0,0:0:0:0:
148,352,56363,2,0,L|158:242,1,110,8|8,0:0|0:0,0:0:0:0:
244,172,57286,6,0,B|280:204|280:204|344:204,1,110,10|8,0:0|0:0,0:0:0:0:
352,96,58209,2,0,B|316:64|316:64|252:64,1,110,8|8,0:0|0:0,0:0:0:0:
152,108,59132,6,0,L|84:100,2,55,10|0|8,0:0|0:0|0:0,0:0:0:0:
244,172,60056,1,8,0:0:0:0:
144,216,60517,1,8,0:0:0:0:
188,316,60979,6,0,P|232:308|304:320,1,110,10|8,0:0|0:0,0:0:0:0:
400,348,61902,1,8,0:0:0:0:
468,264,62363,1,10,0:0:0:0:
364,232,62825,6,0,P|368:176|388:124,1,110,10|8,0:0|0:0,0:0:0:0:
412,76,63517,1,2,0:0:0:0:
436,28,63748,2,0,L|300:20,1,110,8|10,0:0|0:0,0:0:0:0:
244,96,64671,6,0,L|134:102,1,110,10|8,0:0|0:0,0:0:0:0:
28,72,65594,2,0,L|24:16,2,55,8|2|8,0:0|0:0|0:0,0:0:0:0:
64,176,66517,6,0,B|76:228|76:228|68:288,1,110,10|8,0:0|0:0,0:0:0:0:
168,336,67440,1,8,0:0:0:0:
256,268,67902,1,8,0:0:0:0:
340,340,68363,6,0,P|392:352|448:336,1,110,6|0,1:0|1:0,0:0:0:0:
500,244,69286,2,0,P|448:232|392:248,1,110,2|0,1:0|1:0,0:0:0:0:
344,268,69979,1,0,0:0:0:0:
292,284,70209,6,0,P|284:232|296:164,1,110,2|0,1:0|1:0,0:0:0:0:
380,112,71132,1,2,1:0:0:0:
292,44,71594,1,0,1:0:0:0:
196,100,72056,6,0,L|120:92,2,55,2|0|0,1:0|2:1|1:0,0:0:0:0:
200,212,72979,2,0,P|208:266|200:320,1,110,2|0,1:0|1:0,0:0:0:0:
92,348,73902,5,2,1:0:0:0:
40,252,74363,2,0,P|31:197|39:143,1,110,0|2,1:0|1:0,0:0:0:0:
144,108,75286,2,0,L|156:168,1,55,0|0,1:0|0:0,0:0:0:0:
192,204,75748,6,0,L|312:200,1,110,2|2,1:0|1:0,0:0:0:0:
264,304,76671,2,0,L|384:300,1,110,2|2,1:0|1:0,0:0:0:0:
472,256,77594,5,2,1:0:0:0:
472,144,78056,1,2,1:0:0:0:
376,196,78517,1,2,1:0:0:0:
376,84,78979,1,2,1:0:0:0:
256,192,79440,12,2,81286,1:0:0:0:
144,52,82671,21,0,1:0:0:0:
12,44,83132,38,0,P|-4:92|16:164,1,110,4|8,1:0|0:0,0:0:0:0:
96,212,84056,2,0,P|152:220|216:208,1,110,2|8,1:0|0:0,0:0:0:0:
208,160,84748,1,0,0:0:0:0:
200,104,84979,6,0,P|256:92|320:104,1,110,2|8,1:1|0:0,0:0:0:0:
376,184,85902,1,2,1:0:0:0:
288,252,86363,2,0,P|251:253|208:252,1,55,8|0,0:0|0:0,0:0:0:0:
180,244,86825,6,0,P|164:300|196:368,1,110,2|8,1:0|0:0,0:0:0:0:
288,356,87748,1,2,1:0:0:0:
396,336,88209,1,10,0:0:0:0:
496,288,88671,6,0,P|504:328|508:360,2,55,2|2|8,1:0|0:0|0:0,0:0:0:0:
400,232,89594,2,0,P|392:176|400:120,1,110,2|10,1:0|0:0,0:0:0:0:
421,73,90286,1,2,0:0:0:0:
436,20,90517,6,0,L|308:16,1,110,6|8,1:0|0:0,0:0:0:0:
216,60,91440,2,0,L|212:188,1,110,2|8,1:0|0:0,0:0:0:0:
232,224,92132,1,2,0:0:0:0:
260,272,92363,6,0,L|388:276,1,110,2|8,1:0|0:0,0:0:0:0:
456,204,93286,2,0,L|460:76,1,110,2|8,1:0|0:0,0:0:0:0:
360,48,94209,5,2,1:0:0:0:
288,132,94671,2,0,B|296:188|296:188|284:241,1,110,8|2,0:0|1:0,0:0:0:0:
236,268,95363,2,0,B|232:304|232:304|240:340,1,55,2|10,0:0|0:0,0:0:0:0:
132,344,96056,5,8,0:0:0:0:
84,244,96517,1,8,0:0:0:0:
41,143,96979,2,0,L|33:83,2,55
148,172,97902,6,0,P|200:184|264:168,1,110,6|8,1:0|0:0,0:0:0:0:
316,80,98825,1,2,1:0:0:0:
420,120,99286,1,8,0:0:0:0:
372,220,99748,6,0,B|360:272|360:272|376:336,1,110,2|8,1:0|0:0,0:0:0:0:
420,352,100440,1,0,0:0:0:0:
468,324,100671,2,0,B|480:272|480:272|464:208,1,110,2|8,1:0|0:0,0:0:0:0:
420,120,101594,5,2,1:0:0:0:
312,92,102056,1,8,0:0:0:0:
204,104,102517,1,2,1:0:0:0:
116,168,102979,1,8,0:0:0:0:
76,272,103440,6,0,L|88:332,2,55,2|2|8,1:0|0:0|0:0,0:0:0:0:
4,188,104363,2,0,P|-8:132|12:68,1,110,2|10,1:0|0:0,0:0:0:0:
56,56,105056,1,2,0:0:0:0:
112,40,105286,6,0,P|165:27|218:39,1,110,2|8,1:0|0:0,0:0:0:0:
300,112,106209,2,0,P|312:165|300:218,1,110,2|8,1:0|0:0,0:0:0:0:
252,244,106902,1,0,0:0:0:0:
208,276,107132,6,0,P|154:288|101:276,1,110,2|8,1:0|0:0,0:0:0:0:
156,180,108056,1,2,1:0:0:0:
256,132,108517,2,0,L|256:64,1,55,8|0,0:0|0:0,0:0:0:0:
312,76,108979,6,0,P|316:132|312:200,1,110,2|8,1:0|0:0,0:0:0:0:
200,186,109902,2,0,P|196:132|200:76,1,110,2|10,1:0|0:0,0:0:0:0:
96,44,110825,6,0,L|40:44,2,55,2|2|8,1:0|0:0|0:0,0:0:0:0:
80,152,111748,1,2,1:0:0:0:
68,260,112209,1,10,1:2:0:0:
256,192,118209,12,4,120056,0:0:0:0:
236,312,120979,6,0,P|208:348|144:364,1,110,0|8,1:0|0:0,0:0:0:0:
152,256,121902,2,0,P|106:261|50:227,1,110,0|8,1:0|0:0,0:0:0:0:
116,140,122825,2,0,P|80:112|64:48,1,110,0|8,1:0|0:0,0:0:0:0:
172,48,123748,1,0,1:0:0:0:
264,108,124209,1,8,0:0:0:0:
364,156,124671,6,0,L|412:192,2,55,0|2|8,1:0|0:0|0:0,0:0:0:0:
284,232,125594,2,0,L|304:288,2,55,0|2|8,1:0|0:0|0:0,0:0:0:0:
188,288,126517,2,0,L|191:347,2,55,0|2|8,1:0|0:0|0:0,0:0:0:0:
104,220,127440,6,0,P|96:160|116:104,1,110,0|8,1:0|0:0,0:0:0:0:
212,56,128363,1,0,1:0:0:0:
296,128,128825,1,8,0:0:0:0:
368,208,129286,6,0,B|352:256|352:256|356:317,2,110,0|8|0,1:0|0:0|1:0,0:0:0:0:
468,160,130671,2,0,L|456:50,1,110,8|0,0:0|1:0,0:0:0:0:
352,80,131594,1,8,0:0:0:0:
240,80,132056,6,0,L|180:56,2,55,0|2|8,1:0|0:0|0:0,0:0:0:0:
284,180,132979,2,0,L|344:204,2,55,0|2|8,1:0|0:0|0:0,0:0:0:0:
192,240,133902,2,0,L|132:216,2,55,0|2|8,1:0|0:0|0:0,0:0:0:0:
292,288,134825,6,0,B|336:328|336:328|388:336,1,110,4|8,0:0|0:0,0:0:0:0:
388,228,135748,1,0,1:0:0:0:
436,128,136209,1,8,0:0:0:0:
380,36,136671,6,0,P|328:24|272:40,1,110,0|8,1:0|0:0,0:0:0:0:
240,144,137594,2,0,P|187:158|134:146,1,110,0|8,1:0|0:0,0:0:0:0:
80,148,138286,1,2,0:0:0:0:
60,200,138517,6,0,P|48:268|60:316,1,110,0|8,1:0|0:0,0:0:0:0:
152,356,139440,1,0,1:0:0:0:
240,292,139902,2,0,L|240:224,1,55,8|2,0:0|0:0,0:0:0:0:
204,196,140363,5,0,1:0:0:0:
172,92,140825,1,8,0:0:0:0:
280,120,141286,1,0,1:0:0:0:
384,88,141748,1,8,0:0:0:0:
484,128,142209,6,0,L|480:244,1,110,0|8,1:0|0:0,0:0:0:0:
432,336,143132,2,0,L|508:344,2,55,0|0|8,1:0|0:0|0:0,0:0:0:0:
340,272,144056,5,0,1:0:0:0:
252,336,144517,1,8,0:0:0:0:
176,256,144979,2,0,P|168:180|184:132,1,110,0|8,1:0|0:0,0:0:0:0:
276,104,145902,6,0,L|388:116,1,110,0|8,1:0|0:0,0:0:0:0:
372,224,146825,2,0,L|262:212,1,110,0|8,1:0|0:0,0:0:0:0:
176,148,147748,5,8,0:3:0:0:
84,208,148209,2,0,P|73:261|83:315,2,110,0|0|8,0:0|0:0|0:0,0:0:0:0:
176,148,149594,5,10,0:0:0:0:
256,72,150056,1,8,0:0:0:0:
332,148,150517,1,8,0:0:0:0:
312,256,150979,1,8,0:0:0:0:
204,256,151440,6,0,P|188:304|204:368,1,110,10|8,0:0|0:0,0:0:0:0:
252,348,152132,1,0,0:0:0:0:
307,360,152363,2,0,P|324:309|312:256,1,110,10|8,0:0|0:0,0:0:0:0:
256,160,153286,6,0,L|256:100,2,55,10|2|8,0:0|0:0|0:0,0:0:0:0:
311,255,154209,2,0,P|367:263|423:251,1,110,8|8,0:0|0:0,0:0:0:0:
456,216,154902,1,0,0:0:0:0:
496,184,155132,6,0,B|504:244|504:244|496:296,1,110,10|8,0:0|0:0,0:0:0:0:
408,352,156056,1,8,0:0:0:0:
296,340,156517,1,8,0:0:0:0:
192,320,156979,6,0,P|176:264|192:208,1,110,10|8,0:0|0:0,0:0:0:0:
288,160,157902,2,0,P|299:106|284:54,1,110,8|8,0:0|0:0,0:0:0:0:
192,116,158825,5,10,0:0:0:0:
152,220,159286,1,8,0:0:0:0:
252,264,159748,2,0,L|372:252,1,110,10|8,0:0|0:0,0:0:0:0:
452,192,160671,6,0,L|440:72,1,110,2|8,0:0|0:0,0:0:0:0:
336,48,161594,2,0,L|216:60,1,110,8|8,0:0|0:0,0:0:0:0:
172,64,162286,1,0,0:0:0:0:
116,72,162517,6,0,P|108:128|128:180,1,110,10|8,0:0|0:0,0:0:0:0:
220,232,163440,1,8,0:0:0:0:
156,324,163902,2,0,L|212:332,1,55,8|0,0:0|0:0,0:0:0:0:
264,336,164363,6,0,L|388:328,1,110,4|8,0:3|0:0,0:0:0:0:
328,228,165286,2,0,L|452:220,1,110,8|8,0:0|0:0,0:0:0:0:
396,120,166209,2,0,L|520:112,2,110,10|8|8,0:0|0:0|0:0,0:0:0:0:
296,72,167594,1,8,0:0:0:0:
192,108,168056,6,0,L|200:220,1,110,8|8,0:0|0:0,0:0:0:0:
304,188,168979,2,0,L|311:297,1,110,8|8,0:0|0:0,0:0:0:0:
352,332,169671,1,0,0:0:0:0:
404,356,169902,6,0,P|456:364|512:348,1,110,10|8,0:0|0:0,0:0:0:0:
512,240,170825,2,0,P|460:232|403:248,1,110,8|8,0:0|0:0,0:0:0:0:
304,288,171748,6,0,L|308:356,2,55,10|2|8,0:0|0:0|0:0,0:0:0:0:
208,232,172671,2,0,P|200:176|216:108,1,110,10|8,0:0|0:0,0:0:0:0:
296,56,173594,5,10,0:0:0:0:
388,120,174056,1,8,0:0:0:0:
476,184,174517,1,8,0:0:0:0:
380,240,174979,1,10,0:0:0:0:
284,292,175440,6,0,B|228:276|228:276|168:300,1,110,10|8,0:0|0:0,0:0:0:0:
80,344,176363,1,8,0:0:0:0:
20,252,176825,1,8,0:0:0:0:
124,216,177286,6,0,L|204:132,1,110,10|8,0:0|0:0,0:0:0:0:
312,136,178209,2,0,L|388:216,1,110,8|8,0:0|0:0,0:0:0:0:
308,292,179132,6,0,L|188:292,1,110,2|0,1:0|1:0,0:0:0:0:
96,248,180056,1,2,1:0:0:0:
64,144,180517,2,0,L|60:88,1,55,0|0,1:0|0:0,0:0:0:0:
96,48,180979,6,0,P|144:64|168:128,1,110,2|0,1:0|1:0,0:0:0:0:
272,148,181902,2,0,P|252:196|192:220,1,110,2|0,1:0|1:0,0:0:0:0:
168,324,182825,2,0,P|120:296|96:244,2,110,2|0|2,1:0|1:0|1:0,0:0:0:0:
276,300,184209,1,0,1:0:0:0:
376,348,184671,6,0,P|384:288|364:228,1,110,2|0,1:0|1:0,0:0:0:0:
472,192,185594,2,0,P|432:152|372:132,1,110,2|0,1:0|1:0,0:0:0:0:
384,28,186517,6,0,P|328:40|280:81,1,110,2|2,1:0|1:0,0:0:0:0:
184,24,187440,2,0,P|174:79|192:140,1,110,2|2,1:0|1:0,0:0:0:0:
272,208,188363,5,2,1:0:0:0:
272,320,188825,1,2,1:0:0:0:
176,264,189286,1,2,1:0:0:0:
272,208,189748,1,2,1:0:0:0:
256,192,190209,12,2,192056,1:0:0:0:
416,348,193440,21,0,0:0:0:0:
500,280,193902,38,0,P|508:208|492:164,1,110,4|8,1:0|0:0,0:0:0:0:
460,68,194825,2,0,P|388:60|344:76,1,110,2|8,1:0|0:0,0:0:0:0:
308,100,195517,1,0,0:0:0:0:
272,136,195748,6,0,P|256:192|272:240,1,110,2|8,1:0|0:0,0:0:0:0:
356,308,196671,1,2,1:0:0:0:
248,332,197132,2,0,L|184:328,1,55,8|0,0:0|0:0,0:0:0:0:
140,324,197594,6,0,P|88:324|40:292,1,110,2|8,1:0|0:0,0:0:0:0:
36,176,198517,1,2,1:0:0:0:
128,116,198979,1,10,0:0:0:0:
224,60,199440,6,0,L|268:96,2,55,2|2|8,1:0|0:0|0:0,0:0:0:0:
128,116,200363,2,0,L|216:188,1,110,2|10,1:0|0:0,0:0:0:0:
252,224,201056,1,2,0:0:0:0:
300,252,201286,6,0,P|284:308|232:328,1,110,2|8,1:0|0:0,0:0:0:0:
128,324,202209,2,0,P|80:299|68:247,1,110,2|8,1:0|0:0,0:0:0:0:
68,136,203132,6,0,P|80:84|128:60,1,110,2|8,1:0|0:0,0:0:0:0:
240,68,204056,2,0,P|276:76|292:92,2,55,2|2|8,1:0|0:0|0:0,0:0:0:0:
216,176,204979,1,2,1:0:0:0:
324,188,205440,2,0,P|376:148|388:96,2,110,8|2|8,0:0|1:0|0:0,0:0:0:0:
216,176,206825,5,8,0:0:0:0:
136,252,207286,1,8,0:0:0:0:
48,316,207748,2,0,L|64:380,2,55
48,196,208671,6,0,P|44:136|60:76,1,110,4|8,1:0|0:0,0:0:0:0:
156,44,209594,1,2,1:0:0:0:
256,88,210056,1,8,0:0:0:0:
348,144,210517,6,0,B|400:136|400:136|456:144,1,110,2|8,1:0|0:0,0:0:0:0:
492,188,211209,1,0,0:0:0:0:
460,232,211440,2,0,B|404:240|404:240|352:232,1,110,2|8,1:0|0:0,0:0:0:0:
252,188,212363,5,2,1:0:0:0:
176,268,212825,1,8,0:0:0:0:
256,344,213286,1,2,1:0:0:0:
336,268,213748,1,8,0:0:0:0:
400,176,214209,6,0,L|392:120,2,55,2|2|8,1:0|0:0|0:0,0:0:0:0:
452,272,215132,2,0,L|460:327,2,55,2|2|10,1:0|0:0|0:0,0:0:0:0:
344,280,216056,6,0,L|220:288,1,110,2|8,1:0|0:0,0:0:0:0:
148,348,216979,1,2,1:0:0:0:
40,320,217440,2,0,L|44:260,1,55,8|2,0:0|0:0,0:0:0:0:
92,236,217902,6,0,L|76:124,1,110,2|8,1:0|0:0,0:0:0:0:
120,24,218825,1,2,1:0:0:0:
220,72,219286,1,8,0:0:0:0:
312,132,219748,6,0,L|300:248,1,110,2|8,1:0|0:0,0:0:0:0:
404,208,220671,2,0,L|416:92,1,110,2|8,1:0|0:0,0:0:0:0:
328,32,221594,5,2,1:0:0:0:
228,80,222056,1,8,0:0:0:0:
128,128,222517,1,2,1:0:0:0:
32,180,222979,1,0,1:0:0:0:
108,260,223440,6,0,L|224:252,1,110,2|8,1:0|0:0,0:0:0:0:
332,264,224363,2,0,L|324:332,2,55,2|0|8,1:0|0:0|0:0,0:0:0:0:
292,160,225286,6,0,L|300:92,2,55,2|2|8,1:0|0:0|0:0,0:0:0:0:
200,220,226209,2,0,P|140:228|84:208,1,110,2|8,1:0|0:0,0:0:0:0:
148,116,227132,5,2,1:0:0:0:
256,124,227594,2,0,P|316:116|372:135,1,110,8|2,0:0|1:0,0:0:0:0:
300,220,228517,2,0,L|296:280,1,55,8|0,0:0|0:0,0:0:0:0:
320,324,228979,6,0,L|440:320,1,110,2|8,1:0|0:0,0:0:0:0:
396,216,229902,2,0,L|456:112,1,110,2|0,1:0|0:0,0:0:0:0:
340,124,230825,6,0,L|328:8,1,110,2|8,1:0|0:0,0:0:0:0:
244,84,231748,2,0,L|192:56,2,55,2|2|8,1:0|0:0|0:0,0:0:0:0:
180,176,232671,5,2,1:0:0:0:
148,280,233132,1,8,0:0:0:0:
252,248,233594,1,2,1:0:0:0:
224,356,234056,1,8,0:0:0:0:
328,324,234517,6,0,L|384:320,1,55,2|2,0:0|0:0,0:0:0:0:
488,352,235209,2,0,P|504:308|492:240,1,110,2|2,0:0|0:0,0:0:0:0:
396,108,236363,6,0,P|344:136|236:140,2,165,2|2|0,0:0|0:0|0:0,0:0:0:0:
488,48,238209,1,0,0:0:0:0:
