osu file format v14

[General]
AudioFilename: iwytn.mp3
AudioLeadIn: 0
PreviewTime: 193902
Countdown: 0
SampleSet: Soft
StackLeniency: 0.7
Mode: 0
LetterboxInBreaks: 1
WidescreenStoryboard: 0

[Editor]
Bookmarks: 144517
DistanceSpacing: 0.7
BeatDivisor: 4
GridSize: 4
TimelineZoom: 1

[Metadata]
Title:I Want You To Know (feat. Selena Gomez)
TitleUnicode:I Want You To Know (feat. Selena Gomez)
Artist:Zedd
ArtistUnicode:Zedd
Creator:Tari
Version:Insane
Source:
Tags:electric electronic dj electronica true colors ryan tedder electropop edm color ft.
BeatmapID:782276
BeatmapSetID:355300

[Difficulty]
HPDrainRate:6
CircleSize:4
OverallDifficulty:7
ApproachRate:8.2
SliderMultiplier:1.6
SliderTickRate:2

[Events]
//Background and Video events
0,0,"1234.png",0,0
//Break Periods
//Storyboard Layer 0 (Background)
//Storyboard Layer 1 (Fail)
//Storyboard Layer 2 (Pass)
//Storyboard Layer 3 (Foreground)
//Storyboard Sound Samples

[TimingPoints]
56,461.538461538462,4,2,0,80,1,0
8132,-100,4,2,0,60,0,0
21056,-125,4,2,0,60,0,0
22209,-100,4,2,0,70,0,0
53132,-100,4,2,1,75,0,0
68363,-100,4,2,0,80,0,0
83132,-100,4,1,2,80,0,1
83248,-100,4,2,2,80,0,1
96056,-100,4,1,1,65,0,1
97902,-100,4,1,2,80,0,1
98017,-100,4,2,2,80,0,1
112671,-133.333333333333,4,2,0,40,0,0
120056,-100,4,2,0,70,0,0
134825,-100,4,2,0,72,0,0
149132,-133.333333333333,4,2,0,60,0,0
149594,-100,4,2,1,70,0,0
164363,-100,4,2,1,75,0,0
179132,-100,4,2,1,80,0,0
193902,-100,4,2,2,85,0,1
206825,-100,4,1,1,75,0,1
208671,-100,4,2,2,85,0,1
230363,-133.333333333333,4,2,0,30,0,1
230825,-100,4,2,2,80,0,1
234517,-100,4,2,1,50,0,0
237748,-100,4,2,1,20,0,0

[Colours]
Combo1 : 255,203,45
Combo2 : 255,126,64
Combo3 : 53,145,255
Combo4 : 236,0,118

[HitObjects]
80,184,7440,53,4,0:3:0:0:
80,184,8132,5,0,0:0:0:0:
80,184,8363,2,0,L|72:92,1,80,2|0,0:0|0:0,0:0:0:0:
192,52,8825,2,0,L|198:131,1,80
160,240,9286,2,0,P|232:212|316:224,1,160,2|0,0:0|0:0,0:0:0:0:
484,312,10209,6,0,P|412:339|328:327,1,160
292,152,11132,1,2,0:0:0:0:
292,152,11363,2,0,L|280:64,1,80
368,192,11825,1,2,0:0:0:0:
368,192,12286,5,2,0:0:0:0:
360,108,12517,1,0,0:0:0:0:
296,232,12748,1,0,0:0:0:0:
296,232,12979,6,0,L|124:224,1,160,8|0,0:3|0:0,0:0:0:0:
40,324,13671,2,0,L|199:331,1,160,2|0,0:0|0:0,0:0:0:0:
288,336,14363,2,0,P|344:328|368:308,1,80
296,232,14825,5,2,0:0:0:0:
296,232,15056,1,2,0:0:0:0:
296,232,15517,1,0,0:0:0:0:
296,232,15748,6,0,L|400:220,1,80,0|2,0:0|0:0,0:0:0:0:
148,188,16209,2,0,L|44:176,1,80
228,120,16671,2,0,P|220:208|224:284,1,160,2|0,0:0|0:0,0:0:0:0:
392,344,17363,1,0,0:0:0:0:
392,344,17594,6,0,P|396:256|396:180,1,160,2|0,0:0|0:0,0:0:0:0:
376,108,18286,1,2,0:0:0:0:
376,108,18402,1,0,0:0:0:0:
376,108,18517,1,2,0:0:0:0:
300,172,18748,2,0,P|300:216|304:264,1,80,2|0,0:0|0:0,0:0:0:0:
296,88,19209,5,2,0:0:0:0:
296,88,19671,1,2,0:0:0:0:
396,184,19902,1,0,0:0:0:0:
444,56,20132,1,0,0:0:0:0:
296,88,20363,2,0,L|128:92,1,160,2|0,0:0|0:0,0:0:0:0:
56,96,21056,6,0,B|-8:208|-8:208|68:240|64:348,1,288,2|0,0:0|0:0,0:0:0:0:
140,360,22209,6,0,P|180:364|224:360,1,80,6|2,0:0|0:0,0:0:0:0:
312,244,22671,2,0,P|272:240|228:244,1,80,8|0,0:0|0:0,0:0:0:0:
392,324,23132,2,0,P|420:244|392:160,1,160,0|8,0:0|0:0,0:0:0:0:
400,72,23825,1,0,0:0:0:0:
288,72,24056,6,0,B|244:88|205:74|205:74|164:56|128:80,1,160,2|8,0:0|0:0,0:0:0:0:
40,124,24748,2,0,P|36:84|36:36,1,80,2|0,0:0|0:0,0:0:0:0:
80,220,25209,2,0,P|40:220|0:224,1,80,0|8,0:0|0:0,0:0:0:0:
148,152,25671,1,2,0:0:0:0:
181,318,25902,6,0,P|179:278|167:240,1,80,2|0,0:0|0:0,0:0:0:0:
53,45,26363,2,0,P|42:84|40:124,1,80,8|2,0:0|0:0,0:0:0:0:
260,224,26825,5,0,0:0:0:0:
148,152,27056,1,2,0:0:0:0:
284,112,27286,2,0,L|368:104,1,80,8|0,0:0|0:0,0:0:0:0:
168,240,27748,5,2,0:0:0:0:
208,96,27979,1,0,0:0:0:0:
336,188,28209,2,0,L|420:180,1,80,8|0,0:0|0:0,0:0:0:0:
260,224,28671,5,2,0:0:0:0:
363,104,28902,1,0,0:0:0:0:
412,256,29132,2,0,L|496:248,1,80,8|0,0:0|0:0,0:0:0:0:
340,328,29594,5,2,0:0:0:0:
340,328,29825,2,0,P|296:328|232:324,1,80,2|8,0:0|0:0,0:0:0:0:
168,268,30286,2,0,P|160:304|164:356,1,80,2|2,0:0|0:0,0:0:0:0:
240,188,30748,1,2,0:0:0:0:
76,224,30979,1,8,0:0:0:0:
148,140,31209,1,0,0:0:0:0:
317,247,31440,6,0,P|310:200|321:95,1,120,2|0,0:0|0:0,0:0:0:0:
314,128,31902,1,8,0:0:0:0:
384,56,32132,2,0,L|472:56,1,80,2|0,0:0|0:0,0:0:0:0:
314,128,32594,1,0,0:0:0:0:
244,200,32825,2,0,L|164:200,1,80,8|2,0:0|0:0,0:0:0:0:
164,200,33171,1,0,0:0:0:0:
164,200,33286,5,2,0:0:0:0:
56,272,33517,1,0,0:0:0:0:
28,152,33748,2,0,P|25:113|29:57,1,80,8|2,0:0|0:0,0:0:0:0:
164,200,34209,6,0,P|168:244|164:284,1,80,0|2,0:0|0:0,0:0:0:0:
112,120,34671,2,0,L|236:116,1,120,8|0,0:0|0:0,0:0:0:0:
288,64,35132,5,2,0:0:0:0:
380,172,35363,1,0,0:0:0:0:
408,44,35594,2,0,L|488:28,1,80,8|0,0:0|0:0,0:0:0:0:
312,136,36056,5,2,0:0:0:0:
404,244,36287,1,0,0:0:0:0:
432,116,36518,2,0,L|512:100,1,80,8|0,0:0|0:0,0:0:0:0:
308,228,36979,6,0,P|304:288|312:348,1,120,4|0,0:0|0:0,0:0:0:0:
352,348,37440,2,0,L|440:356,1,80,8|2,0:0|0:0,0:0:0:0:
232,296,37902,2,0,L|144:304,1,80,0|2,0:0|0:0,0:0:0:0:
404,244,38363,1,8,0:0:0:0:
404,244,38825,6,0,L|408:156,1,80,2|0,0:0|0:0,0:0:0:0:
412,76,39286,1,8,0:0:0:0:
496,128,39517,1,2,0:0:0:0:
316,120,39748,2,0,B|264:104|264:104|184:112,1,120
180,120,40209,1,8,0:0:0:0:
108,156,40440,1,2,0:0:0:0:
108,156,40556,1,0,0:0:0:0:
108,156,40671,6,0,P|104:216|104:280,1,120,4|0,0:3|0:0,0:0:0:0:
124,316,41132,2,0,L|216:304,1,80,8|2,0:0|0:0,0:0:0:0:
296,216,41594,1,0,0:0:0:0:
272,356,41825,1,2,0:0:0:0:
200,228,42056,1,8,0:0:0:0:
348,284,42286,2,0,L|396:280,1,40
460,256,42517,6,0,L|464:348,1,80,4|2,0:3|0:0,0:0:0:0:
412,176,42979,2,0,L|516:168,1,80,8|2,0:0|0:0,0:0:0:0:
328,200,43440,2,0,L|332:108,1,80
348,284,43902,2,0,L|256:280,1,80,8|2,0:0|0:0,0:0:0:0:
88,280,44363,6,0,P|80:324|84:368,1,80,2|2,0:0|0:0,0:0:0:0:
172,328,44825,1,8,0:0:0:0:
176,236,45056,2,0,P|177:196|170:156,1,80,2|0,0:0|0:0,0:0:0:0:
152,12,45517,1,2,0:0:0:0:
76,88,45748,1,8,0:0:0:0:
232,72,45979,1,0,0:0:0:0:
232,72,46094,1,0,0:0:0:0:
232,72,46209,6,0,L|352:80,1,120,2|0,0:0|0:0,0:0:0:0:
376,80,46671,1,8,0:0:0:0:
464,128,46902,1,2,0:0:0:0:
368,184,47132,2,0,P|364:224|372:288,1,80
488,240,47594,2,0,P|492:280|484:344,1,80,8|2,0:0|0:0,0:0:0:0:
472,336,47940,1,0,0:0:0:0:
472,336,48056,6,0,P|392:316|312:340,1,160,4|8,3:0|0:0,0:0:0:0:
212,356,48748,2,0,P|160:360|120:356,1,80
68,288,49209,1,2,0:0:0:0:
172,196,49440,2,0,L|168:276,1,80,8|0,0:0|0:0,0:0:0:0:
72,168,49902,1,2,0:0:0:0:
148,108,50132,1,0,0:0:0:0:
256,192,50363,12,0,53132,0:0:0:0:
0,40,53594,6,0,L|96:36,1,80,10|2,0:0|0:0,0:0:0:0:
132,184,54056,2,0,L|32:188,1,80,8|0,0:0|0:0,0:0:0:0:
168,100,54517,1,10,0:0:0:0:
276,240,54748,1,2,0:0:0:0:
116,276,54979,1,8,0:0:0:0:
228,164,55209,1,0,0:0:0:0:
320,320,55440,6,0,P|384:304|448:312,1,120,10|0,0:0|0:0,0:0:0:0:
480,316,55902,2,0,P|480:268|464:220,1,80,8|2,0:0|0:0,0:0:0:0:
364,144,56363,2,0,P|364:192|380:240,1,80,8|0,0:0|0:0,0:0:0:0:
448,116,56825,1,8,0:0:0:0:
384,52,57056,1,0,0:0:0:0:
384,52,57171,1,0,0:0:0:0:
384,52,57286,5,10,0:0:0:0:
304,88,57517,1,2,0:0:0:0:
220,52,57748,1,8,0:0:0:0:
140,64,57979,2,0,L|133:146,1,80,2|8,0:0|0:0,0:0:0:0:
72,280,58440,1,2,0:0:0:0:
216,192,58671,1,8,0:0:0:0:
48,184,58902,1,0,0:0:0:0:
192,288,59132,6,0,P|245:299|321:280,1,120,10|0,0:0|0:0,0:0:0:0:
308,286,59594,1,8,0:0:0:0:
416,232,59825,2,0,L|426:329,1,80,2|8,0:0|0:0,0:0:0:0:
347,167,60286,1,0,0:0:0:0:
420,104,60517,2,0,L|507:109,1,80,8|0,0:0|0:0,0:0:0:0:
274,98,60979,5,10,0:0:0:0:
274,98,61209,1,2,0:0:0:0:
189,150,61440,2,0,P|183:201|191:273,1,120,8|0,0:0|0:0,0:0:0:0:
207,292,61902,1,8,0:0:0:0:
274,209,62132,1,2,0:0:0:0:
111,226,62363,2,0,L|26:221,1,80,10|0,0:0|0:0,0:0:0:0:
154,106,62825,6,0,L|273:98,1,120,10|0,0:0|0:0,0:0:0:0:
312,80,63286,2,0,L|305:174,1,80,8|2,0:0|0:0,0:0:0:0:
437,205,63748,2,0,L|444:299,1,80,8|0,0:0|0:0,0:0:0:0:
456,300,64094,1,0,0:0:0:0:
456,300,64209,1,10,0:0:0:0:
376,344,64440,1,0,0:0:0:0:
376,344,64556,1,0,0:0:0:0:
376,344,64671,6,0,P|336:344|282:339,1,80,10|2,0:0|0:0,0:0:0:0:
200,312,65132,1,8,0:0:0:0:
104,336,65363,2,0,L|92:232,1,80,2|8,0:0|0:0,0:0:0:0:
0,112,65825,2,0,L|9:191,1,80,2|8,0:0|0:0,0:0:0:0:
108,64,66286,1,0,0:0:0:0:
231,110,66517,6,0,L|355:101,1,120,10|0,0:0|0:0,0:0:0:0:
350,101,66979,1,8,0:0:0:0:
464,144,67209,2,0,P|472:100|464:56,1,80,2|8,0:0|0:0,0:0:0:0:
377,192,67671,1,0,0:0:0:0:
377,192,67902,2,0,P|376:232|386:279,1,80,8|0,0:0|0:0,0:0:0:0:
307,342,68363,6,0,L|216:336,1,80,6|0,1:0|0:0,0:0:0:0:
205,329,68709,1,0,0:0:0:0:
184,324,68825,1,0,1:0:0:0:
77,229,69056,2,2,L|156:234,1,80,2|2,0:0|1:0,0:0:0:0:
181,226,69402,1,0,0:0:0:0:
205,216,69517,2,0,P|215:169|202:121,1,80,0|0,0:0|1:0,0:0:0:0:
172,28,69979,1,0,0:0:0:0:
292,74,70209,6,0,P|342:78|426:63,1,120,2|0,1:0|0:0,0:0:0:0:
438,58,70671,2,0,L|434:16,2,40,0|0|0,1:0|0:0|0:0,0:0:0:0:
464,157,71132,2,0,P|461:202|464:243,1,80,2|0,1:0|0:0,0:0:0:0:
472,263,71479,1,0,0:0:0:0:
480,293,71594,2,0,L|398:288,1,80,0|0,1:0|0:0,0:0:0:0:
281,219,72056,5,2,1:0:0:0:
346,350,72286,1,0,2:1:0:0:
369,207,72517,1,0,1:0:0:0:
262,307,72748,1,0,0:0:0:0:
262,307,72863,1,0,0:0:0:0:
262,307,72979,2,0,L|214:311,2,40,2|0|0,1:0|0:0|0:0,0:0:0:0:
369,207,73440,2,0,L|450:212,1,80,0|0,1:0|0:0,0:0:0:0:
254,122,73902,6,0,L|250:207,1,80,2|0,1:0|0:0,0:0:0:0:
249,225,74248,1,0,0:0:0:0:
248,246,74363,2,0,P|202:257|151:245,1,80,0|0,1:0|0:0,0:0:0:0:
40,189,74825,1,2,1:0:0:0:
40,189,74940,1,0,0:0:0:0:
40,189,75056,1,0,0:0:0:0:
114,314,75286,1,0,1:0:0:0:
149,159,75517,2,0,L|155:114,1,40
167,48,75748,6,0,L|63:41,1,80,2|0,1:0|0:0,0:0:0:0:
343,108,76209,2,0,L|447:101,1,80,2|0,1:0|0:0,0:0:0:0:
158,203,76671,2,0,L|54:196,1,80,2|0,1:0|0:0,0:0:0:0:
367,286,77132,2,0,L|471:279,1,80,2|0,1:0|0:0,0:0:0:0:
168,343,77594,5,2,1:0:0:0:
168,343,77825,1,0,0:0:0:0:
254,235,78056,1,2,1:0:0:0:
254,235,78286,1,0,0:0:0:0:
101,218,78517,5,2,1:0:0:0:
78,89,78748,1,0,0:0:0:0:
208,32,78979,1,2,1:0:0:0:
316,120,79209,1,0,0:0:0:0:
254,235,79440,5,2,1:0:0:0:
243,264,79555,1,0,1:0:0:0:
246,296,79671,1,2,1:0:0:0:
263,323,79786,1,0,1:0:0:0:
290,340,79901,1,2,1:0:0:0:
322,343,80016,1,0,1:0:0:0:
350,340,80132,2,0,L|347:375,3,20,2|0|0|2,1:0|1:0|1:0|1:0,1:0:0:0:
364,318,80363,5,2,1:0:0:0:
349,293,80478,1,0,0:0:0:0:
344,266,80593,1,2,1:0:0:0:
347,238,80709,1,0,0:0:0:0:
358,213,80824,1,2,1:0:0:0:
377,193,80939,1,0,0:0:0:0:
402,179,81055,1,2,1:0:0:0:
429,174,81170,1,0,0:0:0:0:
458,180,81286,1,2,1:0:0:0:
256,12,82671,5,0,1:0:0:0:
496,20,83132,6,0,L|484:120,1,80,4|2,1:0|0:0,0:0:0:0:
336,152,83594,2,0,L|345:72,1,80,8|0,0:0|0:0,0:0:0:0:
440,204,84056,1,2,1:0:0:0:
344,272,84286,1,2,0:0:0:0:
248,216,84517,2,0,L|160:208,1,80,8|0,0:0|0:0,0:0:0:0:
8,144,84979,5,2,1:1:0:0:
188,116,85209,1,2,0:0:0:0:
156,292,85440,1,8,0:0:0:0:
104,136,85671,1,0,0:0:0:0:
52,236,85902,2,2,P|36:312|36:360,1,120,2|0,1:0|0:0,0:0:0:0:
52,364,86363,1,8,0:0:0:0:
160,321,86594,2,0,L|163:351,2,26.6666666666667
156,292,86825,6,0,L|235:288,1,80,2|2,1:0|0:0,0:0:0:0:
392,348,87286,2,0,L|313:344,1,80,8|0,0:0|0:0,0:0:0:0:
364,200,87748,2,0,P|360:124|372:56,1,120,2|0,1:0|0:0,0:0:0:0:
396,16,88209,2,0,B|432:40|432:40|520:40,1,120,10|0,0:0|0:0,0:0:0:0:
508,40,88671,5,2,1:0:0:0:
364,200,88902,1,2,0:0:0:0:
284,32,89132,1,8,0:0:0:0:
504,164,89363,1,0,0:0:0:0:
504,164,89479,1,0,0:0:0:0:
504,164,89594,1,2,1:0:0:0:
256,156,89825,2,0,L|196:156,1,40,2|0,0:0|0:0,0:0:0:0:
272,228,90056,2,0,L|212:228,1,40,10|0,0:0|0:0,0:0:0:0:
288,300,90286,2,0,L|228:300,1,40,2|0,0:0|0:0,0:0:0:0:
356,348,90517,5,6,1:0:0:0:
356,348,90748,2,0,L|440:348,1,80,2|8,0:0|0:0,0:0:0:0:
288,300,91209,1,0,0:0:0:0:
192,336,91440,2,0,P|184:284|196:244,1,80,2|2,1:0|0:0,0:0:0:0:
256,148,91902,2,0,P|262:108|253:69,1,80,8|2,0:0|0:0,0:0:0:0:
96,40,92363,5,2,1:0:0:0:
16,144,92594,1,2,0:0:0:0:
144,160,92825,1,8,0:0:0:0:
8,56,93056,1,0,0:0:0:0:
72,216,93286,1,2,1:0:0:0:
180,76,93517,1,0,0:0:0:0:
180,76,93594,1,0,0:0:0:0:
180,76,93671,1,0,0:0:0:0:
180,76,93748,2,0,L|228:72,2,40,8|0|0,0:0|0:0|0:0,0:0:0:0:
300,24,94209,6,0,P|312:80|304:112,1,80,2|2,1:0|0:0,0:0:0:0:
404,136,94671,2,0,P|378:187|352:207,1,80,8|0,0:0|0:0,0:0:0:0:
408,296,95132,2,0,P|360:304|296:284,1,80,2|2,1:0|0:0,0:0:0:0:
200,284,95594,2,0,P|140:276|64:292,1,120,10|0,0:0|0:0,0:0:0:0:
8,300,96056,5,8,0:0:0:0:
8,300,96517,1,8,0:0:0:0:
8,300,96979,2,0,L|16:248,1,40
68,176,97209,2,0,L|74:215,1,40
0,148,97440,2,0,L|8:96,1,40
64,32,97671,2,0,L|70:71,1,40
120,124,97902,6,0,B|164:124|164:124|200:120,1,80,6|2,1:0|0:0,0:0:0:0:
244,48,98363,1,8,0:0:0:0:
316,96,98594,2,0,B|328:136|328:136|320:176,1,80,2|2,0:0|1:0,0:0:0:0:
448,92,99056,2,0,B|444:48|444:48|452:12,1,80,2|8,0:0|0:0,0:0:0:0:
400,208,99517,1,0,0:0:0:0:
400,208,99632,1,0,0:0:0:0:
400,208,99748,5,2,1:0:0:0:
500,316,99979,1,2,0:0:0:0:
368,288,100209,1,8,0:0:0:0:
504,224,100440,1,0,0:0:0:0:
424,352,100671,2,0,P|356:332|280:344,1,120,2|0,1:0|0:0,0:0:0:0:
260,352,101132,2,0,P|248:300|252:256,1,80,8|0,0:0|0:0,0:0:0:0:
264,120,101594,6,2,P|224:120|185:131,1,80,2|2,1:0|0:0,0:0:0:0:
392,140,102056,2,0,P|391:100|380:61,1,80,8|2,0:0|0:0,0:0:0:0:
368,272,102517,2,0,P|407:271|446:260,1,80,2|2,1:0|0:0,0:0:0:0:
208,262,102979,2,0,B|208:301|215:334|215:334|264:354,1,120,8|0,0:0|0:0,0:0:0:0:
275,357,103440,5,2,1:0:0:0:
292,200,103671,1,2,0:0:0:0:
452,308,103902,1,8,0:0:0:0:
456,160,104132,1,0,0:0:0:0:
456,160,104248,1,0,0:0:0:0:
456,160,104363,1,2,1:0:0:0:
352,48,104594,2,0,L|304:44,1,40,2|0,0:0|0:0,0:0:0:0:
252,88,104825,2,0,L|204:84,1,40,10|0,0:0|0:0,0:0:0:0:
136,124,105056,2,0,L|88:120,1,40,2|0,0:0|0:0,0:0:0:0:
32,160,105286,6,0,P|24:192|32:240,1,80,2|2,1:0|0:0,0:0:0:0:
220,368,105748,2,0,P|227:328|219:290,1,80,8|0,0:0|0:0,0:0:0:0:
152,216,106209,1,2,1:0:0:0:
44,64,106440,1,2,0:0:0:0:
200,44,106671,1,8,0:0:0:0:
136,124,106902,1,0,0:0:0:0:
320,164,107132,6,0,P|273:159|228:155,1,80,2|2,1:0|0:0,0:0:0:0:
375,95,107594,1,8,0:0:0:0:
500,173,107825,1,2,0:0:0:0:
371,238,108056,1,2,1:0:0:0:
463,90,108286,1,2,0:0:0:0:
463,90,108363,1,0,0:0:0:0:
463,90,108440,1,0,0:0:0:0:
463,90,108517,2,0,L|468:12,2,40,8|0|0,0:0|0:0|0:0,0:0:0:0:
448,256,108979,6,0,L|452:336,1,80,2|2,1:0|0:0,0:0:0:0:
284,188,109440,2,0,L|276:108,1,80,8|0,0:0|0:0,0:0:0:0:
236,336,109902,2,0,P|168:348|100:336,1,120,2|0,1:0|0:0,0:0:0:0:
48,320,110363,2,0,B|56:280|56:280|40:240|40:240|52:200,1,120,10|0,0:0|0:0,0:0:0:0:
116,152,110825,5,2,1:0:0:0:
192,56,111056,1,2,0:0:0:0:
312,56,111286,1,8,0:0:0:0:
380,152,111517,1,0,0:0:0:0:
368,272,111748,6,0,P|336:336|280:360,1,120,2|0,1:0|0:0,0:0:0:0:
216,357,112209,2,0,P|166:326|144:272,1,120,10|0,1:2|0:0,0:0:0:0:
176,204,112671,5,0,0:3:0:0:
344,168,113132,1,0,1:0:0:0:
316,36,113594,1,0,1:0:0:0:
160,64,114056,1,0,1:0:0:0:
80,216,114517,6,0,P|72:272|112:340,1,120.000004577637,0|0,1:0|1:0,0:0:0:0:
264,276,115440,2,0,P|272:220|232:152,1,120.000004577637,0|0,1:0|1:0,0:0:0:0:
116,72,116363,5,0,1:0:0:0:
116,72,116594,1,2,0:0:0:0:
48,120,116825,2,0,P|40:168|40:244,1,120.000004577637,0|0,1:0|1:0,0:0:0:0:
140,348,117517,1,0,0:0:0:0:
64,324,117748,1,0,1:0:0:0:
120,272,117979,1,0,0:0:0:0:
196,288,118209,6,0,P|240:288|316:228,1,120.000004577637,0|0,1:0|0:0,0:0:0:0:
336,164,118902,2,0,B|392:184|396:261|396:261|476:225|460:133,1,270.000010299683
408,88,120056,6,0,P|368:88|312:96,1,80,4|2,0:0|0:0,0:0:0:0:
228,152,120517,2,0,P|192:148|136:140,1,80,8|0,0:0|0:0,0:0:0:0:
52,88,120979,2,0,P|72:152|52:248,1,160,0|8,1:0|0:0,0:0:0:0:
0,320,121671,1,2,0:0:0:0:
104,340,121902,6,0,P|160:344|224:320,1,120,0|0,1:0|0:0,0:0:0:0:
219,322,122363,1,8,0:0:0:0:
288,260,122594,2,0,P|304:300|308:340,1,80,2|0,0:0|1:0,0:0:0:0:
228,192,123056,2,0,P|268:176|308:172,1,80,2|8,0:0|0:0,0:0:0:0:
168,256,123517,1,0,0:0:0:0:
156,96,123748,6,0,P|148:136|148:176,1,80,0|2,1:0|0:0,0:0:0:0:
392,248,124209,2,0,P|400:208|400:168,1,80,8|0,0:0|0:0,0:0:0:0:
276,32,124671,5,0,1:0:0:0:
312,180,124902,1,2,0:0:0:0:
424,84,125132,2,0,L|512:76,1,80,8|0,0:0|0:0,0:0:0:0:
336,100,125594,5,0,1:0:0:0:
292,256,125825,1,2,0:0:0:0:
188,152,126055,2,0,L|100:144,1,80,8|2,0:0|0:0,0:0:0:0:
312,180,126517,5,0,1:0:0:0:
344,316,126748,1,2,0:0:0:0:
468,276,126979,1,8,0:0:0:0:
436,140,127210,1,0,0:0:0:0:
292,256,127440,6,0,L|160:248,1,120,0|0,1:0|0:0,0:0:0:0:
172,248,127902,1,8,0:0:0:0:
64,272,128132,2,0,P|62:232|73:193,1,80,2|0,0:0|1:0,0:0:0:0:
120,56,128594,1,2,0:0:0:0:
176,148,128825,1,8,0:0:0:0:
28,108,129056,1,0,0:0:0:0:
212,64,129286,6,0,L|344:68,1,120,0|0,1:0|0:0,0:0:0:0:
360,68,129748,2,0,P|352:112|356:152,1,80,8|2,0:0|0:0,0:0:0:0:
384,276,130209,2,0,P|344:278|305:270,1,80,0|2,1:0|0:0,0:0:0:0:
496,268,130671,2,0,P|498:307|490:346,1,80,8|0,0:0|0:0,0:0:0:0:
470,143,131132,6,0,L|512:147,2,40,0|0|2,1:0|0:0|0:0,0:0:0:0:
360,68,131594,2,0,P|353:107|355:146,1,80,8|0,0:0|0:0,0:0:0:0:
460,64,132056,5,0,1:0:0:0:
416,208,132286,1,2,0:0:0:0:
360,68,132517,2,0,L|276:73,1,80,8|2,0:0|0:0,0:0:0:0:
480,144,132979,5,0,1:0:0:0:
354,146,133209,1,2,0:0:0:0:
416,300,133440,2,0,P|416:336|432:380,1,80,8|2,0:0|0:0,0:0:0:0:
496,240,133902,5,0,1:0:0:0:
336,352,134132,1,2,0:0:0:0:
512,336,134363,1,8,0:0:0:0:
328,256,134594,1,0,0:0:0:0:
404,72,134825,6,0,L|412:212,1,120,4|0,0:0|0:0,0:0:0:0:
412,220,135286,2,0,P|460:212|488:188,1,80,8|2,0:0|0:0,0:0:0:0:
236,264,135748,2,0,P|222:310|232:346,1,80,0|0,1:0|0:0,0:0:0:0:
292,160,136209,1,8,0:0:0:0:
292,160,136671,6,0,P|216:144|144:192,1,160,0|8,1:0|0:0,0:0:0:0:
112,288,137363,1,2,0:0:0:0:
28,204,137594,2,0,P|16:152|24:112,1,80,0|0,1:0|0:0,0:0:0:0:
160,20,138056,2,0,P|172:72|164:112,1,80,8|2,0:0|0:0,0:0:0:0:
148,128,138402,1,0,0:0:0:0:
136,156,138517,6,0,L|264:152,1,120,0|0,1:0|0:0,0:0:0:0:
292,160,138979,2,0,P|304:204|300:248,1,80,8|2,0:0|0:0,0:0:0:0:
72,300,139440,1,0,1:0:0:0:
203,206,139671,1,2,0:0:0:0:
233,348,139902,1,8,0:0:0:0:
114,216,140132,2,0,L|124:172,1,40,2|0,0:0|0:0,0:0:0:0:
136,124,140363,6,0,L|220:116,1,80,0|0,1:0|0:0,0:0:0:0:
440,252,140825,2,0,L|360:259,1,80,8|2,0:0|0:0,0:0:0:0:
283,199,141286,2,0,L|203:206,1,80,0|0,1:0|0:0,0:0:0:0:
496,340,141748,2,0,L|416:347,1,80,8|2,0:0|0:0,0:0:0:0:
281,313,142209,6,0,P|267:255|283:198,1,120,0|0,1:0|0:0,0:0:0:0:
283,198,142671,1,8,0:0:0:0:
368,144,142902,2,2,P|376:92|360:40,1,80,2|0,0:0|1:0,0:0:0:0:
272,104,143363,1,0,0:0:0:0:
371,257,143594,2,0,L|455:249,1,80,8|0,0:0|0:0,0:0:0:0:
450,249,143940,1,0,0:0:0:0:
450,249,144056,5,0,1:0:0:0:
412,356,144286,1,2,0:0:0:0:
281,313,144517,2,0,P|267:255|283:198,1,120,8|0,0:0|0:0,0:0:0:0:
328,140,144979,2,0,B|384:156|384:156|433:130|485:143,1,160,0|8,1:0|0:0,0:0:0:0:
450,249,145671,1,2,0:0:0:0:
282,315,145902,6,0,B|221:298|221:298|121:302,1,160,0|8,1:0|0:0,0:0:0:0:
32,348,146594,2,0,P|24:312|32:256,1,80,2|0,0:0|1:0,0:0:0:0:
128,220,147056,1,0,0:0:0:0:
128,220,147286,2,0,P|136:176|124:136,1,80,8|0,0:0|0:0,0:0:0:0:
108,52,147748,5,8,0:3:0:0:
108,52,147979,1,0,0:0:0:0:
208,60,148209,1,0,0:0:0:0:
304,68,148671,1,0,0:0:0:0:
392,72,149132,6,0,P|393:117|396:168,1,90.0000034332277,8|0,0:0|0:0,0:0:0:0:
400,240,149594,6,0,P|356:236|296:256,1,80,10|2,0:0|0:0,0:0:0:0:
288,368,150056,2,0,P|332:372|392:352,1,80,8|0,0:0|0:0,0:0:0:0:
480,296,150517,1,8,0:0:0:0:
480,296,150748,2,0,P|492:256|488:208,1,80,2|8,0:0|0:0,0:0:0:0:
476,92,151209,1,0,0:0:0:0:
380,156,151440,6,0,P|304:160|252:144,1,120,10|0,0:0|0:0,0:0:0:0:
244,128,151902,2,0,L|232:212,1,80,8|0,0:0|0:0,0:0:0:0:
116,276,152363,2,0,L|127:196,1,80,10|0,0:0|0:0,0:0:0:0:
224,312,152825,1,8,0:0:0:0:
148,360,153056,1,0,0:0:0:0:
20,272,153286,5,10,0:0:0:0:
20,272,153517,2,0,L|32:184,1,80,2|8,0:0|0:0,0:0:0:0:
144,32,153979,2,0,P|156:68|152:112,1,80,2|8,0:0|0:0,0:0:0:0:
30,192,154440,1,2,0:0:0:0:
168,180,154671,1,8,0:0:0:0:
64,124,154902,1,0,0:0:0:0:
161,264,155132,6,0,P|221:273|280:264,1,120,10|0,0:0|0:0,0:0:0:0:
280,264,155594,1,8,0:0:0:0:
376,224,155825,2,0,P|381:263|372:308,1,80,2|8,0:0|0:0,0:0:0:0:
308,172,156286,1,0,0:0:0:0:
260,100,156517,2,0,P|256:52|264:12,1,80,8|0,0:0|0:0,0:0:0:0:
360,68,156979,5,10,0:0:0:0:
452,144,157209,1,2,0:0:0:0:
308,172,157440,2,0,L|180:164,1,120,8|0,0:0|0:0,0:0:0:0:
188,164,157902,1,8,0:0:0:0:
60,232,158132,2,0,P|60:276|68:320,1,80,2|8,0:0|0:0,0:0:0:0:
100,140,158594,1,0,0:0:0:0:
172,264,158825,6,0,L|291:271,1,120,10|0,0:0|0:0,0:0:0:0:
308,296,159286,2,0,P|348:312|392:312,1,80,8|2,0:0|0:0,0:0:0:0:
364,192,159748,2,0,P|404:178|438:150,1,80,10|0,0:0|0:0,0:0:0:0:
436,128,160094,1,0,0:0:0:0:
436,128,160209,1,8,0:0:0:0:
340,72,160440,1,0,0:0:0:0:
340,72,160556,1,0,0:0:0:0:
340,72,160671,6,2,L|240:68,1,80
168,96,161132,1,8,0:0:0:0:
76,40,161363,2,0,P|64:84|64:120,1,80,2|8,0:0|0:0,0:0:0:0:
164,272,161825,1,2,0:0:0:0:
64,228,162056,1,8,0:0:0:0:
176,180,162286,1,0,0:0:0:0:
128,360,162517,6,0,P|192:352|256:360,1,120,10|0,0:0|0:0,0:0:0:0:
246,357,162979,1,8,0:0:0:0:
320,304,163209,2,0,L|308:216,1,80,2|8,0:0|0:0,0:0:0:0:
388,164,163671,1,0,0:0:0:0:
472,80,163902,2,0,P|368:80|344:72,1,120,8|0,0:0|0:0,0:0:0:0:
320,44,164363,6,0,P|304:80|304:128,1,80,4|2,0:3|0:0,0:0:0:0:
128,172,164825,2,0,P|164:188|212:188,1,80,8|0,0:0|0:0,0:0:0:0:
328,260,165286,2,0,P|311:224|276:191,1,80,8|2,0:0|0:0,0:0:0:0:
184,104,165748,1,8,0:0:0:0:
232,280,165979,1,0,0:0:0:0:
324,124,166209,6,0,P|396:124|452:48,1,160,10|8,0:0|0:0,0:0:0:0:
360,28,166902,1,0,0:0:0:0:
264,68,167132,2,0,P|248:120|252:160,1,80,8|0,0:0|0:0,0:0:0:0:
312,336,167594,2,0,P|328:284|324:244,1,80,8|0,0:0|0:0,0:0:0:0:
152,285,168056,6,0,L|232:280,1,80,8|2,0:0|0:0,0:0:0:0:
92,216,168517,1,8,0:0:0:0:
40,280,168748,2,0,P|32:324|40:364,1,80,2|8,0:0|0:0,0:0:0:0:
128,128,169209,2,0,P|88:125|49:133,1,80,2|8,0:0|0:0,0:0:0:0:
188,196,169671,1,0,0:0:0:0:
272,80,169902,6,0,B|316:72|316:72|408:92,1,120,10|0,0:0|0:0,0:0:0:0:
389,87,170363,1,8,0:0:0:0:
488,116,170594,2,0,P|492:164|484:208,1,80,2|8,0:0|0:0,0:0:0:0:
324,248,171056,2,0,P|319:287|324:327,2,80,0|8|0,0:0|0:0|0:0,0:0:0:0:
256,40,171748,5,10,0:0:0:0:
164,180,171979,1,2,0:0:0:0:
356,176,172209,2,0,L|441:165,1,80,8|0,0:0|0:0,0:0:0:0:
213,111,172671,1,10,0:0:0:0:
260,225,172902,1,2,0:0:0:0:
308,112,173132,1,8,0:0:0:0:
180,250,173363,1,0,0:0:0:0:
340,256,173594,6,0,L|368:388,1,120,10|0,0:0|0:0,0:0:0:0:
397,379,174056,2,0,P|441:379|473:355,1,80,8|2,0:0|0:0,0:0:0:0:
356,176,174517,2,0,P|312:181|280:205,1,80,8|0,0:0|0:0,0:0:0:0:
260,224,174863,1,0,0:0:0:0:
260,224,174979,1,10,0:0:0:0:
244,312,175209,2,0,L|252:368,1,40
164,376,175440,6,0,L|68:368,1,80,10|2,0:0|0:0,0:0:0:0:
16,224,175902,1,8,0:0:0:0:
16,224,176132,2,0,L|95:230,1,80,2|8,0:0|0:0,0:0:0:0:
180,120,176594,2,0,L|84:112,1,80,2|8,0:0|0:0,0:0:0:0:
248,36,177056,1,2,0:0:0:0:
368,60,177286,6,0,L|356:196,1,120,10|0,0:0|0:0,0:0:0:0:
356,200,177748,1,8,0:0:0:0:
392,276,177979,2,0,P|424:244|436:196,1,80,2|8,0:0|0:0,0:0:0:0:
280,224,178440,1,0,0:0:0:0:
312,292,178671,2,0,P|328:328|364:348,1,80,8|0,0:0|0:0,0:0:0:0:
236,292,179132,6,0,P|184:316|168:348,1,80,2|2,1:0|0:0,0:0:0:0:
172,333,179479,1,0,0:0:0:0:
172,333,179594,1,0,1:0:0:0:
280,224,179825,2,0,P|276:172|264:136,1,80,0|2,0:0|1:0,0:0:0:0:
252,120,180171,1,0,0:0:0:0:
236,96,180286,2,0,P|240:44|252:8,1,80,2|0,0:0|1:0,0:0:0:0:
328,80,180748,1,0,0:0:0:0:
152,80,180979,6,0,P|112:76|48:88,1,80,2|2,1:0|0:0,0:0:0:0:
52,100,181325,1,0,0:0:0:0:
32,120,181440,2,0,L|28:204,1,80,0|2,1:0|0:0,0:0:0:0:
152,224,181902,2,0,L|155:303,1,80,2|0,1:0|0:0,0:0:0:0:
155,303,182248,1,0,0:0:0:0:
155,303,182363,1,0,1:0:0:0:
256,356,182594,1,0,0:0:0:0:
296,224,182825,6,0,P|288:184|292:144,1,80,2|2,1:0|0:0,0:0:0:0:
292,144,183171,1,0,0:0:0:0:
292,144,183286,1,0,1:0:0:0:
436,60,183517,1,0,0:0:0:0:
436,60,183632,1,0,0:0:0:0:
436,60,183748,2,0,P|444:96|439:139,1,80,2|2,1:0|0:0,0:0:0:0:
396,236,184209,1,0,1:0:0:0:
396,236,184325,1,0,0:0:0:0:
396,236,184440,1,0,0:0:0:0:
320,312,184671,6,0,L|232:308,1,80,2|2,1:0|0:0,0:0:0:0:
212,300,185017,1,0,0:0:0:0:
184,288,185132,2,0,L|96:292,1,80,0|2,1:0|0:0,0:0:0:0:
16,332,185594,2,0,P|12:280|32:232,1,80,2|0,1:0|0:0,0:0:0:0:
104,208,186056,1,0,1:0:0:0:
104,208,186171,1,0,0:0:0:0:
104,208,186286,1,0,0:0:0:0:
32,48,186517,6,0,L|24:136,1,80,2|0,1:0|0:0,1:0:0:0:
176,308,186979,2,0,L|183:228,1,80,2|0,1:0|0:0,0:0:0:0:
328,96,187440,2,0,L|320:184,1,80,2|0,1:0|0:0,0:0:0:0:
456,360,187902,2,0,L|463:280,1,80,2|0,1:0|0:0,0:0:0:0:
476,152,188363,5,2,1:0:0:0:
476,152,188594,1,0,0:0:0:0:
328,96,188824,1,2,1:0:0:0:
328,96,189056,1,0,0:0:0:0:
176,120,189286,5,2,1:0:0:0:
164,280,189517,1,0,0:0:0:0:
312,336,189748,1,2,1:0:0:0:
468,316,189979,1,0,0:0:0:0:
476,152,190209,5,2,1:0:0:0:
488,126,190324,1,0,0:0:0:0:
494,99,190439,1,2,1:0:0:0:
495,71,190555,1,0,0:0:0:0:
490,44,190670,1,2,1:0:0:0:
483,16,190785,1,0,0:0:0:0:
456,8,190902,2,0,L|421:5,3,20,2|0|0|0,1:0|1:0|0:0|1:0,0:0:0:0:
416,33,191132,5,2,1:0:0:0:
398,54,191247,1,0,0:0:0:0:
376,72,191362,1,2,1:0:0:0:
351,83,191478,1,0,0:0:0:0:
323,89,191593,1,2,1:0:0:0:
296,88,191708,1,0,0:0:0:0:
269,81,191824,1,2,1:0:0:0:
244,68,191939,1,0,0:0:0:0:
229,44,192056,1,2,1:0:0:0:
256,348,193209,6,0,L|256:280,1,53.3333333333333,0|0,1:0|0:0,0:0:0:0:
256,294,193440,1,0,0:0:0:0:
132,28,193902,6,0,P|140:68|132:132,1,80,4|2,1:0|0:0,0:0:0:0:
0,144,194363,1,8,0:0:0:0:
88,228,194594,2,0,P|127:237|166:232,1,80,0|2,0:0|1:0,0:0:0:0:
439,182,195056,2,0,P|399:178|360:184,1,80,2|8,0:0|0:0,0:0:0:0:
254,309,195517,1,0,0:0:0:0:
464,256,195748,5,2,1:0:0:0:
354,365,195979,1,2,0:0:0:0:
300,240,196209,1,8,0:0:0:0:
410,313,196440,1,0,0:0:0:0:
360,186,196671,2,0,P|368:120|356:64,1,120,2|0,1:0|0:0,0:0:0:0:
341,50,197132,1,8,0:0:0:0:
248,28,197363,2,0,L|221:26,2,26.6666666666667
251,74,197594,6,0,L|247:122|251:154,1,80,2|2,1:0|0:0,0:0:0:0:
432,256,198056,2,0,L|436:220|432:176,1,80,8|0,0:0|0:0,0:0:0:0:
256,244,198517,2,0,B|252:292|256:316|256:316|304:344,1,120,2|0,1:0|0:0,0:0:0:0:
372,352,198979,2,0,B|412:364|436:348|436:348|464:332|492:332,1,120,10|0,0:0|0:0,0:0:0:0:
486,332,199440,5,2,1:0:0:0:
352,272,199671,1,2,0:0:0:0:
504,216,199902,1,8,0:0:0:0:
368,168,200132,1,0,0:0:0:0:
368,168,200248,1,0,0:0:0:0:
368,168,200363,1,2,1:0:0:0:
444,56,200594,2,0,L|436:120,1,40,2|0,0:0|0:0,0:0:0:0:
368,56,200825,2,0,L|360:120,1,40,10|0,0:0|0:0,0:0:0:0:
292,60,201056,2,0,L|284:124,1,40,2|0,0:0|0:0,0:0:0:0:
200,124,201286,6,0,L|208:216,1,80,2|2,1:0|0:0,0:0:0:0:
292,60,201748,1,8,0:0:0:0:
112,80,201979,2,0,L|120:172,1,80,0|2,0:0|1:0,0:0:0:0:
288,208,202440,1,2,0:0:0:0:
132,276,202671,1,8,0:0:0:0:
268,360,202902,1,0,0:0:0:0:
176,200,203132,5,2,1:0:0:0:
172,352,203363,1,2,0:0:0:0:
44,272,203594,1,8,0:0:0:0:
220,276,203825,1,0,0:0:0:0:
80,352,204056,1,2,1:0:0:0:
88,200,204286,1,2,0:0:0:0:
88,200,204363,1,0,0:0:0:0:
88,200,204440,1,0,0:0:0:0:
88,200,204517,2,0,L|92:148,2,40,8|0|0,0:0|0:0|0:0,0:0:0:0:
60,88,204979,6,0,P|104:84|140:96,1,80,2|2,1:0|0:0,0:0:0:0:
216,40,205440,2,0,P|238:77|243:115,1,80,8|0,0:0|0:0,0:0:0:0:
352,136,205902,2,0,P|334:176|306:202,1,80,2|2,1:0|0:0,0:0:0:0:
280,212,206248,1,0,0:0:0:0:
248,224,206363,2,0,P|244:268|276:348,1,120,8|0,0:0|0:0,0:0:0:0:
344,364,206825,5,8,0:0:0:0:
344,364,207286,1,8,0:0:0:0:
344,364,207748,2,0,L|383:358,1,40
472,308,207979,2,0,L|432:302,1,40
316,276,208209,2,0,L|355:270,1,40
468,228,208440,2,0,L|428:222,1,40
352,196,208671,6,0,P|348:148|356:108,1,80,4|2,1:0|0:0,0:0:0:0:
432,36,209132,1,8,0:0:0:0:
260,72,209363,2,0,L|180:64,1,80,0|2,0:0|1:0,0:0:0:0:
52,200,209825,2,0,L|132:196,1,80,2|8,0:0|0:0,0:0:0:0:
312,276,210286,1,0,0:0:0:0:
312,276,210402,1,0,0:0:0:0:
312,276,210517,5,2,1:0:0:0:
162,261,210748,1,2,0:0:0:0:
296,361,210979,1,8,0:0:0:0:
236,269,211209,1,0,0:0:0:0:
155,347,211440,2,0,L|23:335,1,120,2|0,1:0|0:0,0:0:0:0:
28,304,211902,2,0,P|28:263|32:223,1,80,8|0,0:0|0:0,0:0:0:0:
68,200,212248,1,0,0:0:0:0:
112,184,212363,6,0,P|160:184|196:172,1,80,2|2,1:0|0:0,0:0:0:0:
268,32,212825,2,0,P|268:80|280:116,1,80,8|0,0:0|0:0,0:0:0:0:
448,152,213286,2,0,P|400:152|364:164,1,80,2|2,1:0|0:0,0:0:0:0:
304,348,213748,2,0,P|304:268|284:208,1,120,8|0,0:0|0:0,0:0:0:0:
293,229,214209,5,2,1:0:0:0:
184,128,214440,1,2,0:0:0:0:
336,88,214671,1,8,0:0:0:0:
212,208,214902,1,2,0:0:0:0:
256,64,215132,1,2,1:0:0:0:
360,168,215363,2,0,L|404:160,1,40,2|0,0:0|0:0,0:0:0:0:
293,229,215594,2,0,L|253:236,1,40,10|0,0:0|0:0,0:0:0:0:
384,248,215825,2,0,L|423:240,1,40,2|0,0:0|0:0,0:0:0:0:
328,304,216056,6,0,L|220:320,1,80,0|2,1:0|0:0,0:0:0:0:
0,344,216517,1,8,0:0:0:0:
172,272,216748,1,2,0:0:0:0:
36,256,216979,1,2,1:0:0:0:
188,360,217209,1,0,0:0:0:0:
112,192,217440,1,8,0:0:0:0:
84,352,217671,1,2,0:0:0:0:
212,204,217902,5,2,1:0:0:0:
24,172,218132,1,2,0:0:0:0:
144,72,218363,1,8,0:0:0:0:
112,192,218594,1,0,0:0:0:0:
52,56,218825,1,2,1:0:0:0:
240,92,219056,1,2,0:0:0:0:
240,92,219132,1,0,0:0:0:0:
240,92,219209,1,0,0:0:0:0:
240,92,219286,2,0,L|292:88,2,40,8|0|0,0:0|0:0|0:0,0:0:0:0:
396,44,219748,6,0,P|404:88|400:128,1,80,2|2,1:0|0:0,0:0:0:0:
320,272,220209,2,0,P|316:236|320:192,1,80,8|2,0:0|0:0,0:0:0:0:
388,328,220671,2,0,P|344:356|276:352,1,120,2|0,1:0|0:0,0:0:0:0:
228,300,221132,2,0,P|169:295|118:324,1,120,8|0,0:0|0:0,0:0:0:0:
108,352,221594,6,0,P|105:313|88:256,1,80,2|2,1:0|0:0,0:0:0:0:
16,196,222056,1,8,0:0:0:0:
108,32,222286,2,0,P|105:71|88:128,1,80,2|2,0:0|1:0,0:0:0:0:
95,110,222979,1,0,1:0:0:0:
95,110,223440,6,0,L|180:116,1,80,2|2,1:0|0:0,0:0:0:0:
400,156,223902,2,0,L|320:164,1,80,8|0,0:0|0:0,0:0:0:0:
180,240,224363,2,0,P|176:284|176:320,1,80,2|0,1:0|0:0,0:0:0:0:
272,272,224825,1,8,0:0:0:0:
176,116,225056,1,0,0:0:0:0:
84,272,225286,5,2,1:0:0:0:
240,180,225517,1,2,0:0:0:0:
112,184,225748,1,8,0:0:0:0:
175,319,225979,1,0,0:0:0:0:
176,116,226209,2,0,P|232:96|304:112,1,120,2|0,1:0|0:0,0:0:0:0:
308,132,226671,2,0,L|312:40,1,80,8|0,0:0|0:0,0:0:0:0:
444,280,227132,6,0,P|452:236|448:188,1,80,2|2,1:0|0:0,0:0:0:0:
408,120,227594,1,8,0:0:0:0:
268,220,227825,2,0,P|260:259|261:299,1,80,2|2,0:0|1:0,0:0:0:0:
352,264,228286,1,0,0:0:0:0:
308,132,228517,2,0,L|256:136,2,40,8|0|0,0:0|0:0|0:0,0:0:0:0:
180,216,228979,6,0,B|64:204|64:204|16:224,1,160,2|8,1:0|0:0,0:0:0:0:
112,312,229671,1,2,0:0:0:0:
180,128,229902,2,0,L|88:120,1,80,2|0,1:0|0:0,0:0:0:0:
288,256,230363,2,0,L|388:248,1,90.0000034332277
424,260,230825,6,0,P|432:304|424:360,1,80,2|2,1:0|0:0,0:0:0:0:
356,144,231286,2,0,P|352:99|366:44,1,80,8|0,0:0|0:0,0:0:0:0:
288,256,231748,2,0,L|188:248,1,80,2|2,1:0|0:0,0:0:0:0:
56,196,232209,1,8,0:0:0:0:
144,332,232440,1,0,0:0:0:0:
156,168,232671,5,2,1:0:0:0:
44,296,232902,1,2,0:0:0:0:
4,128,233132,1,8,0:0:0:0:
192,96,233363,1,2,0:0:0:0:
124,244,233594,1,2,1:0:0:0:
88,68,233825,1,0,0:0:0:0:
88,68,233902,1,0,0:0:0:0:
88,68,233979,1,0,0:0:0:0:
88,68,234056,2,0,L|80:8,2,40,8|0|0,0:0|0:0|0:0,0:0:0:0:
56,192,234517,5,2,0:0:0:0:
56,192,234748,1,2,0:0:0:0:
76,336,235209,1,2,0:0:0:0:
36,160,235671,2,0,P|120:136|212:152,1,160,2|0,0:0|0:0,0:0:0:0:
296,260,236363,6,0,P|280:184|308:92,1,160,2|0,0:0|0:0,0:0:0:0:
464,60,237056,2,0,P|472:140|448:219,1,160,2|0,0:0|0:0,0:0:0:0:
460,344,237748,6,0,L|380:334,2,80
