osu file format v14

[General]
AudioFilename: iwytn.mp3
AudioLeadIn: 0
PreviewTime: 193902
Countdown: 0
SampleSet: Soft
StackLeniency: 0.7
Mode: 0
LetterboxInBreaks: 1
WidescreenStoryboard: 0

[Editor]
Bookmarks: 144517,180863
DistanceSpacing: 1.2
BeatDivisor: 4
GridSize: 4
TimelineZoom: 1

[Metadata]
Title:I Want You To Know (feat. Selena Gomez)
TitleUnicode:I Want You To Know (feat. Selena Gomez)
Artist:Zedd
ArtistUnicode:Zedd
Creator:Tari
Version:Hard
Source:
Tags:electric electronic dj electronica true colors ryan tedder electropop edm color ft.
BeatmapID:782274
BeatmapSetID:355300

[Difficulty]
HPDrainRate:5
CircleSize:4
OverallDifficulty:6
ApproachRate:7
SliderMultiplier:1.5
SliderTickRate:1

[Events]
//Background and Video events
0,0,"1234.png",0,0
//Break Periods
2,112871,117309
//Storyboard Layer 0 (Background)
//Storyboard Layer 1 (Fail)
//Storyboard Layer 2 (Pass)
//Storyboard Layer 3 (Foreground)
//Storyboard Sound Samples

[TimingPoints]
56,461.538461538462,4,2,0,75,1,0
7440,-117.647058823529,4,2,0,75,0,0
8132,-117.647058823529,4,2,0,60,0,0
22209,-100,4,2,0,70,0,0
53132,-100,4,2,1,75,0,0
68363,-100,4,2,0,80,0,0
83132,-100,4,1,2,80,0,1
83248,-100,4,2,2,80,0,1
96056,-100,4,1,1,65,0,1
97902,-100,4,1,2,80,0,1
98017,-100,4,2,2,80,0,1
112671,-133.333333333333,4,2,0,40,0,0
120056,-100,4,2,0,70,0,0
120171,-100,4,2,0,70,0,0
134825,-100,4,2,0,72,0,0
149132,-133.333333333333,4,2,0,60,0,0
149594,-100,4,2,1,70,0,0
164363,-100,4,2,1,75,0,0
179132,-100,4,2,1,80,0,0
193902,-100,4,2,2,85,0,1
206825,-100,4,1,1,75,0,1
208671,-100,4,2,2,85,0,1
230363,-133.333333333333,4,2,0,30,0,1
230825,-100,4,2,2,80,0,1
234517,-100,4,2,1,50,0,0
237748,-100,4,2,1,20,0,0

[Colours]
Combo1 : 255,203,45
Combo2 : 255,126,64
Combo3 : 53,145,255
Combo4 : 236,0,118

[HitObjects]
92,36,7440,5,4,0:3:0:0:
92,36,8363,2,0,L|96:100,1,63.7500012159348,2|0,0:0|0:0,0:0:0:0:
172,112,8825,2,0,L|176:176,1,63.7500012159348,0|0,0:0|0:0,0:0:0:0:
180,252,9286,2,0,P|244:264|308:248,1,127.50000243187,2|0,0:0|0:0,0:0:0:0:
455,121,10209,6,0,P|391:109|327:125,1,127.50000243187
399,263,11132,2,0,L|403:331,1,63.7500012159348,2|0,0:0|0:0,0:0:0:0:
257,259,11825,2,0,L|249:115,1,127.50000243187,2|2,0:0|0:0,0:0:0:0:
245,55,12517,1,0,0:0:0:0:
101,107,12979,6,0,L|173:103,2,63.7500012159348,8|0|0,0:3|0:0|0:0,0:0:0:0:
37,149,13671,2,0,P|25:209|45:285,1,127.50000243187,2|0,0:0|0:0,0:0:0:0:
89,330,14363,2,0,P|117:310|157:298,1,63.7500012159348
216,332,14825,5,2,0:0:0:0:
216,332,15056,1,2,0:0:0:0:
440,280,15748,2,0,L|452:204,1,63.7500012159348,0|2,0:0|0:0,0:0:0:0:
391,167,16209,2,0,L|379:91,1,63.7500012159348
335,42,16671,2,0,P|263:50|187:46,1,127.50000243187,2|0,0:0|0:0,0:0:0:0:
52,44,17594,6,0,L|60:180,1,127.50000243187,2|0,0:0|0:0,0:0:0:0:
24,240,18286,1,2,0:0:0:0:
24,240,18402,1,0,0:0:0:0:
24,240,18517,1,2,0:0:0:0:
64,304,18748,2,0,P|100:336|180:336,1,127.50000243187,2|2,0:0|0:0,0:0:0:0:
335,337,19671,2,0,P|398:341|448:304,1,127.50000243187,2|0,0:0|0:0,0:0:0:0:
375,268,20363,6,0,P|383:192|359:136,1,127.50000243187,2|0,0:0|0:0,0:0:0:0:
264,122,21056,2,0,P|256:178|279:248,1,127.50000243187,2|0,0:0|0:0,0:0:0:0:
76,356,22209,6,0,L|-8:352,1,75,6|2,0:0|0:0,0:0:0:0:
108,280,22671,2,0,L|182:283,1,75,8|0,0:0|0:0,0:0:0:0:
32,240,23132,1,0,0:0:0:0:
109,193,23363,1,0,0:0:0:0:
29,151,23594,1,8,0:0:0:0:
106,105,23825,1,0,0:0:0:0:
185,147,24056,6,0,P|241:155|305:95,1,150,2|8,0:0|0:0,0:0:0:0:
380,46,24748,2,0,L|396:138,1,75,2|0,0:0|0:0,0:0:0:0:
480,98,25209,2,0,L|467:171,1,75,0|8,0:0|0:0,0:0:0:0:
413,244,25671,1,2,0:0:0:0:
411,334,25902,6,0,P|459:326|483:302,1,75,2|0,0:0|0:0,0:0:0:0:
324,360,26363,2,0,L|216:352,1,75,8|2,0:0|0:0,0:0:0:0:
208,273,26825,1,0,0:0:0:0:
124,281,27056,1,2,0:0:0:0:
64,337,27286,1,8,0:0:0:0:
180,199,27748,5,2,0:0:0:0:
96,207,27979,1,0,0:0:0:0:
36,263,28209,1,8,0:0:0:0:
147,121,28671,5,2,0:0:0:0:
63,129,28902,1,0,0:0:0:0:
3,185,29132,1,8,0:0:0:0:
168,48,29594,6,0,B|224:64|224:64|316:44,1,150,2|8,0:0|0:0,0:0:0:0:
397,10,30286,1,2,0:0:0:0:
456,76,30517,2,0,L|460:152,1,75,2|2,0:0|0:0,0:0:0:0:
380,192,30979,2,0,L|376:117,1,75,8|0,0:0|0:0,0:0:0:0:
448,244,31440,6,0,P|388:276|312:248,1,150,2|8,0:0|0:0,0:0:0:0:
232,213,32132,2,0,P|228:253|232:293,1,75,2|0,0:0|0:0,0:0:0:0:
284,360,32594,1,0,0:0:0:0:
193,366,32825,2,0,P|156:358|119:358,1,75,8|2,0:0|0:0,0:0:0:0:
119,358,33171,1,0,0:0:0:0:
119,358,33286,5,2,0:0:0:0:
29,362,33517,1,0,0:0:0:0:
56,212,33748,2,0,L|64:292,1,75,8|2,0:0|0:0,0:0:0:0:
144,248,34209,1,0,0:0:0:0:
168,168,34440,1,2,0:0:0:0:
188,88,34671,1,8,0:0:0:0:
240,260,35132,5,2,0:0:0:0:
264,180,35363,1,0,0:0:0:0:
284,100,35594,1,8,0:0:0:0:
348,268,36056,5,2,0:0:0:0:
372,188,36287,1,0,0:0:0:0:
392,108,36518,1,8,0:0:0:0:
428,284,36979,6,0,P|392:340|304:340,1,150,4|8,0:0|0:0,0:0:0:0:
268,268,37671,1,2,0:0:0:0:
184,296,37902,2,0,L|192:380,1,75,0|2,0:0|0:0,0:0:0:0:
100,300,38363,2,0,L|92:225,1,75,8|0,0:0|0:0,0:0:0:0:
20,176,38825,6,0,P|88:144|160:168,1,150,2|8,0:0|0:0,0:0:0:0:
240,200,39517,2,0,L|248:120,1,75,2|0,0:0|0:0,0:0:0:0:
328,84,39979,1,0,0:0:0:0:
360,168,40209,2,0,L|352:242,1,75,8|2,0:0|0:0,0:0:0:0:
272,284,40671,6,0,L|122:278,1,150,4|8,0:3|0:0,0:0:0:0:
76,200,41363,1,2,0:0:0:0:
8,140,41594,2,0,P|44:116|84:112,2,75,0|2|8,0:0|0:0|0:0,0:0:0:0:
0,232,42286,1,0,0:0:0:0:
68,292,42517,6,0,L|80:368,1,75,4|2,0:3|0:0,0:0:0:0:
172,368,42979,1,8,0:0:0:0:
132,208,43440,6,0,L|144:284,1,75,0|0,0:0|0:0,0:0:0:0:
232,292,43902,1,8,0:0:0:0:
208,132,44363,6,0,L|220:216,1,75,2|2,0:0|0:0,0:0:0:0:
308,208,44825,2,0,L|296:132,1,75,8|2,0:0|0:0,0:0:0:0:
380,100,45286,2,0,L|460:96,1,75,0|2,0:0|0:0,0:0:0:0:
468,184,45748,2,0,L|393:187,1,75,8|0,0:0|0:0,0:0:0:0:
308,208,46209,6,0,P|304:252|316:296,1,75,2|0,0:0|0:0,0:0:0:0:
336,368,46671,1,8,0:0:0:0:
248,352,46902,1,2,0:0:0:0:
248,352,47132,2,0,B|197:352|197:352|158:372|158:372|92:371,1,150,0|8,0:0|0:0,0:0:0:0:
44,304,47825,1,2,0:0:0:0:
88,228,48056,6,0,B|104:152|104:152|88:76,1,150,4|8,3:0|0:0,0:0:0:0:
164,32,48748,1,0,0:0:0:0:
216,108,48979,2,0,L|292:120,2,75,0|2|8,0:0|0:0|0:0,0:0:0:0:
148,276,49902,2,0,L|72:288,1,75,2|0,0:0|0:0,0:0:0:0:
20,344,50363,1,8,0:0:0:0:
256,192,50479,12,0,53132,0:0:0:0:
452,44,53594,6,0,L|456:128,1,75,10|2,0:0|0:0,0:0:0:0:
504,200,54056,2,0,L|420:204,1,75,8|0,0:0|0:0,0:0:0:0:
356,152,54517,1,10,0:0:0:0:
296,220,54748,1,2,0:0:0:0:
372,268,54979,1,8,0:0:0:0:
312,336,55209,1,0,0:0:0:0:
236,288,55440,6,0,P|160:312|84:276,1,150,10|8,0:0|0:0,0:0:0:0:
56,208,56132,1,2,0:0:0:0:
80,120,56363,2,0,L|88:40,1,75,8|0,0:0|0:0,0:0:0:0:
176,140,56825,2,0,L|168:214,1,75,8|0,0:0|0:0,0:0:0:0:
240,272,57286,6,0,P|312:248|404:284,1,150,10|8,0:0|0:0,0:0:0:0:
464,304,57979,2,0,P|467:267|463:230,1,75,2|8,0:0|0:0,0:0:0:0:
388,180,58440,1,2,0:0:0:0:
388,180,58671,2,0,P|384:136|392:96,1,75,8|0,0:0|0:0,0:0:0:0:
304,52,59132,6,0,L|152:48,1,150,10|8,0:0|0:0,0:0:0:0:
64,36,59825,2,0,L|72:116,1,75,2|8,0:0|0:0,0:0:0:0:
112,196,60286,2,0,L|20:200,1,75,0|8,0:0|0:0,0:0:0:0:
160,124,60748,1,0,0:0:0:0:
204,204,60979,6,0,L|200:292,1,75,10|2,0:0|0:0,0:0:0:0:
260,348,61440,2,0,P|312:356|344:348,1,75,8|0,0:0|0:0,0:0:0:0:
452,256,61902,2,0,P|400:248|368:256,1,75,8|2,0:0|0:0,0:0:0:0:
292,272,62363,1,10,0:0:0:0:
320,184,62594,1,0,0:0:0:0:
248,128,62825,6,0,P|316:148|396:108,1,150,10|8,0:0|0:0,0:0:0:0:
440,48,63517,1,2,0:0:0:0:
352,32,63748,2,0,P|308:32|260:48,1,75,8|0,0:0|0:0,0:0:0:0:
188,56,64209,2,0,P|151:64|114:63,1,75,10|0,0:0|0:0,0:0:0:0:
16,44,64671,5,10,0:0:0:0:
16,44,64902,1,2,0:0:0:0:
40,132,65132,2,0,L|36:212,1,75,8|2,0:0|0:0,0:0:0:0:
120,248,65594,1,8,0:0:0:0:
32,360,65825,2,0,L|35:285,1,75,2|8,0:0|0:0,0:0:0:0:
120,248,66286,1,0,0:0:0:0:
128,340,66517,6,0,P|200:316|280:344,1,150,10|8,0:0|0:0,0:0:0:0:
356,360,67209,2,0,P|400:352|428:332,1,75,2|8,0:0|0:0,0:0:0:0:
476,260,67671,2,0,L|480:176,2,75,0|8|0,0:0|0:0|0:0,0:0:0:0:
368,280,68363,6,0,B|320:256|320:256|212:268,1,150,6|0,1:0|1:0,0:0:0:0:
148,312,69056,1,2,0:0:0:0:
148,312,69171,1,0,0:0:0:0:
148,312,69286,2,0,P|136:264|144:228,1,75,2|0,1:0|0:0,0:0:0:0:
204,172,69748,2,0,P|216:124|208:88,1,75,0|0,1:0|0:0,0:0:0:0:
128,128,70209,6,0,L|48:124,1,75,2|0,1:0|0:0,0:0:0:0:
53,124,70556,1,0,0:0:0:0:
53,124,70671,1,0,1:0:0:0:
8,200,70902,1,0,0:0:0:0:
8,200,71132,2,0,P|4:252|16:280,1,75,2|0,1:0|0:0,0:0:0:0:
160,232,71594,2,0,P|112:224|68:236,1,75,0|0,1:0|0:0,0:0:0:0:
86,228,71940,1,0,0:0:0:0:
86,228,72056,5,2,1:0:0:0:
124,308,72286,2,0,L|132:388,1,75,0|0,2:1|1:0,0:0:0:0:
220,380,72748,2,0,L|212:304,1,75,0|2,0:0|1:0,0:0:0:0:
160,232,73209,1,0,0:0:0:0:
160,232,73325,1,0,0:0:0:0:
160,232,73440,1,0,1:0:0:0:
232,204,73671,1,0,0:0:0:0:
304,244,73902,6,0,P|368:240|416:168,1,150,2|0,1:0|1:0,0:0:0:0:
396,84,74594,2,0,P|432:84|472:96,1,75,0|2,0:0|1:0,0:0:0:0:
320,124,75056,2,0,P|312:88|316:48,2,75,0|0|0,0:0|1:0|0:0,0:0:0:0:
224,128,75748,6,0,L|148:124,1,75,2|0,1:0|0:0,0:0:0:0:
104,272,76209,2,0,L|178:275,1,75,2|0,1:0|0:0,0:0:0:0:
244,204,76671,2,0,L|168:200,1,75,2|0,1:0|0:0,0:0:0:0:
76,352,77132,2,0,L|150:355,1,75,2|0,1:0|0:0,0:0:0:0:
240,352,77594,5,2,1:0:0:0:
240,352,77825,1,0,0:0:0:0:
328,344,78056,1,2,1:0:0:0:
328,344,78286,1,0,0:0:0:0:
416,336,78517,1,2,1:0:0:0:
416,336,78748,1,0,0:0:0:0:
504,320,78979,1,2,1:0:0:0:
504,320,79209,1,0,0:0:0:0:
256,192,79440,12,2,81286,1:0:0:0:
352,288,82671,5,0,1:0:0:0:
352,288,83132,6,0,P|360:244|356:204,1,75,4|2,1:0|0:0,0:0:0:0:
296,148,83594,1,8,0:0:0:0:
384,128,83825,2,0,L|472:136,1,75,0|2,0:0|1:0,0:0:0:0:
324,68,84286,2,0,L|249:74,1,75,2|8,0:0|0:0,0:0:0:0:
176,24,84748,1,0,0:0:0:0:
164,176,84979,6,0,L|152:96,1,75,2|2,1:1|0:0,0:0:0:0:
84,44,85440,1,8,0:0:0:0:
12,100,85671,1,0,0:0:0:0:
80,160,85902,2,0,P|84:236|80:280,1,112.5,2|0,1:0|0:0,0:0:0:0:
60,312,86363,2,0,L|144:304,1,75,8|0,0:0|0:0,0:0:0:0:
224,340,86825,6,0,L|214:265,1,75,2|2,1:0|0:0,0:0:0:0:
248,184,87286,2,0,P|208:180|168:192,1,75,8|0,0:0|0:0,0:0:0:0:
96,232,87748,2,0,P|87:196|92:159,1,75,2|0,1:0|0:0,0:0:0:0:
96,68,88209,2,0,L|56:64,2,37.5,10|0|0,0:0|0:0|0:0,0:0:0:0:
176,112,88671,5,2,1:0:0:0:
232,40,88902,1,2,0:0:0:0:
320,60,89132,1,8,0:0:0:0:
336,148,89363,1,0,0:0:0:0:
244,172,89594,2,0,L|228:260,1,75,2|2,1:0|0:0,0:0:0:0:
188,324,90056,2,0,L|113:316,1,75,10|2,0:0|0:0,0:0:0:0:
0,204,90517,6,0,L|80:196,1,75,6|2,1:0|0:0,0:0:0:0:
160,188,90979,1,8,0:0:0:0:
244,172,91209,2,0,P|248:124|240:88,1,75,0|2,0:0|1:0,0:0:0:0:
112,40,91671,2,0,P|107:87|114:124,1,75,2|8,0:0|0:0,0:0:0:0:
160,188,92132,1,2,0:0:0:0:
220,256,92363,6,0,L|300:248,1,75,2|2,1:0|0:0,0:0:0:0:
368,300,92825,1,8,0:0:0:0:
452,164,93056,2,0,L|377:171,1,75,0|2,0:0|1:0,0:0:0:0:
292,148,93517,2,0,L|288:116,3,25,0|0|0|8,0:0|0:0|0:0|0:0,0:0:0:0:
296,36,94209,6,0,P|252:32|216:44,1,75,2|2,1:0|0:0,0:0:0:0:
152,96,94671,1,8,0:0:0:0:
88,160,94902,2,0,L|96:240,1,75,0|2,0:0|1:0,0:0:0:0:
184,244,95363,2,0,L|192:324,2,75,2|10|0,0:0|0:0|0:0,0:0:0:0:
240,176,96056,5,8,0:0:0:0:
412,232,96517,1,8,0:0:0:0:
288,364,96979,2,0,L|236:360,3,37.5
191,318,97440,2,0,L|139:314,3,37.5
84,288,97902,6,0,P|80:240|108:196,1,75,6|2,1:0|0:0,0:0:0:0:
136,140,98363,1,8,0:0:0:0:
208,192,98594,2,0,L|296:188,1,75,2|2,0:0|1:0,0:0:0:0:
372,180,99056,1,2,0:0:0:0:
436,116,99286,1,8,0:0:0:0:
504,172,99517,1,0,0:0:0:0:
444,236,99748,6,0,L|448:316,1,75,2|2,1:0|0:0,0:0:0:0:
320,324,100209,2,0,L|316:249,1,75,8|0,0:0|0:0,0:0:0:0:
368,176,100671,2,0,P|308:164|260:176,1,112.5,2|0,1:0|0:0,0:0:0:0:
220,196,101132,2,0,L|216:112,1,75,8|0,0:0|0:0,0:0:0:0:
164,32,101594,6,0,L|84:36,1,75,2|2,1:0|0:0,0:0:0:0:
36,104,102056,1,8,0:0:0:0:
12,188,102286,2,0,L|4:268,1,75,0|2,0:0|1:0,0:0:0:0:
112,300,102748,2,0,L|104:225,2,75,0|8|0,0:0|0:0|0:0,0:0:0:0:
192,340,103440,5,2,1:0:0:0:
280,320,103671,1,2,0:0:0:0:
368,344,103902,1,8,0:0:0:0:
456,320,104132,2,0,L|460:232,1,75,0|2,0:0|1:0,0:0:0:0:
404,176,104594,2,0,P|448:160|492:160,2,75,2|10|2,0:0|0:0|0:0,0:0:0:0:
312,180,105286,6,0,L|228:176,1,75,2|2,1:0|0:0,0:0:0:0:
152,168,105748,1,8,0:0:0:0:
64,152,105979,2,0,P|60:104|72:68,1,75,0|2,0:0|1:0,0:0:0:0:
168,256,106440,2,0,P|175:292|170:329,1,75,2|8,0:0|0:0,0:0:0:0:
84,300,106902,1,0,0:0:0:0:
28,232,107132,5,2,1:0:0:0:
64,152,107363,1,2,0:0:0:0:
152,168,107594,1,8,0:0:0:0:
168,256,107825,1,2,0:0:0:0:
84,300,108056,1,2,1:0:0:0:
4,340,108286,2,0,L|8:380,3,25,2|0|0|8,0:0|0:0|0:0|0:0,0:0:0:0:
64,152,108979,6,0,L|60:48,1,75,2|2,1:0|0:0,0:0:0:0:
144,48,109440,1,8,0:0:0:0:
144,48,109671,2,0,L|228:44,1,75,0|2,0:0|1:0,0:0:0:0:
268,120,110132,2,0,L|352:116,2,75,0|10|0,0:0|0:0|0:0,0:0:0:0:
180,144,110825,5,2,1:0:0:0:
236,204,111056,1,2,0:0:0:0:
296,264,111286,1,8,0:0:0:0:
356,320,111517,1,0,0:0:0:0:
356,320,111748,5,2,1:0:0:0:
356,320,112209,1,10,1:2:0:0:
356,320,112671,1,0,0:3:0:0:
256,192,118209,12,4,120056,0:0:0:0:
496,248,120979,6,0,L|420:256,1,75,0|0,1:0|0:0,0:0:0:0:
344,208,121440,2,0,L|268:200,1,75,8|2,0:0|0:0,0:0:0:0:
180,192,121902,2,0,P|144:236|156:324,2,150,0|8|0,1:0|0:0|1:0,0:0:0:0:
324,84,123286,1,8,0:0:0:0:
148,40,123748,6,0,P|88:32|56:44,1,75,0|2,1:0|0:0,0:0:0:0:
0,188,124209,2,0,P|36:183|73:192,1,75,8|0,0:0|0:0,0:0:0:0:
120,268,124671,1,0,1:0:0:0:
196,316,124902,1,2,0:0:0:0:
116,352,125132,1,8,0:0:0:0:
280,276,125594,5,0,1:0:0:0:
356,324,125825,1,2,0:0:0:0:
276,360,126055,1,8,0:0:0:0:
436,276,126517,5,0,1:0:0:0:
512,324,126748,1,2,0:0:0:0:
432,360,126978,1,8,0:0:0:0:
360,196,127440,6,0,P|360:120|372:20,1,150,0|8,1:0|0:0,0:0:0:0:
280,68,128132,1,2,0:0:0:0:
196,96,128363,2,0,L|100:92,2,75,0|2|8,1:0|0:0|0:0,0:0:0:0:
264,156,129056,1,0,0:0:0:0:
180,192,129286,6,0,P|172:264|172:344,1,150,0|8,1:0|0:0,0:0:0:0:
260,320,129979,1,2,0:0:0:0:
336,272,130209,2,0,L|424:268,1,75,0|2,1:0|0:0,0:0:0:0:
496,300,130671,2,0,P|500:260|492:225,1,75,8|0,0:0|0:0,0:0:0:0:
412,184,131132,5,0,1:0:0:0:
412,184,131363,1,2,0:0:0:0:
316,112,131594,2,0,P|312:152|319:186,1,75,8|0,0:0|0:0,0:0:0:0:
336,272,132056,1,0,1:0:0:0:
380,344,132286,1,2,0:0:0:0:
464,368,132517,1,8,0:0:0:0:
244,244,132979,5,0,1:0:0:0:
169,282,133209,1,2,0:0:0:0:
139,364,133440,1,8,0:0:0:0:
256,156,133902,5,0,1:0:0:0:
236,72,134132,1,2,0:0:0:0:
160,24,134363,1,8,0:0:0:0:
348,204,134825,6,0,P|424:208|484:148,1,150,4|8,0:0|0:0,0:0:0:0:
512,80,135517,1,2,0:0:0:0:
440,24,135748,2,0,P|364:20|304:80,1,150,0|8,1:0|0:0,0:0:0:0:
280,152,136440,1,0,0:0:0:0:
204,204,136671,6,0,L|124:204,1,75,0|0,1:0|0:0,0:0:0:0:
40,208,137132,2,0,L|46:282,1,75,8|2,0:0|0:0,0:0:0:0:
88,364,137594,2,0,P|148:336|232:344,1,150,0|8,1:0|0:0,0:0:0:0:
312,344,138286,1,2,0:0:0:0:
380,288,138517,6,0,L|368:208,1,75,0|0,1:0|0:0,0:0:0:0:
320,136,138979,1,8,0:0:0:0:
248,188,139209,2,0,P|216:212|172:216,1,75,2|0,0:0|1:0,0:0:0:0:
184,128,139671,2,0,P|152:103|136:62,1,75,2|8,0:0|0:0,0:0:0:0:
224,48,140132,1,2,0:0:0:0:
312,61,140363,6,0,L|320:137,1,75,0|0,1:0|0:0,0:0:0:0:
408,160,140825,1,8,0:0:0:0:
228,184,141286,6,0,L|239:258,1,75,0|0,1:0|0:0,0:0:0:0:
324,284,141748,1,8,0:0:0:0:
148,316,142209,6,0,L|124:164,1,150,0|8,1:0|0:0,0:0:0:0:
116,76,142902,1,2,0:0:0:0:
48,136,143132,2,0,P|48:196|68:228,2,75,0|0|8,1:0|0:0|0:0,0:0:0:0:
248,80,144056,6,0,P|296:84|336:72,1,75,0|2,1:0|0:0,0:0:0:0:
400,36,144517,2,0,P|436:29|473:34,1,75,8|0,0:0|0:0,0:0:0:0:
436,116,144979,2,0,B|428:160|428:160|448:216|448:216|432:292,1,150,0|8,1:0|0:0,0:0:0:0:
388,336,145671,1,2,0:0:0:0:
304,368,145902,6,0,B|294:323|294:323|314:267|314:267|306:223,1,150,0|8,1:0|0:0,0:0:0:0:
284,136,146594,1,2,0:0:0:0:
336,64,146825,2,0,P|384:68|416:56,2,75,0|0|8,1:0|0:0|0:0,0:0:0:0:
212,192,147748,2,0,L|184:272,2,75,8|0|0,0:3|0:0|0:0,0:0:0:0:
92,52,148671,5,0,0:0:0:0:
92,52,149132,1,8,0:0:0:0:
92,52,149594,6,0,L|84:160,1,75,10|2,0:0|0:0,0:0:0:0:
188,32,150056,2,0,L|180:140,1,75,8|0,0:0|0:0,0:0:0:0:
160,192,150517,1,8,0:0:0:0:
76,228,150748,1,2,0:0:0:0:
112,312,150979,1,8,0:0:0:0:
192,276,151209,1,0,0:0:0:0:
204,364,151440,6,0,P|280:352|356:364,1,150,10|8,0:0|0:0,0:0:0:0:
412,296,152132,1,0,0:0:0:0:
476,236,152363,2,0,L|468:100,1,112.5,10|0,0:0|0:0,0:0:0:0:
460,80,152825,2,0,P|408:72|372:84,1,75,8|0,0:0|0:0,0:0:0:0:
316,128,153286,5,10,0:0:0:0:
316,128,153517,1,2,0:0:0:0:
232,164,153748,2,0,P|228:220|232:248,1,75,8|2,0:0|0:0,0:0:0:0:
312,276,154209,2,0,L|400:272,2,75,8|2|8,0:0|0:0|0:0,0:0:0:0:
236,324,154902,1,0,0:0:0:0:
156,364,155132,6,0,L|56:360,1,75,10|0,0:0|0:0,0:0:0:0:
44,280,155594,1,8,0:0:0:0:
44,280,155825,2,0,P|48:236|40:192,1,75,2|8,0:0|0:0,0:0:0:0:
20,120,156286,1,0,0:0:0:0:
80,56,156517,2,0,P|124:52|164:56,1,75,8|0,0:0|0:0,0:0:0:0:
208,212,156979,6,0,L|216:124,1,75,10|2,0:0|0:0,0:0:0:0:
296,180,157440,2,0,L|289:254,1,75,8|0,0:0|0:0,0:0:0:0:
216,304,157902,2,0,L|140:300,1,75,8|2,0:0|0:0,0:0:0:0:
133,208,158363,2,0,L|207:211,1,75,8|0,0:0|0:0,0:0:0:0:
296,180,158825,6,0,P|312:124|296:32,1,150,10|8,0:0|0:0,0:0:0:0:
216,68,159517,1,2,0:0:0:0:
136,104,159748,2,0,P|80:116|16:104,1,112.5,10|0,0:0|0:0,0:0:0:0:
0,80,160209,2,0,L|8:176,1,75,8|0,0:0|0:0,0:0:0:0:
88,196,160671,5,2,0:0:0:0:
8,240,160902,1,2,0:0:0:0:
84,288,161132,2,0,P|152:268|236:292,1,150,8|8,0:0|0:0,0:0:0:0:
312,252,161825,2,0,P|317:289|309:326,2,75,2|8|0,0:0|0:0|0:0,0:0:0:0:
320,164,162517,6,0,P|272:176|248:212,1,75,10|0,0:0|0:0,0:0:0:0:
188,136,162979,1,8,0:0:0:0:
188,136,163209,2,0,P|168:180|172:220,1,75,2|8,0:0|0:0,0:0:0:0:
80,196,163671,2,0,P|85:244|109:276,1,75,0|8,0:0|0:0,0:0:0:0:
184,292,164132,1,0,0:0:0:0:
152,376,164363,6,0,L|232:372,1,75,4|2,0:3|0:0,0:0:0:0:
316,364,164825,2,0,L|304:280,1,75,8|0,0:0|0:0,0:0:0:0:
248,220,165286,1,8,0:0:0:0:
324,172,165517,1,2,0:0:0:0:
380,244,165748,2,0,P|420:248|460:232,1,75,8|0,0:0|0:0,0:0:0:0:
480,152,166209,6,0,B|504:128|504:128|512:64|484:4,1,150,10|8,0:0|0:0,0:0:0:0:
400,40,166902,1,0,0:0:0:0:
400,40,167132,2,0,L|312:48,1,75,8|0,0:0|0:0,0:0:0:0:
253,169,167594,2,0,L|341:177,1,75,8|0,0:0|0:0,0:0:0:0:
460,264,168056,6,0,L|364:272,1,75,8|2,0:0|0:0,0:0:0:0:
296,280,168517,2,0,P|252:312|160:300,1,150,8|8,0:0|0:0,0:0:0:0:
116,224,169209,1,2,0:0:0:0:
116,224,169440,2,0,L|112:148,1,75,8|0,0:0|0:0,0:0:0:0:
40,268,169902,6,0,P|28:176|36:116,1,150,10|8,0:0|0:0,0:0:0:0:
104,64,170594,2,0,P|148:68|176:92,1,75,2|8,0:0|0:0,0:0:0:0:
240,28,171056,2,0,P|264:64|268:100,1,75,0|8,0:0|0:0,0:0:0:0:
212,164,171517,1,0,0:0:0:0:
152,232,171748,6,0,L|140:312,1,75,10|2,0:0|0:0,0:0:0:0:
224,344,172209,2,0,P|264:356|300:352,1,75,8|0,0:0|0:0,0:0:0:0:
348,280,172671,1,10,0:0:0:0:
428,240,172902,1,2,0:0:0:0:
500,292,173132,2,0,L|512:212,1,75,8|0,0:0|0:0,0:0:0:0:
444,156,173594,6,0,P|432:76|428:0,1,150,10|8,0:0|0:0,0:0:0:0:
348,48,174286,1,2,0:0:0:0:
272,96,174517,2,0,L|132:84,1,112.5,8|0,0:0|0:0,0:0:0:0:
124,56,174979,2,0,P|80:56|48:72,1,75,10|0,0:0|0:0,0:0:0:0:
16,152,175440,5,10,0:0:0:0:
16,152,175671,1,2,0:0:0:0:
96,188,175902,2,0,P|104:232|96:272,1,75,8|2,0:0|0:0,0:0:0:0:
84,348,176363,2,0,L|-8:340,2,75,8|2|8,0:0|0:0|0:0,0:0:0:0:
172,328,177056,1,2,0:0:0:0:
220,252,177286,6,0,P|240:184|212:100,1,150,10|8,0:0|0:0,0:0:0:0:
160,40,177979,2,0,L|76:32,1,75,2|8,0:0|0:0,0:0:0:0:
8,76,178440,1,0,0:0:0:0:
80,132,178671,2,0,L|72:220,1,75,8|0,0:0|0:0,0:0:0:0:
24,296,179132,6,0,B|60:316|97:307|97:307|133:287|172:304,1,150,2|0,1:0|1:0,0:0:0:0:
264,344,179825,1,0,0:0:0:0:
264,344,179940,1,0,0:0:0:0:
264,344,180056,2,0,L|268:264,1,75,2|2,1:0|0:0,0:0:0:0:
240,184,180517,2,0,P|284:180|328:188,1,75,0|0,1:0|0:0,0:0:0:0:
401,150,180979,6,0,P|403:187|396:224,1,75,2|2,1:0|0:0,0:0:0:0:
395,224,181324,1,0,0:0:0:0:
395,224,181440,1,0,1:0:0:0:
348,296,181671,1,2,0:0:0:0:
348,296,181902,2,0,P|388:308|432:304,1,75,2|0,1:0|0:0,0:0:0:0:
267,269,182363,2,0,L|264:344,1,75,0|0,1:0|0:0,0:0:0:0:
264,344,182709,1,0,0:0:0:0:
264,344,182825,5,2,1:0:0:0:
180,284,183056,2,0,L|188:196,1,75,2|0,0:0|1:0,0:0:0:0:
100,200,183517,1,0,0:0:0:0:
100,200,183632,1,0,0:0:0:0:
100,200,183748,2,0,L|92:296,1,75,2|2,1:0|0:0,0:0:0:0:
96,364,184209,2,0,L|180:372,1,75,0|0,1:0|0:0,0:0:0:0:
248,324,184671,6,0,L|328:320,2,75,2|2|0,1:0|0:0|1:0,0:0:0:0:
167,281,185363,1,2,0:0:0:0:
167,281,185479,1,0,0:0:0:0:
167,281,185594,2,0,L|93:274,1,75,2|0,1:0|0:0,0:0:0:0:
264,244,186056,2,0,L|384:240,1,112.5,0|0,1:0|0:0,0:0:0:0:
400,240,186517,6,0,P|432:200|432:172,1,75,2|0,1:0|0:0,0:0:0:0:
504,124,186979,2,0,P|479:98|443:91,1,75,2|0,1:0|0:0,0:0:0:0:
384,24,187440,2,0,P|352:64|352:92,1,75,2|0,1:0|0:0,0:0:0:0:
280,144,187902,2,0,P|305:171|342:179,1,75,2|0,1:0|0:0,0:0:0:0:
360,289,188363,5,2,1:0:0:0:
360,289,188594,1,0,0:0:0:0:
212,326,188825,1,2,1:0:0:0:
212,326,189056,1,0,0:0:0:0:
138,195,189286,1,2,1:0:0:0:
138,195,189517,1,0,0:0:0:0:
280,144,189748,1,2,1:0:0:0:
280,144,189979,1,0,0:0:0:0:
256,192,190209,12,2,192056,1:0:0:0:
24,276,193902,6,0,L|104:268,1,75,4|2,1:0|0:0,0:0:0:0:
156,200,194363,1,8,0:0:0:0:
196,280,194594,2,0,P|204:328|200:368,1,75,0|2,0:0|1:0,0:0:0:0:
244,200,195056,2,0,P|236:152|240:112,1,75,2|8,0:0|0:0,0:0:0:0:
300,64,195517,1,0,0:0:0:0:
300,64,195748,6,0,L|380:56,1,75,2|2,1:0|0:0,0:0:0:0:
468,184,196209,1,8,0:0:0:0:
380,168,196440,1,0,0:0:0:0:
292,156,196671,2,0,L|168:164,1,112.5,2|0,1:0|0:0,0:0:0:0:
144,164,197132,2,0,P|152:124|188:88,1,75,8|0,0:0|0:0,0:0:0:0:
184,252,197594,6,0,P|176:292|140:328,1,75,2|2,1:0|0:0,0:0:0:0:
92,240,198056,2,0,P|52:232|15:196,1,75,8|0,0:0|0:0,0:0:0:0:
144,164,198517,2,0,P|152:124|188:88,1,75,2|0,1:0|0:0,0:0:0:0:
260,72,198979,2,0,L|308:68,2,37.5,10|0|0,0:0|0:0|0:0,0:0:0:0:
236,160,199440,5,2,1:0:0:0:
304,216,199671,1,2,0:0:0:0:
388,180,199902,1,8,0:0:0:0:
452,244,200133,1,0,0:0:0:0:
368,280,200363,2,0,L|308:332,1,75,2|2,1:0|0:0,0:0:0:0:
200,329,200825,2,0,L|144:280,1,75,10|2,0:0|0:0,0:0:0:0:
88,208,201286,6,0,P|80:152|88:120,1,75,2|2,1:0|0:0,0:0:0:0:
148,72,201748,1,8,0:0:0:0:
232,104,201979,2,0,L|328:96,1,75,0|2,0:0|1:0,0:0:0:0:
192,192,202440,2,0,L|288:184,1,75,2|8,0:0|0:0,0:0:0:0:
356,176,202902,1,0,0:0:0:0:
440,100,203132,6,0,L|448:180,1,75,2|2,1:0|0:0,0:0:0:0:
500,248,203594,1,8,0:0:0:0:
388,336,203825,2,0,L|380:261,1,75,0|2,0:0|1:0,0:0:0:0:
292,244,204286,2,0,L|252:248,3,25,2|0|0|8,0:0|0:0|0:0|0:0,0:0:0:0:
288,96,204979,6,0,L|204:100,1,75,2|2,1:0|0:0,0:0:0:0:
132,140,205440,2,0,P|124:104|128:65,1,75,8|0,0:0|0:0,0:0:0:0:
200,200,205902,2,0,P|208:236|203:274,1,75,2|2,1:0|0:0,0:0:0:0:
164,356,206363,2,0,P|200:360|264:340,1,75,8|0,0:0|0:0,0:0:0:0:
320,312,206825,5,8,0:0:0:0:
488,248,207286,1,8,0:0:0:0:
348,140,207748,2,0,L|340:88,3,37.5,0|0|0|0,0:0|0:0|0:0|0:0,0:0:0:0:
268,52,208209,2,0,L|260:104,3,37.5,0|0|0|0,0:0|0:0|0:0|0:0,0:0:0:0:
232,164,208671,6,0,P|188:168|136:156,1,75,4|2,1:0|0:0,0:0:0:0:
96,96,209132,1,8,0:0:0:0:
40,168,209363,2,0,P|12:204|4:232,1,75,0|2,0:0|1:0,0:0:0:0:
96,240,209825,2,0,P|97:285|109:312,1,75,2|8,0:0|0:0,0:0:0:0:
192,344,210286,1,0,0:0:0:0:
260,248,210517,6,0,L|176:260,1,75,2|2,1:0|0:0,0:0:0:0:
260,156,210979,2,0,L|176:168,1,75,8|0,0:0|0:0,0:0:0:0:
320,84,211440,2,0,P|348:132|340:196,1,112.5,2|0,1:0|0:0,0:0:0:0:
344,220,211902,2,0,P|392:216|416:196,1,75,8|0,0:0|0:0,0:0:0:0:
460,124,212363,5,2,1:0:0:0:
460,124,212594,1,2,0:0:0:0:
512,200,212825,2,0,L|500:288,1,75,8|0,0:0|0:0,0:0:0:0:
436,336,213286,1,2,1:0:0:0:
392,260,213517,2,0,L|402:185,2,75,2|8|0,0:0|0:0|0:0,0:0:0:0:
348,340,214209,5,2,1:0:0:0:
304,260,214440,1,2,0:0:0:0:
212,260,214671,1,8,0:0:0:0:
164,340,214902,1,2,0:0:0:0:
256,340,215132,1,2,1:0:0:0:
256,180,215363,2,0,L|256:100,2,75,2|10|2,0:0|0:0|0:0,0:0:0:0:
348,128,216056,6,0,L|424:128,1,75,2|2,1:0|0:0,0:0:0:0:
488,236,216517,1,8,0:0:0:0:
488,236,216748,2,0,L|413:236,1,75,0|2,0:0|1:0,0:0:0:0:
336,212,217209,1,2,0:0:0:0:
264,252,217440,1,8,0:0:0:0:
192,292,217671,1,2,0:0:0:0:
120,336,217902,6,0,L|112:256,1,75,2|2,1:0|0:0,0:0:0:0:
108,180,218363,1,8,0:0:0:0:
104,96,218594,1,0,0:0:0:0:
108,180,218825,1,2,1:0:0:0:
180,136,219056,2,0,L|220:132,3,25,2|0|0|8,0:0|0:0|0:0|0:0,0:0:0:0:
352,56,219748,6,0,P|360:104|360:140,1,75,2|2,1:0|0:0,0:0:0:0:
312,196,220209,1,8,0:0:0:0:
256,264,220440,2,0,P|248:312|248:348,1,75,2|2,0:0|1:0,0:0:0:0:
332,312,220902,2,0,L|416:308,2,75,0|8|0,0:0|0:0|0:0,0:0:0:0:
256,264,221594,5,2,1:0:0:0:
172,232,221825,1,2,0:0:0:0:
92,192,222056,1,8,0:0:0:0:
172,152,222286,1,2,0:0:0:0:
256,120,222517,1,2,1:0:0:0:
256,120,222979,1,0,1:0:0:0:
256,120,223440,6,0,L|332:124,1,75,2|2,1:0|0:0,0:0:0:0:
440,224,223902,2,0,L|364:228,1,75,8|0,0:0|0:0,0:0:0:0:
232,248,224363,1,2,1:0:0:0:
320,328,224594,1,0,0:0:0:0:
232,248,224825,1,8,0:0:0:0:
320,328,225056,1,0,0:0:0:0:
200,344,225286,5,2,1:0:0:0:
200,344,225517,2,0,P|156:348|116:344,1,75,2|8,0:0|0:0,0:0:0:0:
76,272,225979,1,0,0:0:0:0:
48,188,226209,2,0,L|40:76,1,112.5,2|0,1:0|0:0,0:0:0:0:
60,36,226671,2,0,P|96:60|132:68,1,75,8|0,0:0|0:0,0:0:0:0:
220,40,227132,6,0,L|228:116,1,75,2|2,1:0|0:0,0:0:0:0:
304,160,227594,1,8,0:0:0:0:
352,20,227825,2,0,L|359:94,1,75,2|2,0:0|1:0,0:0:0:0:
416,160,228286,1,0,0:0:0:0:
364,232,228517,2,0,L|289:239,1,75,8|0,0:0|0:0,0:0:0:0:
316,324,228979,6,0,L|392:320,1,75,2|0,1:0|0:0,0:0:0:0:
468,272,229440,1,8,0:0:0:0:
480,184,229671,2,0,L|472:109,2,75,2|2|0,0:0|1:0|0:0,0:0:0:0:
384,196,230363,2,0,P|380:148|384:92,1,84.3750032186509
392,72,230825,6,0,P|352:64|308:80,1,75,2|2,1:0|0:0,0:0:0:0:
240,32,231286,2,0,P|231:68|239:104,1,75,8|0,0:0|0:0,0:0:0:0:
304,168,231748,1,2,1:0:0:0:
264,240,231979,1,2,0:0:0:0:
200,292,232209,1,8,0:0:0:0:
120,308,232440,1,0,0:0:0:0:
44,272,232671,6,0,P|36:224|48:188,1,75,2|2,1:0|0:0,0:0:0:0:
104,132,233132,1,8,0:0:0:0:
104,132,233363,1,2,0:0:0:0:
192,144,233594,2,0,P|268:128|296:56,1,150,2|8,1:0|0:0,0:0:0:0:
440,144,234517,6,0,L|432:248,1,75,2|2,0:0|0:0,0:0:0:0:
324,344,235209,2,0,P|256:360|176:344,1,150,2|2,0:0|0:0,0:0:0:0:
184,100,236363,2,0,P|257:88|332:96,1,150,2|0,0:0|0:0,0:0:0:0:
404,140,237056,1,2,0:0:0:0:
404,140,237748,6,0,B|372:176|372:176|424:212|424:212|384:244,1,150,0|0,0:0|0:0,0:0:0:0:
