osu file format v14

[General]
AudioFilename: audio.mp3
AudioLeadIn: 0
PreviewTime: 139182
Countdown: 0
SampleSet: Normal
StackLeniency: 0.7
Mode: 2
LetterboxInBreaks: 0
WidescreenStoryboard: 0

[Editor]
Bookmarks: 45560
DistanceSpacing: 2.4
BeatDivisor: 4
GridSize: 32
TimelineZoom: 3.499999

[Metadata]
Title:Clarity feat. Foxes (kamome sano remix)
TitleUnicode:Clarity feat. Foxes (kamome sano remix)
Artist:Zedd
ArtistUnicode:Zedd
Creator:Ascendance
Version:Ambivalence
Source:
Tags:Anton Zaslavski Zaslavsky dnb D&B drum n and bass broccoly
BeatmapID:1740665
BeatmapSetID:570924

[Difficulty]
HPDrainRate:6
CircleSize:3.7
OverallDifficulty:9.2
ApproachRate:9.2
SliderMultiplier:2.1
SliderTickRate:2

[Events]
//Background and Video events
0,0,"68747470733a2f2f7075752e73682f76494566732f303034336434646233362e6a7067.jpg",0,0
//Break Periods
//Storyboard Layer 0 (Background)
//Storyboard Layer 1 (Fail)
//Storyboard Layer 2 (Pass)
//Storyboard Layer 3 (Foreground)
//Storyboard Sound Samples

[TimingPoints]
2126,329.67032967033,4,2,10,90,1,0
2126,-133.333333333333,4,2,10,90,0,0
2785,-133.333333333333,4,2,1,60,0,0
43664,-133.333333333333,4,2,9,50,0,0
44323,-133.333333333333,4,2,7,80,0,0
64104,-133.333333333333,4,1,2,35,0,0
65134,-133.333333333333,4,2,1,15,0,0
65175,-100,4,1,2,35,0,0
70779,-100,4,1,2,15,0,0
70862,-100,4,1,2,50,0,0
70944,-100,4,1,2,15,0,0
71027,-100,4,1,2,50,0,0
71109,-100,4,1,2,15,0,0
71191,-100,4,1,2,50,0,0
82977,-100,4,1,2,15,0,0
83060,-100,4,1,2,50,0,0
85120,-100,4,1,2,20,0,0
85202,-100,4,2,1,15,0,0
86480,-100,4,2,1,10,0,0
86521,-100,4,1,2,60,0,0
95175,-100,4,1,2,15,0,0
95257,-100,4,1,2,60,0,0
95340,-100,4,1,2,15,0,0
95422,-100,4,1,2,60,0,0
95505,-100,4,1,2,15,0,0
95587,-100,4,1,2,60,0,0
107620,-100,4,2,10,90,0,0
107702,-100,4,1,2,50,0,0
128719,-100,4,2,10,80,0,0
128801,-100,4,1,2,50,0,0
137208,-100,4,1,2,15,0,0
137290,-100,4,1,2,50,0,0
137538,-100,4,1,2,15,0,0
137620,-100,4,1,2,50,0,0
139268,-100,4,1,2,60,0,1
141082,-100,4,2,2,60,0,1
141164,-100,4,1,2,60,0,1
146027,-100,4,2,2,60,0,1
146109,-100,4,1,2,60,0,1
151301,-100,4,2,2,60,0,1
151384,-100,4,1,2,60,0,1
151961,-100,4,2,2,60,0,1
152043,-100,4,1,2,60,0,1
156576,-100,4,2,2,60,0,1
156658,-100,4,1,2,60,0,1
157235,-100,4,2,2,60,0,1
157318,-100,4,1,2,60,0,1
160367,-100,4,1,2,50,0,0
168197,-100,4,1,2,15,0,0
168279,-100,4,1,2,50,0,0
168362,-100,4,1,2,15,0,0
168444,-100,4,1,2,50,0,0
176768,-100,4,1,2,15,0,0
176851,-100,4,1,2,50,0,0
176933,-100,4,1,2,15,0,0
177016,-100,4,1,2,50,0,0
181796,-133.333333333333,4,1,2,50,0,0
190697,-133.333333333333,4,1,2,30,0,0
191686,-133.333333333333,4,1,2,10,0,0
192016,-133.333333333333,4,2,1,40,0,0
192510,-133.333333333333,4,2,1,35,0,0
193005,-133.333333333333,4,2,1,30,0,0
193499,-133.333333333333,4,2,1,25,0,0
193994,-133.333333333333,4,2,1,20,0,0
194653,-133.333333333333,4,2,1,40,0,0
195147,-133.333333333333,4,2,1,35,0,0
195807,-133.333333333333,4,2,1,30,0,0
196631,-133.333333333333,4,2,1,25,0,0
197290,-133.333333333333,4,2,1,40,0,0
197785,-133.333333333333,4,2,1,35,0,0
198279,-133.333333333333,4,2,1,30,0,0
198774,-133.333333333333,4,2,1,25,0,0
199268,-133.333333333333,4,2,1,20,0,0
199928,-133.333333333333,4,2,1,40,0,0
200422,-133.333333333333,4,2,1,35,0,0
200917,-133.333333333333,4,2,1,30,0,0
201411,-133.333333333333,4,2,1,25,0,0
201906,-133.333333333333,4,2,1,20,0,0
202565,-133.333333333333,4,2,1,50,0,0
213115,-133.333333333333,4,2,1,40,0,0
213609,-133.333333333333,4,2,1,35,0,0
214104,-133.333333333333,4,2,1,30,0,0
214598,-133.333333333333,4,2,1,25,0,0
215093,-133.333333333333,4,2,1,20,0,0
215752,-133.333333333333,4,2,1,40,0,0
217071,-133.333333333333,4,2,1,36,0,0
217730,-133.333333333333,4,2,1,32,0,0
218389,-133.333333333333,4,2,1,28,0,0
219049,-133.333333333333,4,2,1,24,0,0
219708,-133.333333333333,4,2,1,20,0,0
220367,-133.333333333333,4,2,1,16,0,0
221027,-133.333333333333,4,2,1,12,0,0
221686,-133.333333333333,4,2,1,10,0,0
222016,-133.333333333333,4,2,11,30,0,0
222180,-133.333333333333,4,2,1,5,0,0
222345,-133.333333333333,4,2,12,35,0,0
222510,-133.333333333333,4,2,1,5,0,0
222675,-133.333333333333,4,2,13,40,0,0
222840,-133.333333333333,4,2,1,5,0,0
223005,-133.333333333333,4,2,14,45,0,0
223169,-133.333333333333,4,2,1,5,0,0
223334,-133.333333333333,4,2,15,50,0,0
223499,-133.333333333333,4,2,1,35,0,0
223664,-100,4,1,2,60,0,1
225147,-100,4,2,2,60,0,1
225230,-100,4,1,2,60,0,1
225807,-100,4,2,2,60,0,1
225889,-100,4,1,2,60,0,1
230422,-100,4,2,2,60,0,1
230505,-100,4,1,2,60,0,1
231082,-100,4,2,2,60,0,1
231164,-100,4,1,2,60,0,1
235697,-100,4,2,2,60,0,1
235779,-100,4,1,2,60,0,1
240972,-100,4,2,2,60,0,1
241054,-100,4,1,2,60,0,1
241631,-100,4,2,2,60,0,1
241713,-100,4,1,2,60,0,1
244433,-100,4,1,2,60,0,0
244763,-100,4,1,2,60,0,1
246246,-100,4,2,2,60,0,1
246329,-100,4,1,2,60,0,1
251521,-100,4,2,2,60,0,1
251604,-100,4,1,2,60,0,1
256796,-100,4,2,2,60,0,1
256878,-100,4,1,2,60,0,1
257455,-100,4,2,2,60,0,1
257538,-100,4,1,2,60,0,1
262071,-100,4,2,2,60,0,1
262153,-100,4,1,2,60,0,1
265862,-100,4,1,2,60,0,0
286961,-100,4,2,10,80,0,0
297510,-100,4,2,1,45,0,0
300147,-100,4,2,1,30,0,0
302785,-100,4,2,1,25,0,0
305422,-100,4,2,1,10,0,0
308060,-100,4,2,1,20,0,0
308389,-100,4,2,1,18,0,0
308884,-100,4,2,1,16,0,0
309378,-100,4,2,1,14,0,0
309873,-100,4,2,1,12,0,0
310367,-100,4,2,1,10,0,0
310862,-100,4,2,1,8,0,0
311356,-100,4,2,1,6,0,0
311851,-100,4,2,1,5,0,0

[Colours]
Combo1 : 128,255,128
Combo2 : 255,138,138
Combo3 : 79,158,255
Combo4 : 255,255,128

[HitObjects]
120,336,2126,6,0,P|33:222|160:128,1,315.000012016297,4|2,0:0|0:0,0:0:0:0:
408,64,3444,2,0,L|81:64,1,315.000012016297,0|2,0:0|0:0,0:0:0:0:
408,336,4763,6,0,P|506:230|390:121,1,315.000012016297,0|2,0:0|0:0,0:0:0:0:
120,48,6082,2,0,L|441:48,1,315.000012016297,0|2,0:0|0:0,0:0:0:0:
104,48,7400,6,0,P|6:151|134:247,1,315.000012016297,0|2,0:0|0:0,0:0:0:0:
264,72,8719,2,0,P|363:175|254:284,1,315.000012016297,0|2,0:0|0:0,0:0:0:0:
408,48,10038,6,0,P|258:91|104:41,1,315.000012016297,0|2,0:0|0:0,0:0:0:0:
264,64,11357,2,0,P|368:166|265:291,1,315.000012016297,0|2,0:0|0:0,0:0:0:0:
64,320,12675,5,0,0:0:0:0:
232,320,13334,1,2,0:0:0:0:
64,320,13994,1,0,0:0:0:0:
232,320,14653,1,2,0:0:0:0:
448,320,15312,5,0,0:0:0:0:
280,320,15971,1,2,0:0:0:0:
448,320,16631,1,0,0:0:0:0:
280,320,17290,1,2,0:0:0:0:
120,256,17950,6,0,P|92:129|255:31,1,315.000012016297,0|2,0:0|0:0,0:0:0:0:
360,312,19268,2,0,P|233:229|101:309,1,315.000012016297,0|2,0:0|0:0,0:0:0:0:
392,304,20587,6,0,P|448:232|341:53,1,315.000012016297,0|2,0:0|0:0,0:0:0:0:
144,64,21906,2,0,P|216:104|440:33,1,315.000012016297,0|2,0:0|0:0,0:0:0:0:
80,48,23224,6,0,L|84:233,1,157.500006008148,0|0,0:0|0:0,0:0:0:0:
224,224,23884,1,2,0:0:0:0:
464,312,24543,2,0,L|299:320,2,157.500006008148,0|0|2,0:0|0:0|0:0,0:0:0:0:
200,264,25862,5,0,0:0:0:0:
325,213,26191,2,0,P|368:136|310:71,1,157.500006008148,0|2,0:0|0:0,0:0:0:0:
127,29,27016,2,0,L|20:50,1,78.7500030040742,0|0,0:0|0:0,0:0:0:0:
256,104,27510,1,0,0:0:0:0:
448,168,27840,2,0,L|431:347,1,157.500006008148,2|0,0:0|0:0,0:0:0:0:
112,192,28499,5,0,0:0:0:0:
240,272,28829,2,0,L|408:264,1,157.500006008148,0|2,0:0|0:0,0:0:0:0:
152,117,29653,1,0,0:0:0:0:
272,40,29818,6,0,L|446:47,1,157.500006008148,0|0,0:0|0:0,0:0:0:0:
216,112,30477,2,0,P|120:225|244:328,1,315.000012016297,2|0,0:0|0:0,0:0:0:0:
424,240,31466,6,0,L|248:240,1,157.500006008148,0|2,0:0|0:0,0:0:0:0:
120,176,32126,2,0,L|39:176,2,78.7500030040742,0|0|0,0:0|0:0|0:0,0:0:0:0:
277,171,32785,1,0,0:0:0:0:
479,170,33115,2,0,L|289:170,1,157.500006008148,2|0,0:0|0:0,0:0:0:0:
78,171,33774,5,0,0:0:0:0:
279,205,34104,1,0,0:0:0:0:
87,112,34433,2,0,P|18:197|87:292,1,236.250009012223,2|0,0:0|0:0,0:0:0:0:
256,344,35422,2,0,L|447:344,2,157.500006008148,0|0|2,0:0|0:0|0:0,0:0:0:0:
136,256,36411,6,0,L|101:159,2,78.7500030040742,0|0|0,0:0|0:0|0:0,0:0:0:0:
313,132,37071,2,0,L|132:124,1,157.500006008148,2|0,0:0|0:0,0:0:0:0:
409,41,37730,2,0,L|416:209,1,157.500006008148,0|0,0:0|0:0,0:0:0:0:
208,280,38389,2,0,L|123:290,2,78.7500030040742,2|0|0,0:0|0:0|0:0,0:0:0:0:
368,259,39049,5,0,0:0:0:0:
128,192,39378,1,0,0:0:0:0:
336,192,39708,2,0,P|405:108|320:16,1,236.250009012223,2|0,0:0|0:0,0:0:0:0:
128,88,40697,2,0,L|305:94,2,157.500006008148,0|0|2,0:0|0:0|0:0,0:0:0:0:
248,208,41686,6,0,L|263:296,2,78.7500030040742,0|0|0,0:0|0:0|0:0,0:0:0:0:
96,367,42345,2,0,L|256:349,1,157.500006008148,2|0,0:0|0:0,0:0:0:0:
416,248,43005,2,0,L|256:265,1,157.500006008148,0|0,0:0|0:0,0:0:0:0:
464,168,43664,2,0,L|481:82,2,78.7500030040742,6|0|0,0:0|0:0|0:0,0:0:0:0:
224,24,44323,6,0,P|18:138|248:328,1,630.000024032594,0|8,0:0|0:0,0:0:0:0:
392,192,46961,6,0,P|400:120|77:207,1,630.000024032594,0|8,0:0|0:0,0:0:0:0:
288,24,49598,6,0,P|360:24|232:329,1,630.000024032594,0|8,0:0|0:0,0:0:0:0:
120,192,52236,6,0,P|112:120|417:222,1,630.000024032594,0|8,0:0|0:0,0:0:0:0:
263,249,53884,2,0,L|97:269,2,157.500006008148,0|0|0,0:0|0:0|0:0,0:0:0:0:
41,65,54873,6,0,P|131:88|347:21,2,315.000012016297,0|0|8,0:0|0:0|0:0,0:0:0:0:
213,191,57016,2,0,L|110:176,2,78.7500030040742,0|0|0,0:0|0:0|0:0,0:0:0:0:
402,94,57510,6,0,B|306:113|210:167|210:167|273:168|419:218,1,393.750015020371,0|0,0:0|0:0,0:0:0:0:
431,330,58499,1,0,0:0:0:0:
312,284,58664,1,0,0:0:0:0:
125,348,58829,6,0,P|78:282|226:114,1,315.000012016297,8|0,0:0|0:0,0:0:0:0:
299,92,60147,6,0,P|407:133|195:172,1,630.000024032594,0|8,0:0|0:0,0:0:0:0:
256,192,62785,12,0,63774,0:0:0:0:
144,304,64104,6,0,L|133:244,1,39.3750015020371,4|0,0:0|2:0,0:0:0:0:
215,224,64268,2,0,L|207:174,1,39.3750015020371,4|0,0:0|2:0,0:0:0:0:
120,168,64433,2,0,L|108:120,1,39.3750015020371,4|0,0:0|0:0,0:0:0:0:
304,64,64598,1,8,0:0:0:0:
448,64,64762,1,8,0:0:0:0:
304,64,64928,2,0,L|248:64,1,39.3750015020371,4|8,0:0|0:0,0:0:0:0:
427,63,65175,2,0,L|490:62,1,52.5,8|4,0:0|0:0,0:0:0:0:
61,336,65422,6,0,L|45:221,1,105,4|0,0:0|0:0,0:0:0:0:
165,200,65752,1,8,0:0:0:0:
416,270,65917,1,0,0:0:0:0:
450,251,65999,1,0,0:0:0:0:
469,217,66081,1,0,0:0:0:0:
468,179,66164,1,0,0:0:0:0:
447,146,66246,1,4,0:0:0:0:
319,110,66411,1,8,0:0:0:0:
166,258,66576,1,0,0:0:0:0:
144,208,66658,1,0,0:0:0:0:
160,156,66741,5,0,0:0:0:0:
195,115,66823,1,0,0:0:0:0:
248,108,66906,1,4,0:0:0:0:
381,158,67071,1,8,0:0:0:0:
219,208,67235,2,0,L|210:143,1,52.5,0|0,0:0|0:0,0:0:0:0:
132,162,67400,2,0,L|122:101,1,52.5,0|0,0:0|0:0,0:0:0:0:
43,91,67565,2,0,L|161:68,1,105,4|8,0:0|0:0,0:0:0:0:
413,187,67895,1,0,0:0:0:0:
264,306,68060,6,0,L|255:251,1,52.5,4|0,0:0|0:0,0:0:0:0:
335,231,68224,2,0,L|344:179,1,52.5,0|0,0:0|0:0,0:0:0:0:
274,139,68389,1,8,0:0:0:0:
101,187,68554,1,0,0:0:0:0:
62,153,68636,1,0,0:0:0:0:
61,102,68718,1,0,0:0:0:0:
98,66,68801,1,0,0:0:0:0:
347,44,68884,1,4,0:0:0:0:
223,131,69049,2,0,L|153:131,1,52.5,0|0,0:0|0:0,0:0:0:0:
223,131,69213,2,0,L|287:131,1,52.5,8|0,0:0|0:0,0:0:0:0:
371,257,69378,6,0,L|381:202,1,52.5,0|0,0:0|0:0,0:0:0:0:
303,180,69543,2,0,L|312:121,1,52.5,4|0,0:0|0:0,0:0:0:0:
388,116,69708,1,0,0:0:0:0:
251,63,69873,1,8,0:0:0:0:
388,116,70038,2,0,L|400:54,1,52.5,0|0,0:0|0:0,0:0:0:0:
240,24,70202,2,0,L|130:16,1,105,4|8,0:0|0:0,0:0:0:0:
113,54,70450,1,0,0:0:0:0:
97,98,70532,1,0,0:0:0:0:
344,151,70697,6,0,L|470:167,1,105,4|0,0:0|0:0,0:0:0:0:
378,189,70944,1,0,2:0:0:0:
207,293,71027,2,0,L|197:219,1,52.5,8|0,0:0|2:0,0:0:0:0:
384,183,71191,2,0,L|403:67,1,105,8|0,0:0|0:0,0:0:0:0:
348,61,71439,1,8,0:0:0:0:
299,51,71521,1,4,0:0:0:0:
444,5,71686,1,4,0:0:0:0:
286,192,71851,2,0,L|277:133,1,52.5,0|0,0:0|0:0,0:0:0:0:
365,268,72016,6,0,L|374:207,1,52.5,0|0,0:0|0:0,0:0:0:0:
290,194,72180,1,4,0:0:0:0:
417,66,72345,2,0,L|306:76,1,105,8|0,0:0|0:0,0:0:0:0:
181,97,72675,2,0,L|119:81,2,52.5,0|0|4,0:0|0:0|0:0,0:0:0:0:
306,45,73005,1,8,0:0:0:0:
37,142,73169,1,0,0:0:0:0:
165,214,73334,6,0,L|236:230,2,52.5,0|8|4,0:0|0:0|0:0,0:0:0:0:
65,283,73664,1,4,0:0:0:0:
216,225,73829,1,4,0:0:0:0:
487,257,73994,1,8,0:0:0:0:
505,208,74076,1,0,0:0:0:0:
495,157,74158,1,4,0:0:0:0:
460,119,74241,1,0,0:0:0:0:
410,106,74323,1,0,0:0:0:0:
229,144,74406,2,0,L|220:73,1,52.5,8|0,0:0|0:0,0:0:0:0:
376,32,74571,6,0,L|432:19,1,52.5,4|0,0:0|0:0,0:0:0:0:
376,32,74735,2,0,L|311:22,1,52.5,0|4,0:0|0:0,0:0:0:0:
186,174,74983,2,0,L|178:114,1,52.5,0|0,0:0|0:0,0:0:0:0:
396,186,75147,2,0,L|504:203,1,105,8|0,0:0|0:0,0:0:0:0:
453,172,75395,1,0,0:0:0:0:
253,78,75477,2,0,L|198:87,1,52.5,4|0,0:0|0:0,0:0:0:0:
253,78,75642,2,0,L|322:90,1,52.5,8|0,0:0|0:0,0:0:0:0:
127,243,75807,2,0,L|190:235,1,52.5,0|0,0:0|0:0,0:0:0:0:
472,264,75972,6,0,L|479:142,1,105,4|0,0:0|0:0,0:0:0:0:
357,108,76301,1,8,0:0:0:0:
240,232,76466,1,0,0:0:0:0:
275,230,76548,1,0,0:0:0:0:
311,228,76630,1,0,0:0:0:0:
347,226,76713,1,0,0:0:0:0:
383,224,76795,1,4,0:0:0:0:
224,151,76961,2,0,L|188:42,1,105,8|0,0:0|0:0,0:0:0:0:
353,167,77290,6,0,L|329:277,1,105,0|4,0:0|0:0,0:0:0:0:
200,304,77620,1,8,0:0:0:0:
68,258,77785,1,0,0:0:0:0:
26,227,77867,1,0,0:0:0:0:
10,178,77949,1,0,0:0:0:0:
27,130,78032,1,0,0:0:0:0:
69,101,78114,1,4,0:0:0:0:
196,93,78279,2,0,L|261:93,1,52.5,8|0,0:0|0:0,0:0:0:0:
58,15,78444,2,0,L|2:15,1,52.5,0|0,0:0|0:0,0:0:0:0:
294,123,78609,6,0,L|408:114,2,105,4|0|8,0:0|0:0|0:0,0:0:0:0:
451,116,79104,1,0,0:0:0:0:
469,164,79186,1,0,0:0:0:0:
454,213,79268,1,0,0:0:0:0:
412,242,79351,1,0,0:0:0:0:
176,320,79433,2,0,L|68:299,1,105,4|0,0:0|0:0,0:0:0:0:
256,240,79763,1,8,0:0:0:0:
136,168,79928,6,0,L|122:140,6,26.25,8|8|8|8|4|0|0,0:0|0:0|0:0|0:0|0:0|0:0|0:0,0:0:0:0:
136,168,80257,2,0,L|195:150,1,52.5,0|0,0:0|0:0,0:0:0:0:
383,76,80422,2,0,L|446:63,1,52.5,8|0,0:0|0:0,0:0:0:0:
383,76,80587,2,0,L|316:65,1,52.5,0|0,0:0|0:0,0:0:0:0:
150,223,80752,2,0,L|271:205,1,105,4|8,0:0|0:0,0:0:0:0:
375,316,81082,1,0,0:0:0:0:
64,136,81246,6,0,L|76:253,1,105,4|4,0:0|0:0,0:0:0:0:
224,251,81576,1,8,0:0:0:0:
64,136,81741,2,0,L|75:251,1,105,0|4,0:0|0:0,0:0:0:0:
224,251,82071,1,8,0:0:0:0:
385,307,82235,1,0,0:0:0:0:
430,282,82317,1,8,0:0:0:0:
449,234,82399,1,0,0:0:0:0:
432,186,82482,1,0,0:0:0:0:
160,40,82565,5,8,0:0:0:0:
142,57,82606,1,8,0:0:0:0:
133,80,82647,1,8,0:0:0:0:
125,103,82688,1,0,0:0:0:0:
131,127,82729,1,0,0:0:0:0:
145,147,82771,1,0,0:0:0:0:
165,161,82812,1,4,0:0:0:0:
189,167,82854,1,0,0:0:0:0:
214,172,82895,6,0,L|290:172,2,52.5,0|0|0,0:0|2:0|0:0,0:0:0:0:
48,184,83142,2,0,L|53:294,1,105,8|0,0:0|0:0,0:0:0:0:
126,318,83389,1,4,0:0:0:0:
448,352,83554,2,0,L|461:236,1,105,8|0,0:0|0:0,0:0:0:0:
391,208,83801,1,0,0:0:0:0:
200,144,83884,6,0,L|87:133,2,105,4|4|8,0:0|0:0|0:0,0:0:0:0:
345,118,84378,2,0,L|356:85,2,26.25,8|0|0,0:0|0:0|0:0,0:0:0:0:
232,48,84543,2,0,L|206:22,4,26.25,0|0|0|0|4,0:0|0:0|0:0|0:0|0:0,0:0:0:0:
288,54,84790,1,0,0:0:0:0:
342,57,84873,2,0,L|416:63,2,52.5,0|4|0,0:0|0:0|0:0,0:0:0:0:
29,161,85202,5,0,2:0:0:0:
284,283,86027,2,0,L|65:284,1,210,0|0,0:0|0:0,0:0:0:0:
448,232,86521,6,0,L|464:109,1,105,6|0,0:0|0:0,0:0:0:0:
333,70,86851,1,8,0:0:0:0:
96,288,87016,2,0,P|56:226|80:144,1,157.5,0|0,0:0|0:0,0:0:0:0:
158,123,87345,2,0,L|270:134,2,105,4|8|0,0:0|0:0|0:0,0:0:0:0:
394,68,87840,6,0,L|458:53,2,52.5,0|0|4,0:0|0:0|0:0,0:0:0:0:
259,162,88169,2,0,L|137:134,1,105,8|0,0:0|0:0,0:0:0:0:
430,358,88499,1,0,0:0:0:0:
473,329,88581,1,0,0:0:0:0:
489,281,88663,1,4,0:0:0:0:
471,232,88746,1,0,0:0:0:0:
423,211,88829,2,0,L|311:201,1,105,8|0,0:0|0:0,0:0:0:0:
79,305,89158,6,0,L|192:292,1,105,4|0,0:0|0:0,0:0:0:0:
35,235,89488,1,8,0:0:0:0:
315,99,89653,2,0,L|451:88,2,105,0|0|4,0:0|0:0|0:0,0:0:0:0:
461,290,90147,2,0,L|470:173,1,105,0|8,0:0|0:0,0:0:0:0:
395,146,90395,1,0,0:0:0:0:
151,108,90477,6,0,L|84:118,2,52.5,0|0|4,0:0|0:0|0:0,0:0:0:0:
290,124,90807,1,0,0:0:0:0:
320,160,90889,1,0,0:0:0:0:
324,207,90971,1,8,0:0:0:0:
300,247,91054,1,0,0:0:0:0:
256,264,91136,2,0,L|130:264,1,105,0|4,0:0|0:0,0:0:0:0:
278,348,91466,2,0,L|395:348,1,105,8|0,0:0|0:0,0:0:0:0:
335,316,91713,1,0,0:0:0:0:
186,168,91796,5,4,0:0:0:0:
328,168,91961,1,0,0:0:0:0:
472,168,92126,1,8,0:0:0:0:
192,80,92290,1,0,0:0:0:0:
144,80,92372,1,0,0:0:0:0:
96,80,92454,1,0,0:0:0:0:
244,21,92620,2,0,L|369:22,1,105,4|8,0:0|0:0,0:0:0:0:
186,172,92950,2,0,L|179:106,1,52.5,4|0,0:0|0:0,0:0:0:0:
337,255,93115,6,0,L|394:243,2,52.5,0|0|4,0:0|0:0|0:0,0:0:0:0:
210,201,93444,1,8,0:0:0:0:
356,332,93609,1,0,0:0:0:0:
396,305,93691,1,0,0:0:0:0:
413,261,93773,1,0,0:0:0:0:
402,215,93856,1,0,0:0:0:0:
367,184,93938,1,4,0:0:0:0:
83,182,94104,2,0,L|77:74,1,105,8|0,0:0|0:0,0:0:0:0:
147,43,94351,1,0,0:0:0:0:
344,112,94433,5,4,0:0:0:0:
371,150,94515,1,0,0:0:0:0:
200,216,94597,1,4,0:0:0:0:
184,256,94680,1,0,0:0:0:0:
352,320,94763,2,0,L|471:321,1,105,8|0,0:0|0:0,0:0:0:0:
112,296,95093,2,0,L|96:176,1,105,0|4,0:0|0:0,0:0:0:0:
232,128,95422,1,0,0:0:0:0:
110,56,95587,2,0,L|38:71,1,52.5,8|0,0:0|0:0,0:0:0:0:
341,33,95752,5,0,0:0:0:0:
214,124,95917,2,0,L|209:182,2,52.5,4|0|0,0:0|0:0|0:0,0:0:0:0:
341,33,96246,1,8,0:0:0:0:
113,301,96411,2,0,L|120:245,1,52.5,0|0,0:0|0:0,0:0:0:0:
192,213,96576,2,0,L|241:192,1,52.5,4|0,0:0|0:0,0:0:0:0:
319,207,96741,2,0,L|377:219,1,52.5,8|0,0:0|0:0,0:0:0:0:
196,114,96906,2,0,L|139:101,1,52.5,8|8,0:0|0:0,0:0:0:0:
472,216,97071,6,0,L|335:232,2,105,4|0|8,0:0|0:0|0:0,0:0:0:0:
206,189,97565,2,0,P|158:125|222:51,1,157.5,0|0,0:0|0:0,0:0:0:0:
270,44,97895,2,0,L|387:62,2,105,4|8|0,0:0|0:0|0:0,0:0:0:0:
38,105,98389,6,0,L|29:45,2,52.5,0|0|4,0:0|0:0|0:0,0:0:0:0:
155,161,98719,1,8,0:0:0:0:
280,237,98884,2,0,L|289:160,2,52.5,0|0|0,0:0|0:0|0:0,0:0:0:0:
136,174,99213,1,4,0:0:0:0:
262,99,99378,2,0,L|199:99,1,52.5,8|0,0:0|0:0,0:0:0:0:
136,96,99543,2,0,L|214:96,1,52.5,0|0,0:0|0:0,0:0:0:0:
400,50,99708,6,0,L|522:50,2,105,4|0|8,0:0|0:0|0:0,0:0:0:0:
103,247,100202,2,0,L|109:184,1,52.5,0|0,0:0|0:0,0:0:0:0:
181,167,100367,1,0,0:0:0:0:
301,190,100532,1,4,0:0:0:0:
437,227,100697,2,0,L|449:113,1,105,0|8,0:0|0:0,0:0:0:0:
385,95,100944,1,0,0:0:0:0:
200,344,101027,5,0,0:0:0:0:
159,320,101109,1,0,0:0:0:0:
143,275,101191,1,4,0:0:0:0:
160,231,101274,1,0,0:0:0:0:
201,208,101356,1,0,0:0:0:0:
457,229,101521,1,8,0:0:0:0:
302,205,101686,1,0,0:0:0:0:
161,192,101851,1,4,0:0:0:0:
302,205,102016,1,8,0:0:0:0:
457,229,102180,2,0,L|474:160,1,52.5,0|0,0:0|0:0,0:0:0:0:
172,278,102345,6,0,L|47:292,2,105,4|0|8,0:0|0:0|0:0,0:0:0:0:
430,264,102840,1,0,0:0:0:0:
467,234,102922,1,0,0:0:0:0:
483,190,103004,1,0,0:0:0:0:
474,144,103087,1,0,0:0:0:0:
441,109,103169,1,4,0:0:0:0:
312,73,103334,1,8,0:0:0:0:
68,329,103499,6,0,L|58:204,1,105,4|0,0:0|0:0,0:0:0:0:
343,256,103829,2,0,L|196:227,1,105,4|8,0:0|0:0,0:0:0:0:
417,98,104158,1,0,0:0:0:0:
423,146,104240,1,0,0:0:0:0:
429,193,104323,1,0,0:0:0:0:
435,241,104405,1,0,0:0:0:0:
441,288,104487,1,4,0:0:0:0:
165,207,104653,2,0,L|41:193,1,105,8|0,0:0|0:0,0:0:0:0:
116,170,104900,1,8,0:0:0:0:
335,131,104983,6,0,L|411:140,1,52.5,4|8,0:0|0:0,0:0:0:0:
198,49,105147,2,0,L|112:59,1,52.5,4|0,0:0|0:0,0:0:0:0:
335,131,105312,1,8,0:0:0:0:
183,191,105477,2,0,L|174:134,1,52.5
344,288,105642,6,0,L|485:307,1,105,0|4,0:0|0:0,0:0:0:0:
270,214,105972,2,0,L|252:105,1,105,4|8,0:0|0:0,0:0:0:0:
321,68,106219,1,0,0:0:0:0:
120,48,106301,5,4,0:0:0:0:
63,69,106383,1,0,0:0:0:0:
48,114,106465,1,4,0:0:0:0:
82,166,106548,1,4,0:0:0:0:
152,200,106631,1,0,0:0:0:0:
204,229,106713,1,4,0:0:0:0:
210,276,106795,1,8,0:0:0:0:
168,322,106878,1,0,0:0:0:0:
24,352,106961,6,0,L|19:288,1,52.5,4|8,0:0|0:0,0:0:0:0:
288,200,107126,2,0,L|292:137,1,52.5,4|0,0:0|0:0,0:0:0:0:
56,56,107290,2,0,L|196:49,1,105,8|8,0:0|0:0,0:0:0:0:
215,48,107538,1,8,0:0:0:0:
440,32,107620,5,4,0:0:0:0:
248,128,107950,2,0,L|257:234,1,105,8|0,0:0|0:0,0:0:0:0:
392,288,108279,1,0,0:0:0:0:
256,224,108444,1,4,0:0:0:0:
252,176,108526,1,0,0:0:0:0:
248,128,108608,1,8,0:0:0:0:
352,64,108774,1,0,0:0:0:0:
104,64,108939,5,0,0:0:0:0:
56,91,109021,1,0,0:0:0:0:
44,136,109103,1,4,0:0:0:0:
71,185,109186,1,0,0:0:0:0:
248,248,109268,1,8,0:0:0:0:
160,336,109433,2,0,L|143:272,1,52.5,0|0,0:0|0:0,0:0:0:0:
211,248,109598,2,0,L|255:194,2,52.5,0|0|4,0:0|0:0|0:0,0:0:0:0:
24,144,109928,2,0,L|153:137,1,105,8|0,0:0|0:0,0:0:0:0:
24,144,110257,5,4,0:0:0:0:
272,104,110422,1,0,0:0:0:0:
157,154,110587,2,0,L|167:268,1,105,8|0,0:0|0:0,0:0:0:0:
214,275,110834,1,0,0:0:0:0:
416,240,110917,1,0,0:0:0:0:
451,208,110999,1,0,0:0:0:0:
461,162,111081,1,4,0:0:0:0:
442,119,111164,1,0,0:0:0:0:
401,96,111246,1,0,0:0:0:0:
264,64,111411,2,0,L|188:64,1,52.5,8|0,0:0|0:0,0:0:0:0:
376,32,111741,6,0,L|446:32,1,52.5,4|0,0:0|0:0,0:0:0:0:
176,144,112071,1,8,0:0:0:0:
276,276,112235,1,0,0:0:0:0:
279,228,112317,1,0,0:0:0:0:
283,180,112399,1,4,0:0:0:0:
152,312,112565,1,8,0:0:0:0:
276,276,112730,2,0,L|354:276,1,52.5,0|0,0:0|0:0,0:0:0:0:
64,208,112895,6,0,L|47:96,1,105,4|0,0:0|0:0,0:0:0:0:
160,48,113224,1,8,0:0:0:0:
408,176,113389,2,0,L|190:154,1,210,0|4,0:0|0:0,0:0:0:0:
456,336,113884,2,0,L|473:220,1,105,8|0,0:0|0:0,0:0:0:0:
409,192,114131,1,0,0:0:0:0:
208,184,114213,5,0,0:0:0:0:
162,152,114295,1,0,0:0:0:0:
152,106,114377,1,4,0:0:0:0:
181,60,114460,1,0,0:0:0:0:
352,32,114542,1,8,0:0:0:0:
440,80,114708,2,0,L|495:70,2,52.5,0|0|0,0:0|0:0|0:0,0:0:0:0:
296,112,115038,1,4,0:0:0:0:
408,160,115202,2,0,L|401:285,1,105,8|0,0:0|0:0,0:0:0:0:
345,285,115450,1,0,0:0:0:0:
48,328,115532,6,0,L|31:186,1,105,4|0,0:0|0:0,0:0:0:0:
145,174,115862,1,8,0:0:0:0:
448,271,116027,2,0,P|507:193|430:109,1,210,0|4,0:0|0:0,0:0:0:0:
336,80,116521,1,0,0:0:0:0:
208,136,116686,2,0,L|219:215,1,52.5,8|0,0:0|0:0,0:0:0:0:
288,184,116851,5,0,0:0:0:0:
328,208,116933,1,0,0:0:0:0:
345,252,117015,1,4,0:0:0:0:
333,298,117098,1,0,0:0:0:0:
296,327,117180,1,0,0:0:0:0:
160,345,117345,1,8,0:0:0:0:
283,301,117510,5,0,0:0:0:0:
286,248,117592,1,0,0:0:0:0:
290,196,117674,1,4,0:0:0:0:
60,189,117840,2,0,L|64:74,1,105,8|0,0:0|0:0,0:0:0:0:
116,65,118087,1,0,0:0:0:0:
368,128,118169,6,0,L|500:137,2,105,4|0|8,0:0|0:0|0:0,0:0:0:0:
118,109,118664,2,0,P|51:180|134:261,1,210,0|4,0:0|0:0,0:0:0:0:
259,287,119158,2,0,L|334:294,2,52.5,8|0|0,0:0|0:0|0:0,0:0:0:0:
112,224,119488,6,0,L|246:214,2,105,0|4|8,0:0|0:0|0:0,0:0:0:0:
275,303,119983,2,0,L|287:246,1,52.5,0|0,0:0|0:0,0:0:0:0:
89,181,120147,2,0,L|71:114,1,52.5,0|0,0:0|0:0,0:0:0:0:
232,34,120312,2,0,L|376:34,2,105,4|8|0,0:0|0:0|0:0,0:0:0:0:
174,33,120724,1,0,0:0:0:0:
380,92,120807,6,0,L|513:92,2,105,4|0|8,0:0|0:0|0:0,0:0:0:0:
115,309,121301,2,0,P|56:239|139:157,1,210,0|4,0:0|0:0,0:0:0:0:
255,143,121796,2,0,L|338:143,1,52.5,0|0,0:0|0:0,0:0:0:0:
255,143,121961,2,0,L|186:143,1,52.5,8|0,0:0|0:0,0:0:0:0:
404,85,122126,6,0,L|456:85,1,52.5,0|0,0:0|0:0,0:0:0:0:
120,326,122290,2,0,L|98:210,1,105,4|0,0:0|0:0,0:0:0:0:
415,235,122620,2,0,L|435:118,1,105,8|0,0:0|0:0,0:0:0:0:
291,151,122950,2,0,L|163:150,1,105,4|8,0:0|0:0,0:0:0:0:
348,84,123279,1,0,0:0:0:0:
117,242,123444,6,0,L|4:242,2,105,4|0|8,0:0|0:0|0:0,0:0:0:0:
392,307,123939,2,0,P|453:232|371:159,1,210,0|4,0:0|0:0,0:0:0:0:
256,152,124433,1,8,0:0:0:0:
389,132,124598,2,0,L|405:219,1,52.5
468,192,124763,5,0,0:0:0:0:
465,251,124845,1,0,0:0:0:0:
404,291,124927,1,4,0:0:0:0:
123,298,125093,1,8,0:0:0:0:
212,258,125257,2,0,L|220:193,1,52.5
154,168,125422,2,0,L|36:172,1,105,0|4,0:0|0:0,0:0:0:0:
218,108,125752,2,0,L|334:102,1,105,8|0,0:0|0:0,0:0:0:0:
368,138,125999,1,0,0:0:0:0:
156,290,126082,5,4,0:0:0:0:
74,242,126246,2,0,L|65:189,1,52.5,8|0,0:0|0:0,0:0:0:0:
337,181,126411,1,8,0:0:0:0:
218,108,126576,2,0,L|79:108,1,105,4|4,0:0|0:0,0:0:0:0:
170,72,126823,1,8,0:0:0:0:
223,73,126906,1,4,0:0:0:0:
370,72,127071,1,0,0:0:0:0:
86,259,127235,5,4,0:0:0:0:
226,318,127400,1,4,0:0:0:0:
86,259,127565,2,0,L|80:197,1,52.5,4|8,0:0|0:0,0:0:0:0:
296,170,127730,2,0,L|409:170,1,105,0|4,0:0|0:0,0:0:0:0:
348,147,127977,1,0,0:0:0:0:
152,112,128060,5,4,0:0:0:0:
104,148,128142,1,8,0:0:0:0:
92,202,128224,1,0,0:0:0:0:
103,249,128307,1,4,0:0:0:0:
143,281,128389,1,0,0:0:0:0:
259,321,128554,2,0,L|331:312,1,52.5,4|4,0:0|0:0,0:0:0:0:
464,264,128719,5,4,0:0:0:0:
336,192,128884,1,0,0:0:0:0:
341,144,128966,1,0,0:0:0:0:
347,96,129048,1,8,0:0:0:0:
472,48,129213,1,0,0:0:0:0:
230,279,129378,2,0,L|87:289,1,105,0|4,0:0|0:0,0:0:0:0:
12,174,129708,2,0,L|122:180,1,105,8|0,0:0|0:0,0:0:0:0:
416,272,130038,6,0,L|438:150,1,105,0|4,0:0|0:0,0:0:0:0:
256,56,130367,2,0,L|228:191,1,105,8|0,0:0|0:0,0:0:0:0:
468,29,130697,2,0,L|343:45,1,105,0|4,0:0|0:0,0:0:0:0:
226,141,131027,1,8,0:0:0:0:
278,146,131109,1,0,0:0:0:0:
330,152,131191,1,0,0:0:0:0:
69,255,131356,6,0,L|182:235,1,105,4|0,0:0|0:0,0:0:0:0:
454,294,131686,2,0,P|496:228|436:160,1,157.5,8|0,0:0|0:0,0:0:0:0:
400,161,132016,1,0,0:0:0:0:
258,156,132180,1,4,0:0:0:0:
437,72,132345,2,0,L|296:72,1,105,0|8,0:0|0:0,0:0:0:0:
277,71,132593,1,0,0:0:0:0:
102,320,132675,5,0,0:0:0:0:
65,290,132757,1,0,0:0:0:0:
52,244,132839,1,4,0:0:0:0:
66,199,132922,1,0,0:0:0:0:
104,171,133004,1,0,0:0:0:0:
340,191,133169,2,0,L|353:136,2,52.5,8|0|0,0:0|0:0|0:0,0:0:0:0:
205,324,133499,2,0,L|184:260,1,52.5,4|0,0:0|0:0,0:0:0:0:
270,236,133664,2,0,L|281:177,1,52.5,8|0,0:0|0:0,0:0:0:0:
358,167,133829,1,0,0:0:0:0:
56,216,133994,6,0,L|189:227,2,105,4|0|8,0:0|0:0|0:0,0:0:0:0:
327,159,134488,2,0,L|335:38,1,105,0|0,0:0|0:0,0:0:0:0:
204,75,134818,2,0,L|136:65,1,52.5,4|0,0:0|0:0,0:0:0:0:
348,314,134983,2,0,L|406:314,1,52.5,8|0,0:0|0:0,0:0:0:0:
348,314,135147,2,0,L|254:315,1,52.5
481,215,135312,6,0,L|499:80,1,105,0|4,0:0|0:0,0:0:0:0:
352,63,135642,1,8,0:0:0:0:
207,185,135807,1,0,0:0:0:0:
254,182,135889,1,0,0:0:0:0:
302,179,135971,1,0,0:0:0:0:
139,104,136136,1,4,0:0:0:0:
288,248,136301,2,0,L|281:379,1,105,8|0,0:0|0:0,0:0:0:0:
220,375,136549,1,0,0:0:0:0:
448,263,136631,5,4,0:0:0:0:
476,225,136713,1,0,0:0:0:0:
478,177,136795,1,0,0:0:0:0:
454,137,136878,1,0,0:0:0:0:
259,74,136961,2,0,L|136:74,1,105,8|8,0:0|0:0,0:0:0:0:
216,105,137208,1,0,2:0:0:0:
416,64,137290,2,0,L|479:64,1,52.5,4|0,0:0|0:0,0:0:0:0:
312,200,137455,2,0,L|195:200,2,105,0|0|8,0:0|0:0|0:0,0:0:0:0:
368,200,137867,1,0,0:0:0:0:
143,107,137950,6,0,L|19:108,1,105,4|8,0:0|0:0,0:0:0:0:
312,104,138279,1,4,0:0:0:0:
160,104,138444,1,4,0:0:0:0:
464,104,138609,1,8,0:0:0:0:
336,224,138774,2,0,L|266:217,1,52.5,4|0,0:0|0:0,0:0:0:0:
55,303,138939,1,0,0:0:0:0:
15,267,139021,1,8,0:0:0:0:
12,219,139103,1,0,0:0:0:0:
50,174,139186,1,0,0:0:0:0:
296,119,139268,6,0,L|431:112,1,105,6|4,0:0|0:0,0:0:0:0:
96,88,139598,1,8,0:0:0:0:
221,200,139763,2,0,L|230:108,2,52.5,0|0|0,0:0|0:0|0:0,0:0:0:0:
72,312,140093,2,0,L|198:320,1,105,4|0,0:0|0:0,0:0:0:0:
424,245,140422,5,2,0:2:0:0:
459,213,140504,1,0,0:0:0:0:
475,169,140586,1,4,0:0:0:0:
467,122,140669,1,0,0:0:0:0:
438,85,140751,1,2,0:2:0:0:
312,40,140917,5,8,0:0:0:0:
208,192,141082,1,6,0:0:0:0:
255,185,141164,1,0,0:0:0:0:
303,178,141246,1,0,0:0:0:0:
136,128,141411,1,0,0:0:0:0:
443,333,141576,2,0,L|450:203,1,105,8|0,0:0|0:0,0:0:0:0:
391,201,141823,1,0,0:0:0:0:
171,278,141906,6,0,L|51:278,1,105,4|4,0:0|0:0,0:0:0:0:
192,192,142235,1,8,0:0:0:0:
332,233,142400,2,0,L|390:233,1,52.5,0|0,0:0|0:0,0:0:0:0:
152,112,142565,2,0,L|31:112,1,105,0|4,0:0|0:0,0:0:0:0:
353,43,142895,2,0,L|467:43,1,105,0|8,0:0|0:0,0:0:0:0:
405,73,143142,1,0,0:0:0:0:
200,332,143224,6,0,L|186:268,1,52.5,0|0,0:0|0:0,0:0:0:0:
270,253,143389,2,0,L|281:198,1,52.5,4|0,0:0|0:0,0:0:0:0:
212,162,143554,1,0,0:0:0:0:
349,134,143719,2,0,L|367:73,1,52.5,8|0,0:0|0:0,0:0:0:0:
112,40,143884,5,0,0:0:0:0:
60,65,143966,1,0,0:0:0:0:
47,111,144048,1,4,0:0:0:0:
77,162,144131,1,0,0:0:0:0:
228,198,144213,1,8,0:0:0:0:
348,217,144378,2,0,L|259:217,1,52.5,8|0,0:0|0:0,0:0:0:0:
128,352,144543,6,0,L|119:237,1,105,4|0,0:0|0:0,0:0:0:0:
249,177,144873,1,8,0:0:0:0:
80,128,145038,2,0,L|71:50,1,52.5,0|0,0:0|0:0,0:0:0:0:
234,107,145202,1,0,0:0:0:0:
339,118,145367,2,0,L|203:104,1,105,4|8,0:0|0:0,0:0:0:0:
364,34,145697,2,0,L|427:18,1,52.5,2|0,0:2|0:0,0:0:0:0:
208,352,145862,5,0,0:0:0:0:
160,313,145944,1,0,0:0:0:0:
142,256,146026,1,6,0:0:0:0:
177,204,146109,1,0,0:0:0:0:
231,179,146191,1,8,0:0:0:0:
79,152,146356,2,0,L|69:81,1,52.5,2|0,0:2|0:0,0:0:0:0:
128,64,146521,1,0,0:0:0:0:
258,145,146686,2,0,L|123:127,1,105,4|8,0:0|0:0,0:0:0:0:
306,222,147016,2,0,L|382:208,1,52.5,0|0,0:0|0:0,0:0:0:0:
157,313,147180,6,0,L|36:324,2,105,0|4|8,0:0|0:0|0:0,0:0:0:0:
283,247,147675,2,0,L|288:170,1,52.5,0|0,0:0|0:0,0:0:0:0:
121,143,147840,2,0,L|6:132,1,105,0|4,0:0|0:0,0:0:0:0:
378,22,148169,2,0,L|506:32,1,105,0|8,0:0|0:0,0:0:0:0:
421,54,148417,1,0,0:0:0:0:
256,288,148499,5,0,0:0:0:0:
229,248,148581,1,0,0:0:0:0:
224,201,148663,1,4,0:0:0:0:
241,156,148746,1,0,0:0:0:0:
276,125,148828,1,0,0:0:0:0:
440,336,148994,2,0,L|359:336,1,52.5,8|0,0:0|0:0,0:0:0:0:
192,256,149158,2,0,L|315:255,1,105,0|4,0:0|0:0,0:0:0:0:
250,231,149406,1,0,0:0:0:0:
56,184,149488,2,0,L|41:64,1,105,8|0,0:0|0:0,0:0:0:0:
464,176,149818,5,4,0:0:0:0:
304,112,149983,2,0,L|411:112,2,105,4|8|0,0:0|0:0|0:0,0:0:0:0:
48,320,150477,2,0,L|41:240,1,52.5,0|0,0:0|0:0,0:0:0:0:
105,227,150642,1,4,0:0:0:0:
263,167,150807,2,0,L|394:172,1,105,8|2,0:0|0:2,0:0:0:0:
93,279,151136,6,0,L|219:278,1,105,0|6,0:0|0:0,0:0:0:0:
490,325,151466,2,0,L|496:213,1,105,8|2,0:0|0:2,0:0:0:0:
438,196,151713,1,0,0:0:0:0:
223,194,151796,2,0,L|164:194,1,52.5,0|0,0:0|0:0,0:0:0:0:
223,194,151961,2,0,L|287:193,1,52.5,6|0,0:0|0:0,0:0:0:0:
108,109,152126,2,0,L|51:108,1,52.5,8|0,0:0|0:0,0:0:0:0:
242,41,152290,2,0,L|319:41,1,52.5,2|0,0:2|0:0,0:0:0:0:
87,195,152455,6,0,L|74:83,1,105,4|0,0:0|0:0,0:0:0:0:
351,19,152785,1,8,0:0:0:0:
225,92,152950,1,0,0:0:0:0:
230,139,153032,1,0,0:0:0:0:
236,187,153114,1,0,0:0:0:0:
241,235,153197,1,0,0:0:0:0:
247,282,153279,1,4,0:0:0:0:
409,344,153444,2,0,L|409:231,1,105,0|8,0:0|0:0,0:0:0:0:
48,200,153774,6,0,L|30:61,1,105,0|4,0:0|0:0,0:0:0:0:
142,31,154104,1,0,0:0:0:0:
412,65,154268,1,8,0:0:0:0:
446,97,154350,1,0,0:0:0:0:
461,142,154432,1,0,0:0:0:0:
453,189,154515,1,0,0:0:0:0:
423,225,154597,1,4,0:0:0:0:
193,281,154763,1,8,0:0:0:0:
317,334,154928,2,0,L|385:340,1,52.5
136,159,155093,6,0,L|276:173,2,105,4|0|8,0:0|0:0|0:0,0:0:0:0:
0,143,155587,1,0,0:0:0:0:
160,344,155752,2,0,L|285:343,1,105,0|4,0:0|0:0,0:0:0:0:
391,342,156082,1,8,0:0:0:0:
258,287,156246,2,0,L|190:287,1,52.5,2|0,0:2|0:0,0:0:0:0:
416,62,156411,6,0,L|430:199,1,105,0|6,0:0|0:0,0:0:0:0:
307,216,156741,1,8,0:0:0:0:
64,368,156906,1,2,0:2:0:0:
32,328,156988,1,0,0:0:0:0:
21,279,157070,1,0,0:0:0:0:
40,232,157153,1,0,0:0:0:0:
84,207,157235,1,6,0:0:0:0:
200,112,157400,2,0,L|56:95,1,105,8|2,0:0|0:2,0:0:0:0:
38,95,157647,1,0,0:0:0:0:
281,59,157730,6,0,L|399:46,1,105,4|4,0:0|0:0,0:0:0:0:
72,208,158060,1,8,0:0:0:0:
219,265,158225,2,0,L|300:250,1,52.5,4|0,0:0|0:0,0:0:0:0:
72,208,158389,2,0,L|57:99,1,105,4|8,0:0|0:0,0:0:0:0:
321,52,158719,1,0,0:0:0:0:
164,93,158884,1,4,0:0:0:0:
475,242,159049,6,0,L|484:122,1,105,0|8,0:0|0:0,0:0:0:0:
205,171,159378,1,4,0:0:0:0:
253,171,159460,1,0,0:0:0:0:
301,171,159542,1,4,0:0:0:0:
33,119,159708,1,8,0:0:0:0:
170,119,159873,1,0,0:0:0:0:
307,120,160038,1,0,0:0:0:0:
443,126,160202,1,8,0:0:0:0:
104,344,160367,6,0,L|248:327,1,105,6|0,0:0|0:0,0:0:0:0:
349,319,160697,1,8,0:0:0:0:
80,32,160862,2,0,P|9:100|107:178,1,210,0|4,0:0|0:0,0:0:0:0:
192,224,161356,1,8,0:0:0:0:
344,205,161521,2,0,L|425:211,1,52.5,0|0,0:0|0:0,0:0:0:0:
160,32,161686,5,0,0:0:0:0:
138,74,161768,1,0,0:0:0:0:
138,122,161850,1,4,0:0:0:0:
158,165,161933,1,0,0:0:0:0:
195,194,162015,1,8,0:0:0:0:
328,200,162180,1,0,0:0:0:0:
195,194,162345,2,0,L|127:206,1,52.5,0|0,0:0|0:0,0:0:0:0:
325,342,162510,2,0,L|321:232,1,105,4|8,0:0|0:0,0:0:0:0:
162,202,162840,1,0,0:0:0:0:
480,96,163005,6,0,L|341:113,2,105,4|0|8,0:0|0:0|0:0,0:0:0:0:
200,56,163499,2,0,P|126:118|215:197,1,210,0|4,0:0|0:0,0:0:0:0:
224,200,163911,1,0,0:0:0:0:
269,202,163994,1,0,0:0:0:0:
141,260,164158,1,8,0:0:0:0:
396,288,164323,5,0,0:0:0:0:
437,265,164405,1,0,0:0:0:0:
455,221,164487,1,4,0:0:0:0:
443,176,164570,1,0,0:0:0:0:
406,147,164652,1,0,0:0:0:0:
252,84,164818,2,0,L|181:84,1,52.5,8|0,0:0|0:0,0:0:0:0:
252,84,164983,2,0,L|394:83,1,105
188,27,165312,1,8,0:0:0:0:
89,148,165477,2,0,L|150:147,1,52.5,0|0,0:0|0:0,0:0:0:0:
368,292,165642,6,0,L|509:293,2,105,4|0|8,0:0|0:0|0:0,0:0:0:0:
115,300,166136,2,0,P|57:223|140:150,1,210,0|4,0:0|0:0,0:0:0:0:
464,56,166631,1,8,0:0:0:0:
317,53,166796,1,0,0:0:0:0:
58,321,166961,6,0,L|45:262,1,52.5,0|0,0:0|0:0,0:0:0:0:
86,252,167126,1,4,0:0:0:0:
123,239,167208,1,0,0:0:0:0:
159,226,167290,1,8,0:0:0:0:
31,164,167455,2,0,L|23:86,1,52.5,0|0,0:0|0:0,0:0:0:0:
241,136,167620,6,0,L|351:125,1,105,0|4,0:0|0:0,0:0:0:0:
207,271,167950,2,0,L|346:258,1,105,8|0,0:0|0:0,0:0:0:0:
366,254,168197,1,0,0:0:0:0:
96,192,168279,2,0,L|79:77,1,105,4|0,0:0|0:0,0:0:0:0:
216,33,168609,1,8,0:0:0:0:
345,98,168774,2,0,L|404:85,1,52.5,0|0,0:0|0:0,0:0:0:0:
209,201,168939,2,0,L|97:187,1,105,0|4,0:0|0:0,0:0:0:0:
251,131,169268,1,0,0:0:0:0:
370,217,169433,2,0,L|270:220,1,52.5,8|0,0:0|0:0,0:0:0:0:
48,192,169598,5,0,0:0:0:0:
21,152,169680,1,0,0:0:0:0:
15,104,169762,1,4,0:0:0:0:
30,59,169845,1,0,0:0:0:0:
62,24,169927,1,0,0:0:0:0:
216,0,170093,2,0,L|286:6,1,52.5,8|0,0:0|0:0,0:0:0:0:
478,140,170257,2,0,L|349:123,1,105,0|4,0:0|0:0,0:0:0:0:
128,279,170587,1,8,0:0:0:0:
289,241,170752,1,0,0:0:0:0:
26,340,170917,6,0,L|24:217,1,105,4|0,0:0|0:0,0:0:0:0:
167,201,171246,1,8,0:0:0:0:
30,155,171411,1,0,0:0:0:0:
410,49,171576,1,0,0:0:0:0:
287,120,171741,2,0,L|297:246,1,105,4|8,0:0|0:0,0:0:0:0:
436,243,172071,2,0,L|441:326,1,52.5,0|0,0:0|0:0,0:0:0:0:
256,320,172235,5,0,0:0:0:0:
193,323,172317,1,0,0:0:0:0:
130,329,172399,1,4,0:0:0:0:
311,253,172565,1,8,0:0:0:0:
183,214,172730,2,0,L|171:122,1,52.5,0|0,0:0|0:0,0:0:0:0:
228,125,172895,1,0,0:0:0:0:
386,161,173060,2,0,L|493:149,1,105,4|8,0:0|0:0,0:0:0:0:
387,264,173389,2,0,L|321:257,1,52.5,0|0,0:0|0:0,0:0:0:0:
112,288,173554,5,4,0:0:0:0:
85,248,173636,1,0,0:0:0:0:
80,200,173718,1,0,0:0:0:0:
98,156,173801,1,0,0:0:0:0:
133,124,173883,1,8,0:0:0:0:
269,112,174049,2,0,L|340:122,1,52.5,0|0,0:0|0:0,0:0:0:0:
141,12,174213,2,0,L|75:20,1,52.5,0|0,0:0|0:0,0:0:0:0:
312,235,174378,2,0,L|434:217,1,105,4|0,0:0|0:0,0:0:0:0:
448,8,174708,1,8,0:0:0:0:
173,101,174873,5,0,0:0:0:0:
179,148,174955,1,0,0:0:0:0:
186,196,175037,1,4,0:0:0:0:
312,230,175202,2,0,L|423:218,1,105,0|8,0:0|0:0,0:0:0:0:
108,224,175532,2,0,P|51:151|131:69,1,210,0|8,0:0|0:0,0:0:0:0:
278,57,176027,2,0,L|341:52,1,52.5,0|0,0:0|0:0,0:0:0:0:
136,149,176191,6,0,L|258:166,2,105,4|0|8,0:0|0:0|0:0,0:0:0:0:
361,290,176686,2,0,P|421:212|347:129,1,210,0|4,0:0|0:0,0:0:0:0:
238,123,177180,2,0,L|109:109,1,105,8|0,0:0|0:0,0:0:0:0:
275,212,177510,6,0,L|331:206,1,52.5,0|0,0:0|0:0,0:0:0:0:
127,32,177675,2,0,L|14:42,2,105,4|8|0,0:0|0:0|0:0,0:0:0:0:
279,43,178169,1,0,0:0:0:0:
331,84,178251,1,0,0:0:0:0:
356,145,178333,1,4,0:0:0:0:
327,206,178416,1,0,0:0:0:0:
272,244,178498,1,8,0:0:0:0:
142,317,178664,2,0,L|136:239,1,52.5,0|0,0:0|0:0,0:0:0:0:
432,240,178829,5,4,0:0:0:0:
320,160,178994,2,0,L|312:91,2,52.5,0|0|8,0:0|0:0|0:0,0:0:0:0:
440,56,179323,1,4,0:0:0:0:
159,30,179488,2,0,L|38:39,1,105,0|4,0:0|0:0,0:0:0:0:
432,304,179818,1,0,0:0:0:0:
463,257,179900,1,8,0:0:0:0:
455,205,179982,1,0,0:0:0:0:
400,168,180065,1,4,0:0:0:0:
200,120,180147,6,0,L|88:137,2,105,0|4|0,0:0|0:0|0:0,0:0:0:0:
336,96,180642,1,8,0:0:0:0:
72,336,180807,2,0,L|62:223,1,105,0|4,0:0|0:0,0:0:0:0:
124,200,181054,1,0,0:0:0:0:
432,200,181136,1,8,0:0:0:0:
477,169,181218,1,0,0:0:0:0:
482,122,181300,1,0,0:0:0:0:
446,79,181383,1,0,0:0:0:0:
104,48,181466,5,2,0:0:0:0:
324,357,181796,2,0,P|445:239|289:123,1,393.750015020371
240,132,182702,1,0,0:0:0:0:
84,116,182785,6,0,P|22:223|160:334,1,315.000012016297
251,45,183609,1,0,0:0:0:0:
121,92,183774,2,0,L|124:182,1,78.7500030040742,0|0,0:0|0:0,0:0:0:0:
287,83,184104,6,0,P|390:187|261:292,1,315.000012016297,0|0,0:0|0:0,0:0:0:0:
149,354,184928,2,0,L|142:269,1,78.7500030040742,0|0,0:0|0:0,0:0:0:0:
320,264,185257,6,0,P|413:151|283:59,1,315.000012016297,0|0,0:0|0:0,0:0:0:0:
146,40,186082,2,0,P|73:121|155:195,1,236.250009012223,0|0,0:0|0:0,0:0:0:0:
179,200,186631,1,0,0:0:0:0:
219,199,186686,1,0,0:0:0:0:
359,311,186741,6,0,P|508:167|340:36,1,472.500018024445,0|0,0:0|0:0,0:0:0:0:
177,36,187895,2,0,B|180:160|180:160|274:156|274:156|276:274,1,315.000012016297,0|0,0:0|0:0,0:0:0:0:
112,273,188719,2,0,P|40:200|104:64,1,236.250009012223,0|0,0:0|0:0,0:0:0:0:
110,68,189268,1,0,0:0:0:0:
153,60,189323,1,0,0:0:0:0:
298,47,189378,6,0,B|357:59|411:94|427:162|396:238|332:280|217:265|187:198|247:126|362:98|446:104,1,551.25002102852
364,105,190642,1,0,0:0:0:0:
199,246,190697,6,0,L|31:226,2,157.500006008148,0|0|0,0:0|0:0|0:0,0:0:0:0:
323,281,191576,2,0,L|326:233,2,26.2500010013581,0|0|0,0:0|0:0|0:0,0:0:0:0:
85,342,192016,6,0,P|52:260|159:160,1,236.250009012223,2|2,0:0|0:0,0:0:0:0:
305,222,192675,2,0,P|338:140|231:40,1,236.250009012223,0|0,0:0|0:0,0:0:0:0:
114,41,193334,1,0,0:0:0:0:
320,168,194158,2,0,L|433:148,2,78.7500030040742,0|0|0,0:0|0:0|0:0,0:0:0:0:
158,52,194653,6,0,P|66:112|166:262,1,315.000012016297,2|0,0:0|0:0,0:0:0:0:
262,270,195477,1,0,0:0:0:0:
386,272,195642,1,0,0:0:0:0:
510,276,195807,6,0,P|519:148|339:79,1,315.000012016297,2|0,0:0|0:0,0:0:0:0:
220,47,196631,2,0,P|111:67|65:187,1,236.250009012223,2|0,0:0|0:0,0:0:0:0:
93,192,197180,1,0,0:0:0:0:
133,218,197235,1,0,0:0:0:0:
255,263,197290,6,0,P|315:208|286:121,1,157.500006008148,2|0,0:0|0:0,0:0:0:0:
212,73,197785,2,0,L|396:65,1,157.500006008148,2|0,0:0|0:0,0:0:0:0:
243,221,198279,2,0,P|146:122|256:14,1,315.000012016297,2|0,0:0|0:0,0:0:0:0:
40,48,199928,6,0,L|61:221,1,157.500006008148,2|0,0:0|0:0,0:0:0:0:
187,158,200422,2,0,L|204:320,1,157.500006008148,2|0,0:0|0:0,0:0:0:0:
328,358,200917,1,2,0:0:0:0:
463,198,201246,2,0,L|353:208,1,78.7500030040742,0|2,0:0|0:0,0:0:0:0:
208,96,201741,2,0,L|305:108,1,78.7500030040742,0|2,0:0|0:0,0:0:0:0:
176,184,202071,2,0,L|-5:211,1,157.500006008148,0|0,0:0|0:0,0:0:0:0:
119,244,202565,5,0,0:0:0:0:
368,224,202895,2,0,L|371:127,1,78.7500030040742,2|0,0:0|0:0,0:0:0:0:
181,68,203224,2,0,L|434:40,2,236.250009012223,0|0|0,0:0|0:0|0:0,0:0:0:0:
80,304,204873,1,2,0:0:0:0:
256,232,205202,6,0,L|274:133,2,78.7500030040742,0|0|2,0:0|0:0|0:0,0:0:0:0:
128,96,205862,2,0,L|308:86,1,157.500006008148,0|0,0:0|0:0,0:0:0:0:
456,256,206521,2,0,L|293:248,1,157.500006008148,2|0,0:0|0:0,0:0:0:0:
120,312,207180,2,0,L|21:324,2,78.7500030040742,0|0|2,0:0|0:0|0:0,0:0:0:0:
302,346,207840,5,0,0:0:0:0:
164,232,208169,2,0,L|156:124,1,78.7500030040742,2|0,0:0|0:0,0:0:0:0:
339,80,208499,2,0,L|90:62,2,236.250009012223,0|0|0,0:0|0:0|0:0,0:0:0:0:
320,320,210147,1,2,0:0:0:0:
112,256,210477,6,0,L|103:169,2,78.7500030040742,0|0|2,0:0|0:0|0:0,0:0:0:0:
305,71,211136,2,0,L|138:89,1,157.500006008148,0|0,0:0|0:0,0:0:0:0:
400,168,211796,2,0,L|213:192,1,157.500006008148,2|0,0:0|0:0,0:0:0:0:
80,312,212455,2,0,L|184:294,2,78.7500030040742,0|0|2,0:0|0:0|0:0,0:0:0:0:
360,248,213115,5,2,0:0:0:0:
216,192,213444,2,0,L|216:91,1,78.7500030040742,0|2,0:0|0:0,0:0:0:0:
440,128,213939,2,0,L|441:20,1,78.7500030040742,0|2,0:0|0:0,0:0:0:0:
280,280,214433,2,0,L|275:166,1,78.7500030040742,0|2,0:0|0:0,0:0:0:0:
456,304,215093,2,0,L|273:312,1,157.500006008148,2|0,0:0|0:0,0:0:0:0:
110,323,215752,5,0,0:0:0:0:
312,240,216082,2,0,L|305:132,1,78.7500030040742,2|0,0:0|0:0,0:0:0:0:
104,128,216576,2,0,L|100:38,1,78.7500030040742,0|0,0:0|0:0,0:0:0:0:
301,147,217071,2,0,L|306:238,1,78.7500030040742,0|0,0:0|0:0,0:0:0:0:
88,304,217730,2,0,L|266:313,1,157.500006008148,0|0,0:0|0:0,0:0:0:0:
416,256,218389,5,0,0:0:0:0:
192,208,218719,2,0,L|166:105,1,78.7500030040742,0|0,0:0|0:0,0:0:0:0:
374,356,219213,2,0,L|390:265,1,78.7500030040742,0|0,0:0|0:0,0:0:0:0:
216,320,219708,2,0,L|120:337,1,78.7500030040742,0|0,0:0|0:0,0:0:0:0:
344,256,220367,2,0,L|506:281,1,157.500006008148,0|0,0:0|0:0,0:0:0:0:
178,331,221027,5,0,0:0:0:0:
272,204,221521,1,0,0:0:0:0:
80,109,222016,1,4,0:0:0:0:
248,112,222345,1,4,0:0:0:0:
64,104,222675,1,4,0:0:0:0:
480,48,223005,2,0,L|481:216,1,157.500006008148,4|4,0:0|0:0,0:0:0:0:
378,258,223499,1,0,0:0:0:0:
56,344,223664,5,6,0:0:0:0:
184,248,223829,2,0,L|70:249,1,105,0|8,0:0|0:0,0:0:0:0:
400,183,224158,2,0,P|460:105|384:23,1,210,0|4,0:0|0:0,0:0:0:0:
128,24,224653,1,8,0:0:0:0:
256,96,224818,2,0,L|246:163,1,52.5,2|0,0:2|0:0,0:0:0:0:
80,232,224983,6,0,L|70:311,2,52.5,0|0|6,0:0|0:0|0:0,0:0:0:0:
219,328,225312,2,0,L|106:335,1,105,8|2,0:0|0:2,0:0:0:0:
59,298,225560,1,0,0:0:0:0:
286,237,225642,2,0,L|349:248,1,52.5,0|0,0:0|0:0,0:0:0:0:
136,92,225807,2,0,L|19:108,1,105,6|8,0:0|0:0,0:0:0:0:
434,37,226136,6,0,P|503:105|424:184,1,210,0|0,0:0|0:0,0:0:0:0:
323,187,226631,1,8,0:0:0:0:
73,305,226796,1,0,0:0:0:0:
63,253,226878,1,0,0:0:0:0:
77,203,226960,1,0,0:0:0:0:
113,165,227043,1,0,0:0:0:0:
162,147,227125,1,4,0:0:0:0:
273,147,227290,1,0,0:0:0:0:
432,147,227455,2,0,L|361:147,1,52.5,8|0,0:0|0:0,0:0:0:0:
32,96,227620,6,0,L|148:96,1,105,0|4,0:0|0:0,0:0:0:0:
386,92,227950,1,0,0:0:0:0:
136,320,228115,1,8,0:0:0:0:
98,288,228197,1,0,0:0:0:0:
82,238,228279,1,0,0:0:0:0:
93,186,228362,1,0,0:0:0:0:
136,153,228444,1,4,0:0:0:0:
279,141,228609,1,8,0:0:0:0:
139,71,228774,2,0,L|41:71,1,52.5,0|0,0:0|0:0,0:0:0:0:
344,200,228939,6,0,L|458:200,2,105,4|0|8,0:0|0:0|0:0,0:0:0:0:
224,296,229433,2,0,L|440:296,1,210,0|4,0:0|0:0,0:0:0:0:
128,240,229928,1,8,0:0:0:0:
432,216,230093,6,0,P|489:137|403:57,1,210,2|6,0:2|0:0,0:0:0:0:
292,40,230587,1,8,0:0:0:0:
193,100,230752,2,0,L|206:172,1,52.5,2|0,0:2|0:0,0:0:0:0:
384,216,230917,1,0,0:0:0:0:
248,216,231082,1,6,0:0:0:0:
384,216,231246,1,8,0:0:0:0:
88,216,231411,6,0,P|29:134|124:55,1,210,2|0,0:2|0:0,0:0:0:0:
212,40,231906,1,8,0:0:0:0:
354,36,232071,1,0,0:0:0:0:
64,296,232235,2,0,L|200:297,1,105,0|4,0:0|0:0,0:0:0:0:
466,213,232565,2,0,L|345:212,1,105,0|8,0:0|0:0,0:0:0:0:
57,209,232895,6,0,L|46:97,1,105,0|4,0:0|0:0,0:0:0:0:
161,42,233224,1,0,0:0:0:0:
413,128,233389,1,8,0:0:0:0:
454,150,233471,1,0,0:0:0:0:
471,193,233553,1,0,0:0:0:0:
456,238,233636,1,0,0:0:0:0:
416,262,233718,1,4,0:0:0:0:
264,272,233884,1,8,0:0:0:0:
384,344,234049,2,0,L|456:345,1,52.5,0|0,0:0|0:0,0:0:0:0:
192,336,234213,5,4,0:0:0:0:
320,272,234378,2,0,L|332:130,1,105,0|8,0:0|0:0,0:0:0:0:
64,200,234708,2,0,P|7:119|79:47,1,210,0|4,0:0|0:0,0:0:0:0:
344,8,235202,1,8,0:0:0:0:
240,88,235367,2,0,L|235:167,1,52.5,2|0,2:0|0:0,0:0:0:0:
399,177,235532,5,0,0:0:0:0:
439,201,235614,1,0,0:0:0:0:
460,243,235696,1,6,0:0:0:0:
453,290,235779,1,0,0:0:0:0:
421,325,235861,1,8,0:0:0:0:
299,357,236027,1,2,0:2:0:0:
421,325,236191,1,0,0:0:0:0:
126,204,236356,2,0,L|120:90,1,105,4|8,0:0|0:0,0:0:0:0:
456,72,236686,6,0,L|241:72,1,210,0|0,0:0|0:0,0:0:0:0:
124,72,237180,1,8,0:0:0:0:
272,160,237345,2,0,L|275:220,1,52.5,0|0,0:0|0:0,0:0:0:0:
85,286,237510,2,0,L|191:293,1,105,0|4,0:0|0:0,0:0:0:0:
454,358,237840,2,0,L|463:241,1,105,0|8,0:0|0:0,0:0:0:0:
193,222,238169,5,0,0:0:0:0:
158,190,238251,1,0,0:0:0:0:
144,145,238333,1,4,0:0:0:0:
156,99,238416,1,0,0:0:0:0:
189,65,238498,1,0,0:0:0:0:
382,41,238664,1,8,0:0:0:0:
335,37,238746,1,0,0:0:0:0:
287,34,238828,5,0,0:0:0:0:
147,116,238994,2,0,L|254:124,2,105,4|8|0,0:0|0:0|0:0,0:0:0:0:
90,112,239406,1,0,0:0:0:0:
344,264,239488,6,0,L|351:122,1,105,4|0,0:0|0:0,0:0:0:0:
211,66,239818,1,8,0:0:0:0:
360,113,239983,2,0,L|420:117,1,52.5,0|0,0:0|0:0,0:0:0:0:
201,179,240147,2,0,L|143:177,1,52.5,0|0,0:0|0:0,0:0:0:0:
347,246,240312,2,0,L|460:251,1,105,4|8,0:0|0:0,0:0:0:0:
104,240,240642,6,0,P|49:163|127:86,1,210,2|6,0:2|0:0,0:0:0:0:
266,89,241136,1,8,0:0:0:0:
125,85,241301,2,0,L|116:162,1,52.5,2|0,0:2|0:0,0:0:0:0:
306,242,241466,1,0,0:0:0:0:
160,232,241631,1,6,0:0:0:0:
24,224,241796,1,8,0:0:0:0:
360,256,241961,6,0,P|419:180|317:105,1,210,2|0,0:2|0:0,0:0:0:0:
222,86,242455,1,8,0:0:0:0:
499,326,242620,2,0,L|269:342,1,210,4|4,0:0|0:0,0:0:0:0:
39,262,243115,1,0,0:0:0:0:
19,214,243197,1,8,0:0:0:0:
32,164,243279,1,0,0:0:0:0:
72,132,243362,1,4,0:0:0:0:
356,246,243444,6,0,L|374:187,1,52.5,4|0,0:0|0:0,0:0:0:0:
292,167,243609,2,0,L|272:116,1,52.5,4|0,0:0|0:0,0:0:0:0:
437,88,243774,2,0,L|458:28,1,52.5,0|0,0:0|0:0,0:0:0:0:
204,54,243939,2,0,L|85:38,2,105,8|0|4,0:0|0:0|0:0,0:0:0:0:
444,157,244433,2,0,L|456:92,1,52.5,8|8,0:0|0:0,0:0:0:0:
175,205,244598,2,0,L|111:197,1,52.5,8|8,0:0|0:0,0:0:0:0:
387,330,244763,6,0,L|505:316,1,105,6|0,0:0|0:0,0:0:0:0:
160,128,245093,1,8,0:0:0:0:
304,144,245257,2,0,L|315:83,1,52.5
126,43,245422,2,0,L|11:30,2,105,0|4|8,0:0|0:0|0:0,0:0:0:0:
296,57,245917,2,0,L|348:40,1,52.5,2|0,0:2|0:0,0:0:0:0:
203,134,246082,6,0,L|85:115,2,105,0|6|8,0:0|0:0|0:0,0:0:0:0:
67,217,246576,1,2,0:2:0:0:
51,171,246658,1,0,0:0:0:0:
55,124,246740,1,0,0:0:0:0:
77,82,246823,1,0,0:0:0:0:
114,52,246905,1,4,0:0:0:0:
296,31,247071,1,8,0:0:0:0:
161,54,247235,2,0,L|90:49,1,52.5,0|0,0:0|0:0,0:0:0:0:
400,160,247400,6,0,L|398:277,1,105,4|0,0:0|0:0,0:0:0:0:
270,306,247730,1,8,0:0:0:0:
393,261,247895,2,0,L|455:266,1,52.5,0|0,0:0|0:0,0:0:0:0:
221,163,248060,2,0,L|103:180,1,105,0|4,0:0|0:0,0:0:0:0:
425,178,248389,2,0,L|443:67,1,105,0|8,0:0|0:0,0:0:0:0:
130,32,248719,6,0,L|9:54,2,105,0|4|0,0:0|0:0|0:0,0:0:0:0:
401,347,249213,1,8,0:0:0:0:
450,330,249295,1,0,0:0:0:0:
481,289,249377,1,0,0:0:0:0:
483,238,249460,1,0,0:0:0:0:
456,194,249542,1,4,0:0:0:0:
322,169,249708,1,8,0:0:0:0:
454,115,249873,2,0,L|393:115,1,52.5,0|0,0:0|0:0,0:0:0:0:
187,55,250038,6,0,L|77:55,1,105,4|0,0:0|0:0,0:0:0:0:
278,5,250367,1,8,0:0:0:0:
156,145,250532,2,0,L|150:75,1,52.5,0|0,0:0|0:0,0:0:0:0:
375,277,250697,1,0,0:0:0:0:
248,280,250862,2,0,L|107:280,1,105,4|8,0:0|0:0,0:0:0:0:
312,216,251191,2,0,L|373:216,1,52.5,2|0,0:2|0:0,0:0:0:0:
152,160,251356,5,0,0:0:0:0:
118,126,251438,1,0,0:0:0:0:
108,80,251520,1,6,0:0:0:0:
125,36,251603,1,0,0:0:0:0:
164,9,251685,1,8,0:0:0:0:
304,144,251851,2,0,L|300:222,1,52.5,2|0,0:2|0:0,0:0:0:0:
128,304,252016,2,0,L|56:314,2,52.5,0|0|4,0:0|0:0|0:0,0:0:0:0:
371,343,252345,2,0,L|486:353,1,105,8|0,0:0|0:0,0:0:0:0:
420,312,252593,1,0,0:0:0:0:
248,232,252675,6,0,L|236:116,1,105,4|0,0:0|0:0,0:0:0:0:
364,74,253005,1,8,0:0:0:0:
229,105,253169,2,0,L|158:95,1,52.5
377,327,253334,2,0,L|505:301,1,105,0|4,0:0|0:0,0:0:0:0:
187,229,253664,2,0,L|54:210,1,105,0|8,0:0|0:0,0:0:0:0:
145,197,253911,1,0,0:0:0:0:
358,189,253994,5,0,0:0:0:0:
401,160,254076,1,0,0:0:0:0:
417,112,254158,1,4,0:0:0:0:
398,64,254241,1,0,0:0:0:0:
354,38,254323,1,0,0:0:0:0:
114,22,254488,1,8,0:0:0:0:
217,46,254653,6,0,L|108:45,1,105,0|4,0:0|0:0,0:0:0:0:
408,320,254983,1,8,0:0:0:0:
452,281,255065,1,0,0:0:0:0:
451,234,255147,1,4,0:0:0:0:
405,189,255230,1,0,0:0:0:0:
196,179,255312,6,0,L|317:179,1,105,4|0,0:0|0:0,0:0:0:0:
152,113,255642,2,0,L|34:113,1,105,8|0,0:0|0:0,0:0:0:0:
346,150,255972,2,0,L|197:149,2,105,0|4|8,0:0|0:0|0:0,0:0:0:0:
216,72,256466,2,0,L|126:74,1,52.5,2|0,0:2|0:0,0:0:0:0:
432,311,256631,6,0,L|440:187,1,105,0|6,0:0|0:0,0:0:0:0:
144,152,256961,1,8,0:0:0:0:
256,296,257126,1,2,0:2:0:0:
294,268,257208,1,0,0:0:0:0:
307,222,257290,1,0,0:0:0:0:
290,178,257373,1,0,0:0:0:0:
250,153,257455,1,6,0:0:0:0:
480,96,257620,1,8,0:0:0:0:
376,176,257785,2,0,L|314:167,1,52.5,2|0,0:2|0:0,0:0:0:0:
136,80,257950,6,0,L|24:90,1,105,4|0,0:0|0:0,0:0:0:0:
376,176,258279,1,8,0:0:0:0:
240,296,258444,2,0,L|239:235,1,52.5,0|0,0:0|0:0,0:0:0:0:
288,208,258609,1,0,0:0:0:0:
152,136,258774,2,0,L|263:143,2,105,4|0|8,0:0|0:0|0:0,0:0:0:0:
98,131,259186,1,0,0:0:0:0:
385,56,259268,6,0,L|394:111,1,52.5,0|0,0:0|0:0,0:0:0:0:
316,132,259433,2,0,L|306:187,1,52.5,4|0,0:0|0:0,0:0:0:0:
374,228,259598,1,0,0:0:0:0:
256,296,259763,1,8,0:0:0:0:
208,296,259845,1,0,0:0:0:0:
395,328,259928,2,0,L|512:328,1,105,0|4,0:0|0:0,0:0:0:0:
142,199,260257,2,0,L|37:199,1,105,8|4,0:0|0:0,0:0:0:0:
448,96,260587,6,0,L|336:96,1,105,4|0,0:0|0:0,0:0:0:0:
80,96,260917,1,8,0:0:0:0:
200,152,261082,1,0,0:0:0:0:
196,199,261164,1,0,0:0:0:0:
192,247,261246,1,0,0:0:0:0:
88,304,261411,1,4,0:0:0:0:
224,136,261576,2,0,L|345:142,1,105,8|2,0:0|0:2,0:0:0:0:
383,146,261823,1,0,0:0:0:0:
128,176,261906,6,0,L|108:58,1,105,0|6,0:0|0:0,0:0:0:0:
232,32,262235,1,8,0:0:0:0:
368,104,262400,1,2,0:2:0:0:
404,143,262482,1,0,0:0:0:0:
416,189,262564,1,0,0:0:0:0:
394,235,262647,1,0,0:0:0:0:
349,268,262729,1,6,0:2:0:0:
64,312,262895,1,8,0:0:0:0:
168,240,263060,2,0,L|262:248,1,52.5,2|0,0:2|0:0,0:0:0:0:
464,207,263224,6,0,L|479:84,1,105,4|0,0:0|0:0,0:0:0:0:
96,72,263554,1,8,0:0:0:0:
224,136,263719,2,0,L|215:191,1,52.5,8|0,0:0|0:0,0:0:0:0:
47,302,263884,2,0,L|220:284,1,157.5,8|0,0:0|0:0,0:0:0:0:
424,240,264213,1,0,0:0:0:0:
461,198,264295,1,0,0:0:0:0:
459,151,264377,1,0,0:0:0:0:
416,111,264460,1,0,0:0:0:0:
128,72,264543,5,0,0:0:0:0:
208,136,264708,2,0,L|262:127,1,52.5,0|0,0:0|0:0,0:0:0:0:
104,280,264873,2,0,L|82:259,4,26.25,8|0|0|0|8,0:0|0:0|0:0|0:0|0:0,0:0:0:0:
160,282,265120,1,4,0:0:0:0:
360,224,265202,6,0,L|427:205,1,52.5,0|0,0:0|0:0,0:0:0:0:
232,144,265367,2,0,L|164:124,1,52.5,8|0,0:0|0:0,0:0:0:0:
360,224,265532,2,0,L|427:205,1,52.5,0|8,0:0|0:0,0:0:0:0:
232,144,265697,2,0,L|164:124,1,52.5,4|0,0:0|0:0,0:0:0:0:
360,80,265862,6,0,L|468:98,2,105,6|0|8,0:0|0:0|0:0,0:0:0:0:
80,56,266356,2,0,P|13:128|96:200,1,210,0|4,0:0|0:0,0:0:0:0:
216,215,266851,2,0,L|210:342,1,105,8|0,0:0|0:0,0:0:0:0:
72,360,267180,5,0,0:0:0:0:
41,324,267262,1,0,0:0:0:0:
28,278,267344,1,4,0:0:0:0:
37,231,267427,1,0,0:0:0:0:
66,193,267509,1,8,0:0:0:0:
200,144,267675,2,0,L|261:163,2,52.5,0|0|0,0:0|0:0|0:0,0:0:0:0:
72,56,268005,2,0,L|75:166,1,105,4|8,0:0|0:0,0:0:0:0:
344,96,268334,6,0,P|408:172|342:253,1,210,0|0,0:0|0:0,0:0:0:0:
227,244,268829,1,8,0:0:0:0:
352,344,268994,1,0,0:0:0:0:
304,344,269076,1,0,0:0:0:0:
256,344,269158,1,0,0:0:0:0:
96,272,269323,2,0,L|218:273,1,105,4|0,0:0|0:0,0:0:0:0:
440,185,269653,6,0,P|498:116|414:38,1,210,8|4,0:0|0:0,0:0:0:0:
296,0,270147,1,0,0:0:0:0:
200,128,270312,1,8,0:0:0:0:
248,124,270394,1,0,0:0:0:0:
296,120,270476,1,0,0:0:0:0:
144,192,270642,2,0,L|25:187,1,105,4|8,0:0|0:0,0:0:0:0:
416,280,270972,1,0,0:0:0:0:
296,216,271136,6,0,L|288:108,1,105,4|0,0:0|0:0,0:0:0:0:
441,108,271466,2,0,L|330:95,1,105,8|0,0:0|0:0,0:0:0:0:
173,137,271796,2,0,L|58:130,2,105,0|4|8,0:0|0:0|0:0,0:0:0:0:
448,248,272290,6,0,L|463:115,1,105,0|0,0:0|0:0,0:0:0:0:
293,44,272620,2,0,L|305:159,1,105,4|8,0:0|0:0,0:0:0:0:
454,85,272950,1,0,0:0:0:0:
301,198,273115,1,0,0:0:0:0:
473,280,273279,2,0,L|470:160,1,105,4|8,0:0|0:0,0:0:0:0:
88,184,273609,6,0,P|33:105|112:24,1,210,4|0,0:0|0:0,0:0:0:0:
209,19,274104,1,8,0:0:0:0:
440,132,274268,2,0,P|507:203|416:272,1,210,0|4,0:0|0:0,0:0:0:0:
339,283,274763,1,0,0:0:0:0:
70,163,274928,1,8,0:0:0:0:
184,110,275093,6,0,L|320:127,1,105,0|4,0:0|0:0,0:0:0:0:
27,317,275422,2,0,L|25:195,1,105,0|8,0:0|0:0,0:0:0:0:
448,192,275752,1,0,0:0:0:0:
475,152,275834,1,0,0:0:0:0:
479,105,275916,1,4,0:0:0:0:
461,61,275999,1,0,0:0:0:0:
424,31,276081,1,8,0:0:0:0:
312,16,276246,1,0,0:0:0:0:
40,136,276411,6,0,L|170:155,2,105,4|0|8,0:0|0:0|0:0,0:0:0:0:
352,336,276906,2,0,P|413:258|340:172,1,210,0|4,0:0|0:0,0:0:0:0:
224,157,277400,1,8,0:0:0:0:
384,134,277565,1,0,0:0:0:0:
240,160,277730,5,0,0:0:0:0:
200,184,277812,1,0,0:0:0:0:
183,228,277894,1,4,0:0:0:0:
196,273,277977,1,0,0:0:0:0:
234,301,278059,1,8,0:0:0:0:
352,344,278224,2,0,L|361:264,2,52.5,0|0|0,0:0|0:0|0:0,0:0:0:0:
255,232,278554,2,0,L|376:238,1,105,4|8,0:0|0:0,0:0:0:0:
104,40,278884,6,0,P|36:113|121:194,1,210,0|0,0:0|0:0,0:0:0:0:
232,240,279378,1,8,0:0:0:0:
352,120,279543,1,0,0:0:0:0:
304,120,279625,1,0,0:0:0:0:
256,120,279707,1,0,0:0:0:0:
400,248,279873,2,0,L|413:132,1,105,4|0,0:0|0:0,0:0:0:0:
120,336,280202,6,0,L|352:345,1,210,8|4,0:0|0:0,0:0:0:0:
216,336,280697,1,0,0:0:0:0:
328,344,280862,1,8,0:0:0:0:
168,280,281027,1,0,0:0:0:0:
142,240,281109,1,0,0:0:0:0:
133,193,281191,1,4,0:0:0:0:
144,147,281274,1,0,0:0:0:0:
171,108,281356,1,8,0:0:0:0:
416,280,281521,1,0,0:0:0:0:
296,229,281686,6,0,L|288:113,1,105,4|0,0:0|0:0,0:0:0:0:
441,108,282016,2,0,L|330:95,1,105,8|0,0:0|0:0,0:0:0:0:
178,201,282345,2,0,L|176:86,1,105,0|4,0:0|0:0,0:0:0:0:
313,91,282675,1,8,0:0:0:0:
48,344,282840,6,0,L|32:217,1,105,0|0,0:0|0:0,0:0:0:0:
212,92,283169,2,0,L|194:245,1,105,4|8,0:0|0:0,0:0:0:0:
50,149,283499,1,0,0:0:0:0:
199,196,283664,1,0,0:0:0:0:
337,244,283829,1,4,0:0:0:0:
40,240,283994,1,8,0:0:0:0:
320,200,284158,2,0,L|396:208,1,52.5,0|8,0:0|0:0,0:0:0:0:
208,40,284323,5,4,0:0:0:0:
163,54,284405,1,8,0:0:0:0:
133,90,284487,1,4,0:0:0:0:
128,137,284570,1,0,0:0:0:0:
344,272,284653,1,8,0:0:0:0:
232,207,284818,2,0,L|232:130,1,52.5,0|0,0:0|0:0,0:0:0:0:
479,71,284983,6,0,L|360:59,1,105,0|4,0:0|0:0,0:0:0:0:
56,128,285312,1,4,0:0:0:0:
336,327,285477,2,0,P|397:250|320:159,1,210,8|0,0:0|0:0,0:0:0:0:
292,152,285889,1,4,0:0:0:0:
136,88,285972,2,0,L|61:80,1,52.5,0|0,0:0|0:0,0:0:0:0:
392,48,286136,1,8,0:0:0:0:
272,136,286301,5,4,0:0:0:0:
276,183,286383,1,8,0:0:0:0:
279,231,286465,1,4,0:0:0:0:
416,296,286631,1,8,0:0:0:0:
286,360,286796,2,0,L|215:351,1,52.5,8|0,0:0|0:0,0:0:0:0:
56,288,286961,5,4,0:0:0:0:
12,204,287125,1,0,0:0:0:0:
29,112,287290,1,0,0:0:0:0:
100,49,287455,1,2,0:0:0:0:
368,40,287785,2,0,L|479:48,2,105,0|0|2,0:0|0:0|0:0,0:0:0:0:
217,27,288444,5,0,0:0:0:0:
85,257,288774,2,0,L|68:131,1,105,0|2,0:0|0:0,0:0:0:0:
215,176,289104,1,0,0:0:0:0:
346,189,289268,2,0,L|339:304,1,105,0|0,0:0|0:0,0:0:0:0:
212,238,289598,5,0,0:0:0:0:
117,164,289762,1,0,0:0:0:0:
139,68,289927,1,0,0:0:0:0:
247,31,290092,1,2,0:0:0:0:
112,336,290422,2,0,L|122:210,1,105,0|0,0:0|0:0,0:0:0:0:
322,111,290917,6,0,L|312:220,1,105,0|0,0:0|0:0,0:0:0:0:
429,267,291246,1,0,0:0:0:0:
304,305,291411,1,0,0:0:0:0:
429,267,291576,1,2,0:0:0:0:
304,305,291740,1,0,0:0:0:0:
469,150,291905,1,0,0:0:0:0:
374,59,292070,1,0,0:0:0:0:
232,48,292235,6,0,L|109:58,2,105,0|0|0,0:0|0:0|0:0,0:0:0:0:
352,32,292730,1,2,0:0:0:0:
136,256,293060,2,0,L|124:142,1,105,0|0,0:0|0:0,0:0:0:0:
248,120,293389,6,0,P|362:114|486:139,2,210,0|0|0,0:0|0:0|0:0,0:0:0:0:
400,336,294378,2,0,L|409:217,1,105,0|0,0:0|0:0,0:0:0:0:
297,184,294708,1,0,0:0:0:0:
176,145,294873,5,2,0:0:0:0:
424,40,295202,2,0,L|408:144,1,105,0|0,0:0|0:0,0:0:0:0:
288,192,295532,1,2,0:0:0:0:
168,248,295697,2,0,L|182:363,1,105,0|0,0:0|0:0,0:0:0:0:
288,192,296027,1,0,0:0:0:0:
144,152,296191,5,2,0:0:0:0:
432,208,296851,1,2,0:0:0:0:
328,280,297016,2,0,L|211:279,2,105,0|0|0,0:0|0:0|0:0,0:0:0:0:
432,208,297510,5,2,0:0:0:0:
152,40,297840,2,0,L|168:159,1,105,0|2,0:0|0:0,0:0:0:0:
400,232,298334,2,0,L|389:346,1,105,0|2,0:0|0:0,0:0:0:0:
274,341,298664,1,0,0:0:0:0:
168,340,298829,1,0,0:0:0:0:
274,341,298994,1,2,0:0:0:0:
80,248,300147,5,2,0:0:0:0:
256,184,300477,2,0,L|274:68,1,105,0|2,0:0|0:0,0:0:0:0:
64,168,300972,2,0,L|80:279,1,105,0|2,0:0|0:0,0:0:0:0:
270,256,301466,2,0,L|285:372,1,105,0|0,0:0|0:0,0:0:0:0:
440,208,302785,5,2,0:0:0:0:
176,152,303279,1,2,0:0:0:0:
432,184,303774,1,2,0:0:0:0:
104,272,305422,5,2,0:0:0:0:
352,224,305917,1,2,0:0:0:0:
104,272,306411,1,2,0:0:0:0:
256,192,306741,12,0,311851,0:0:0:0:
