osu file format v14

[General]
AudioFilename: audio.mp3
AudioLeadIn: 0
PreviewTime: 62389
Countdown: 0
SampleSet: Normal
StackLeniency: 0.7
Mode: 2
LetterboxInBreaks: 0
WidescreenStoryboard: 1

[Editor]
Bookmarks: 11989,31189,40789,50389,59989,62389,81589,107989,123589,133189,142789,152389,173989
DistanceSpacing: 1.1
BeatDivisor: 8
GridSize: 8
TimelineZoom: 2

[Metadata]
Title:Clarity feat. Foxes (IOSYS uno DENPA Remix)
TitleUnicode:Clarity feat. Foxes (IOSYS uno DENPA Remix)
Artist:Zedd
ArtistUnicode:Zedd
Creator:Cera-
Version:dika312's Overdose
Source:
Tags:roughsketch Dika312 Zyzyx english electronic pop 岩杉 夏 Natsu Iwasugi ペス pesu 高井さん takaisan
BeatmapID:1408904
BeatmapSetID:662173

[Difficulty]
HPDrainRate:6
CircleSize:4.2
OverallDifficulty:9.4
ApproachRate:9.4
SliderMultiplier:2
SliderTickRate:1

[Events]
//Background and Video events
0,0,"bg.jpg",0,0
//Break Periods
2,164589,173149
//Storyboard Layer 0 (Background)
//Storyboard Layer 1 (Fail)
//Storyboard Layer 2 (Pass)
//Storyboard Layer 3 (Foreground)
//Storyboard Layer 4 (Overlay)
//Storyboard Sound Samples

[TimingPoints]
1189,300,4,1,1,70,1,0
15589,-100,4,2,1,90,0,0
16789,-100,4,1,1,70,0,0
30889,-100,4,2,2,40,0,0
31189,-100,4,2,1,60,0,0
40789,-100,4,1,1,70,0,0
60139,-100,4,2,1,70,0,0
62089,-100,4,2,2,60,0,0
62389,-100,4,3,2,70,0,1
62464,-100,4,1,1,70,0,1
80539,-100,4,1,2,70,0,1
81214,-100,4,1,1,70,0,1
81589,-100,4,1,1,70,0,0
88789,-100,4,1,1,70,0,0
89989,-100,4,1,1,70,0,0
123589,-100,4,1,1,70,0,0
131989,-100,4,3,1,70,0,0
133189,-100,4,3,2,70,0,1
133264,-100,4,1,2,70,0,1
141589,-100,4,1,2,70,0,1
142789,-100,4,2,1,70,0,0
143014,-100,4,2,1,5,0,0
143089,-100,4,2,1,70,0,0
143614,-100,4,2,1,5,0,0
143689,-100,4,2,1,70,0,0
144214,-100,4,2,1,5,0,0
144289,-100,4,2,1,70,0,0
144814,-100,4,2,1,5,0,0
144889,-100,4,2,1,70,0,0
145414,-100,4,2,1,5,0,0
145489,-100,4,2,1,70,0,0
146014,-100,4,2,1,5,0,0
146089,-100,4,2,1,70,0,0
146614,-100,4,2,1,5,0,0
146689,-100,4,2,1,70,0,0
147214,-100,4,2,1,5,0,0
147289,-100,4,2,1,70,0,0
148789,-83.3333333333333,4,2,1,70,0,0
149389,-100,4,2,1,70,0,0
152389,-100,4,1,2,70,0,0
155164,-100,4,1,1,70,0,0
155314,-100,4,1,2,70,0,0
155764,-100,4,1,1,70,0,0
155914,-100,4,1,2,70,0,0
156364,-100,4,1,1,70,0,0
156514,-100,4,1,2,70,0,0
161989,-100,4,1,1,70,0,0
164389,-100,4,1,1,70,0,0
173389,-100,4,3,1,30,0,0
173689,-100,4,1,2,70,0,0
173764,-100,4,3,1,30,0,0
173989,-100,4,3,2,70,0,1
174064,-100,4,1,1,70,0,1
183589,-100,4,3,2,70,0,1
183664,-100,4,1,1,70,0,1
201739,-100,4,1,2,70,0,1
202339,-100,4,1,1,70,0,1
202789,-100,4,1,1,70,0,0
211189,-100,4,1,1,70,0,0
212314,-100,4,2,2,70,0,0

[HitObjects]
307,272,1189,5,2,0:0:0:0:
344,247,1264,1,0,0:0:0:0:
349,202,1339,1,0,0:0:0:0:
320,167,1414,1,0,0:0:0:0:
182,212,1489,1,2,0:0:0:0:
145,187,1564,1,0,0:0:0:0:
140,142,1639,1,0,0:0:0:0:
169,107,1714,1,0,0:0:0:0:
320,155,1789,6,0,L|357:88,1,50,2|0,0:0|0:0,0:0:0:0:
183,154,1939,2,0,L|146:87,1,50,0|0,0:0|0:0,0:0:0:0:
378,120,2089,1,8,0:3:0:0:
204,115,2389,6,0,L|94:68,1,100,2|0,0:0|0:0,0:0:0:0:
261,114,2689,2,0,L|151:67,1,100,8|0,0:0|0:0,0:0:0:0:
379,68,2989,1,2,0:0:0:0:
259,70,3139,1,2,0:0:0:0:
379,68,3289,2,0,P|410:120|375:143,1,100,8|0,0:0|0:0,0:0:0:0:
113,130,3589,6,0,L|339:128,1,200,2|8,0:0|0:0,0:0:0:0:
97,129,4039,2,0,L|232:130,1,100,2|2,0:0|0:0,0:0:0:0:
415,129,4339,2,0,P|482:189|400:257,1,200,2|0,0:0|0:0,0:0:0:0:
209,260,4789,6,8,L|270:165,2,100,2|0|8,0:0|0:0|0:0,0:0:0:0:
356,268,5239,2,0,L|295:173,2,100,2|2|2,0:0|0:0|0:0,0:0:0:0:
235,267,5689,1,8,0:0:0:0:
356,268,5839,1,0,0:0:0:0:
137,267,5989,6,0,P|76:211|159:136,1,200,2|10,0:0|0:0,0:0:0:0:
362,137,6439,2,0,L|136:135,1,200,0|2,0:0|0:0,0:0:0:0:
263,135,6889,1,8,0:0:0:0:
137,132,7039,1,0,0:0:0:0:
381,136,7189,6,0,L|311:55,3,100,6|0|8|0,0:0|0:0|0:0|0:0,0:0:0:0:
79,136,7789,2,0,L|149:55,3,100,2|2|8|2,0:0|0:0|0:0|0:0,0:0:0:0:
357,137,8389,5,6,0:0:0:0:
144,60,8539,1,2,0:0:0:0:
357,137,8689,1,8,0:0:0:0:
144,60,8839,2,2,P|87:96|165:189,1,200,0|2,0:0|0:0,0:0:0:0:
353,190,9289,1,10,0:0:0:0:
252,188,9439,1,0,0:0:0:0:
353,190,9589,5,6,0:0:0:0:
395,203,9664,1,0,0:0:0:0:
419,241,9739,1,0,0:0:0:0:
415,285,9814,1,0,0:0:0:0:
385,319,9889,1,0,0:0:0:0:
340,327,9964,1,0,0:0:0:0:
204,326,10039,5,0,0:0:0:0:
165,303,10114,1,0,0:0:0:0:
154,259,10189,1,0,0:0:0:0:
180,222,10264,1,0,0:0:0:0:
223,210,10339,1,0,0:0:0:0:
259,183,10414,1,0,0:0:0:0:
269,139,10489,1,0,0:0:0:0:
250,97,10564,1,0,0:0:0:0:
206,85,10639,1,0,0:0:0:0:
346,90,10714,6,0,L|426:91,1,50,0|0,0:0|0:0,0:0:0:0:
61,80,10939,1,2,0:3:0:0:
433,89,11089,2,0,L|293:88,1,100,2|0,0:3|0:0,0:0:0:0:
80,88,11389,2,0,L|220:87,1,100,2|0,0:0|0:0,0:0:0:0:
433,89,11689,1,8,0:3:0:0:
208,85,11989,5,2,0:0:0:0:
354,94,12289,2,0,L|242:95,1,100,8|0,0:3|0:0,0:0:0:0:
379,95,12589,2,0,P|448:150|360:191,1,200,2|8,0:0|0:3,0:0:0:0:
255,192,13039,1,0,0:0:0:0:
382,194,13189,6,0,L|269:193,1,100,2|0,0:0|0:0,0:0:0:0:
155,190,13489,2,0,L|275:192,1,100,8|0,0:3|0:0,0:0:0:0:
379,196,13789,2,0,P|435:279|370:288,1,200,2|8,0:0|0:3,0:0:0:0:
247,281,14239,1,0,0:0:0:0:
117,275,14389,6,0,L|111:155,1,100,2|0,0:0|0:0,0:0:0:0:
262,233,14689,2,0,L|256:113,1,100,8|0,0:3|0:0,0:0:0:0:
402,202,14989,2,0,L|396:82,1,100,2|0,0:0|0:0,0:0:0:0:
262,233,15289,2,0,L|256:113,1,100,8|0,0:3|0:0,0:0:0:0:
395,113,15589,6,0,L|423:64,2,50,2|0|0,0:3|0:0|0:0,0:0:0:0:
139,118,15889,1,8,0:3:0:0:
310,120,16189,2,0,L|338:71,2,50,2|0|0,0:3|0:0|0:0,0:0:0:0:
54,125,16489,1,8,0:3:0:0:
175,125,16639,1,2,1:0:0:0:
394,133,16789,6,0,P|421:180|387:213,1,100,6|0,0:0|0:0,0:0:0:0:
273,211,17089,2,0,L|383:211,1,100,8|0,0:3|0:0,0:0:0:0:
247,216,17389,2,0,P|178:265|265:308,1,200,2|8,0:0|0:3,0:0:0:0:
367,324,17839,1,0,0:0:0:0:
246,321,17989,6,0,L|125:319,1,100,2|0,0:0|0:0,0:0:0:0:
286,304,18289,2,0,L|165:302,1,100,8|0,0:3|0:0,0:0:0:0:
322,222,18589,2,0,P|391:277|303:318,1,200,2|8,0:0|0:3,0:0:0:0:
206,316,19039,1,0,0:0:0:0:
439,327,19189,5,6,0:0:0:0:
58,306,19489,1,6,0:1:0:0:
439,327,19789,1,6,0:0:0:0:
58,306,20089,1,6,0:0:0:0:
290,321,20239,1,4,0:0:0:0:
208,318,20389,5,2,0:3:0:0:
172,299,20464,1,0,0:0:0:0:
161,260,20539,1,0,0:0:0:0:
179,223,20614,1,0,0:0:0:0:
221,212,20689,1,0,0:3:0:0:
179,223,20764,1,0,0:0:0:0:
161,187,20839,1,0,0:0:0:0:
161,147,20914,1,0,0:0:0:0:
188,118,20989,1,2,0:3:0:0:
227,109,21064,1,0,0:0:0:0:
376,100,21139,2,0,L|451:96,1,50,0|0,0:0|0:0,0:0:0:0:
203,106,21289,1,0,0:3:0:0:
293,110,21439,1,2,0:0:0:0:
65,103,21589,5,2,0:1:0:0:
251,128,21889,2,0,L|378:128,1,100,8|0,0:3|0:0,0:0:0:0:
223,130,22189,2,0,P|154:179|241:222,1,200,2|8,0:0|0:3,0:0:0:0:
341,222,22639,1,0,0:0:0:0:
223,130,22789,6,0,L|109:130,1,100,2|0,0:0|0:0,0:0:0:0:
260,116,23089,2,0,L|146:116,1,100,8|0,0:3|0:0,0:0:0:0:
297,119,23389,2,0,P|366:168|279:211,1,200,2|8,0:0|0:3,0:0:0:0:
170,211,23839,1,0,0:0:0:0:
296,220,23989,6,0,L|331:106,1,100,2|0,0:0|0:0,0:0:0:0:
188,211,24289,2,0,L|221:101,1,100,8|0,0:3|0:0,0:0:0:0:
357,118,24589,2,0,P|426:167|339:210,1,200,2|8,0:0|0:3,0:0:0:0:
216,205,25039,1,0,0:0:0:0:
76,202,25189,6,0,L|48:153,2,50,2|0|0,0:3|0:0|0:0,0:0:0:0:
332,207,25489,1,8,0:3:0:0:
161,209,25789,2,0,L|133:160,2,50,2|0|0,0:3|0:0|0:0,0:0:0:0:
417,214,26089,1,8,0:3:0:0:
292,213,26239,1,2,0:2:0:0:
68,158,26389,6,0,L|176:158,1,100,6|0,0:0|0:0,0:0:0:0:
299,164,26689,2,0,P|329:202|281:228,1,100,8|0,0:3|0:0,0:0:0:0:
165,217,26989,2,0,L|288:219,1,100,2|0,0:0|0:0,0:0:0:0:
132,186,27289,2,0,L|255:188,1,100,8|0,0:3|0:0,0:0:0:0:
451,221,27589,6,0,L|324:221,1,100,6|0,0:0|0:0,0:0:0:0:
218,220,27889,2,0,L|345:220,1,100,8|0,0:3|0:0,0:0:0:0:
451,221,28189,2,0,B|438:163|438:163|272:158,1,200,2|8,0:0|0:3,0:0:0:0:
176,147,28639,1,0,0:0:0:0:
446,197,28789,5,2,0:3:0:0:
64,182,29089,1,2,0:3:0:0:
446,197,29389,1,2,0:3:0:0:
64,182,29689,1,2,0:3:0:0:
335,191,29839,1,2,0:3:0:0:
190,182,30139,5,0,0:0:0:0:
237,167,30214,1,0,0:0:0:0:
189,152,30289,1,0,0:0:0:0:
306,129,30439,5,0,0:0:0:0:
92,126,30589,5,0,0:0:0:0:
296,80,31189,5,4,0:0:0:0:
328,118,31264,1,0,0:0:0:0:
297,157,31339,1,0,0:0:0:0:
194,143,31489,1,4,0:0:0:0:
268,144,31564,1,0,0:0:0:0:
342,145,31639,1,0,0:0:0:0:
229,108,31789,1,4,0:0:0:0:
155,109,31864,1,0,0:0:0:0:
81,110,31939,1,0,0:0:0:0:
178,66,32089,1,4,0:0:0:0:
210,104,32164,1,0,0:0:0:0:
179,143,32239,1,0,0:0:0:0:
81,110,32389,5,4,0:0:0:0:
216,108,32539,1,0,0:0:0:0:
81,110,32689,1,4,0:0:0:0:
155,109,32839,1,0,0:0:0:0:
183,149,32914,1,0,0:0:0:0:
152,188,32989,1,0,0:0:0:0:
49,191,33139,1,2,0:3:0:0:
297,193,33289,1,4,0:0:0:0:
227,149,33439,1,0,0:0:0:0:
199,189,33514,1,0,0:0:0:0:
230,228,33589,5,4,0:0:0:0:
304,227,33664,1,0,0:0:0:0:
378,228,33739,1,0,0:0:0:0:
256,175,33889,1,4,0:0:0:0:
182,174,33964,1,0,0:0:0:0:
108,175,34039,1,0,0:0:0:0:
230,228,34189,1,4,0:0:0:0:
263,190,34264,1,0,0:0:0:0:
228,153,34339,1,0,0:0:0:0:
102,147,34489,1,4,0:0:0:0:
176,146,34564,1,0,0:0:0:0:
250,147,34639,1,0,0:0:0:0:
372,212,34789,5,4,0:0:0:0:
405,174,34864,1,0,0:0:0:0:
370,137,34939,1,0,0:0:0:0:
226,143,35089,1,4,0:0:0:0:
303,144,35239,5,0,0:0:0:0:
336,106,35314,1,0,0:0:0:0:
301,69,35389,1,2,0:3:0:0:
172,68,35539,1,4,0:0:0:0:
473,71,35689,2,0,L|411:72,1,50,4|0,0:0|0:0,0:0:0:0:
251,70,35839,2,0,L|326:68,1,50,0|0,0:0|0:0,0:0:0:0:
473,71,35989,5,4,0:0:0:0:
364,69,36139,1,2,0:3:0:0:
147,136,36289,1,4,0:0:0:0:
114,98,36364,1,0,0:0:0:0:
149,61,36439,1,2,0:3:0:0:
289,150,36589,1,4,0:0:0:0:
322,112,36664,1,0,0:0:0:0:
287,75,36739,1,2,0:3:0:0:
144,89,36889,1,4,0:0:0:0:
218,88,36964,1,0,0:0:0:0:
292,89,37039,1,2,0:3:0:0:
139,87,37189,5,4,0:0:0:0:
287,87,37339,1,2,0:3:0:0:
139,87,37489,1,4,0:0:0:0:
104,124,37564,1,0,0:0:0:0:
137,162,37639,1,2,0:3:0:0:
239,166,37789,1,0,0:0:0:0:
386,172,37939,1,2,0:3:0:0:
165,170,38089,1,4,0:0:0:0:
122,197,38164,1,0,0:0:0:0:
121,246,38239,1,0,0:0:0:0:
163,271,38314,1,0,0:0:0:0:
361,280,38389,5,4,0:0:0:0:
339,234,38464,1,0,0:0:0:0:
316,189,38539,1,0,0:0:0:0:
174,272,38689,1,4,0:0:0:0:
196,226,38764,1,0,0:0:0:0:
219,181,38839,1,0,0:0:0:0:
364,181,38989,2,0,L|251:180,1,100,4|0,0:0|0:0,0:0:0:0:
139,177,39289,1,4,0:0:0:0:
368,178,39439,2,0,L|278:177,1,50,0|0,0:0|0:0,0:0:0:0:
139,177,39589,5,2,0:3:0:0:
368,178,39739,1,2,0:1:0:0:
139,177,39889,1,2,0:2:0:0:
368,178,40189,2,0,P|417:222|357:252,1,150,2|0,0:2|0:0,0:0:0:0:
92,177,40489,2,0,L|199:179,1,100,8|0,0:3|0:0,0:0:0:0:
415,180,40789,6,0,P|455:137|307:159,1,400,2|2,0:0|0:2,0:0:0:0:
463,140,41689,1,12,0:3:0:0:
90,195,41989,6,0,P|50:152|198:174,1,400,2|2,0:0|0:2,0:0:0:0:
42,155,42889,1,12,0:3:0:0:
415,180,43189,6,0,P|294:148|431:24,1,400,2|2,0:1|0:2,0:0:0:0:
475,113,44089,1,12,0:3:0:0:
95,194,44389,6,0,P|216:162|79:38,1,400,2|2,0:0|0:2,0:0:0:0:
35,127,45289,1,12,0:3:0:0:
399,178,45589,6,0,P|450:167|316:69,1,400,6|2,0:1|0:0,0:0:0:0:
473,115,46489,1,12,0:3:0:0:
115,184,46789,6,0,P|64:173|198:75,1,400,2|2,0:1|0:2,0:0:0:0:
55,118,47689,1,12,0:3:0:0:
415,362,47989,6,0,P|485:262|367:7,1,400,2|2,0:1|0:2,0:0:0:0:
474,174,48889,1,12,0:3:0:0:
34,186,49189,6,0,L|66:185,1,25,2|0,0:0|0:0,0:0:0:0:
478,186,49489,2,0,L|446:185,1,25,2|0,0:1|0:0,0:0:0:0:
34,186,49789,2,0,L|66:185,1,25,2|0,0:0|0:0,0:0:0:0:
270,218,49939,1,2,0:1:0:0:
283,208,49964,1,0,0:0:0:0:
283,191,49989,1,0,0:0:0:0:
270,179,50014,1,0,0:0:0:0:
125,176,50089,5,2,0:0:0:0:
399,176,50239,1,2,0:1:0:0:
125,176,50389,1,2,0:1:0:0:
399,176,50689,5,8,0:3:0:0:
399,176,50989,1,2,0:1:0:0:
252,180,51139,1,2,0:2:0:0:
105,185,51289,1,12,0:3:0:0:
105,185,51589,1,2,0:1:0:0:
252,180,51739,1,2,0:2:0:0:
105,185,51889,1,8,0:3:0:0:
252,180,52039,1,2,0:1:0:0:
252,180,52339,1,2,0:0:0:0:
105,185,52489,1,12,0:3:0:0:
105,185,52789,5,2,0:1:0:0:
399,176,53089,1,8,0:3:0:0:
399,176,53389,1,2,0:1:0:0:
252,180,53539,1,2,0:2:0:0:
399,176,53689,1,12,0:3:0:0:
399,176,53989,1,2,0:1:0:0:
252,180,54139,1,2,0:2:0:0:
105,185,54289,1,8,0:3:0:0:
252,180,54439,1,2,0:2:0:0:
252,180,54739,1,2,0:1:0:0:
399,176,54889,1,12,0:3:0:0:
399,176,55189,5,6,0:1:0:0:
105,185,55489,1,8,0:3:0:0:
105,185,55789,1,2,0:1:0:0:
252,180,55939,1,2,0:2:0:0:
399,176,56089,1,12,0:3:0:0:
399,176,56389,1,6,0:1:0:0:
105,185,56539,1,2,0:2:0:0:
252,180,56689,1,8,0:3:0:0:
105,185,56839,1,2,0:1:0:0:
105,185,57139,1,2,0:0:0:0:
399,176,57289,1,12,0:3:0:0:
399,176,57589,5,6,0:1:0:0:
105,185,57889,1,8,0:3:0:0:
105,185,58189,1,2,0:1:0:0:
252,180,58339,1,0,0:2:0:0:
105,185,58489,1,12,0:3:0:0:
105,185,58789,1,6,0:1:0:0:
399,176,58939,1,2,0:2:0:0:
105,185,59089,1,8,0:3:0:0:
399,176,59239,1,2,0:0:0:0:
399,176,59539,1,2,0:2:0:0:
105,185,59689,1,8,0:3:0:0:
105,185,59989,6,0,L|146:186,1,25,2|0,0:3|0:0,0:0:0:0:
317,256,60139,1,0,0:0:0:0:
351,248,60214,1,0,0:0:0:0:
375,222,60289,1,0,0:0:0:0:
375,187,60364,1,0,0:0:0:0:
350,161,60439,1,0,0:0:0:0:
315,155,60514,1,0,0:0:0:0:
174,148,60589,2,0,L|155:92,1,50,2|0,0:0|0:0,0:0:0:0:
252,148,60739,2,0,L|271:92,1,50,2|0,0:0|0:0,0:0:0:0:
174,148,60889,2,0,L|155:92,1,50,2|0,0:0|0:0,0:0:0:0:
252,148,61039,2,0,L|271:92,1,50,2|0,0:0|0:3,0:0:0:0:
83,221,61189,5,2,0:0:0:0:
46,186,61264,1,0,0:0:0:0:
61,138,61339,1,2,0:0:0:0:
110,134,61414,1,0,0:0:0:0:
429,221,61489,1,2,0:0:0:0:
466,186,61564,1,2,0:0:0:0:
451,138,61639,1,2,0:0:0:0:
402,134,61714,1,0,0:0:0:0:
83,221,61789,1,2,0:0:0:0:
46,186,61864,1,0,0:0:0:0:
61,138,61939,1,2,0:0:0:0:
110,134,62014,1,0,0:0:0:0:
429,221,62089,1,12,0:3:0:0:
429,221,62389,6,0,L|329:221,1,100,2|0,0:3|0:0,0:0:0:0:
103,218,62689,2,0,L|166:116,2,100,8|0|2,0:0|0:0|0:0,0:0:0:0:
242,228,63139,2,0,L|344:228,1,100,0|8,0:0|0:0,0:0:0:0:
214,228,63439,1,0,0:0:0:0:
430,229,63589,6,0,L|228:228,1,200,2|8,0:0|0:0,0:0:0:0:
103,224,64039,1,0,0:0:0:0:
333,235,64189,2,0,L|210:236,1,100,2|0,0:0|0:0,0:0:0:0:
96,237,64489,2,0,L|219:238,1,100,8|0,0:0|0:0,0:0:0:0:
439,232,64789,5,2,0:0:0:0:
317,233,64939,1,0,0:0:0:0:
439,232,65089,2,0,L|327:231,1,100,8|0,0:0|0:0,0:0:0:0:
195,237,65389,2,0,L|294:238,1,100,2|0,0:0|0:0,0:0:0:0:
171,207,65689,2,0,L|56:208,1,100,8|0,0:0|0:0,0:0:0:0:
340,230,65989,6,0,L|442:174,1,100,14|0,0:3|0:0,0:0:0:0:
253,208,66289,2,0,L|355:152,1,100,14|0,0:3|0:0,0:0:0:0:
166,183,66589,2,0,L|268:127,1,100,14|0,0:3|0:0,0:0:0:0:
79,161,66889,2,0,L|181:105,1,100,14|0,0:3|0:0,0:0:0:0:
417,230,67189,6,0,P|441:180|352:149,1,150,6|0,0:0|0:0,0:0:0:0:
305,161,67489,2,0,L|435:162,1,100,8|0,0:0|0:0,0:0:0:0:
164,234,67789,2,0,P|133:200|192:195,1,100,2|0,0:0|0:0,0:0:0:0:
290,177,68089,1,8,0:0:0:0:
167,173,68239,1,0,0:0:0:0:
425,180,68389,6,0,L|292:180,1,100,2|0,0:0|0:0,0:0:0:0:
113,181,68689,2,0,P|74:156|117:144,1,100,8|0,0:0|0:0,0:0:0:0:
243,140,68989,2,0,L|128:139,1,100,2|0,0:0|0:0,0:0:0:0:
441,151,69289,2,0,L|341:150,1,100,8|0,0:0|0:0,0:0:0:0:
60,156,69589,5,6,0:0:0:0:
182,157,69739,1,2,0:0:0:0:
60,156,69889,2,0,L|172:155,1,100,8|0,0:0|0:0,0:0:0:0:
452,164,70189,2,0,L|335:165,1,100,2|2,0:0|0:0,0:0:0:0:
46,163,70489,2,0,L|163:164,1,100,8|2,0:0|0:0,0:0:0:0:
46,163,70939,5,2,0:0:0:0:
452,164,71089,1,12,0:0:0:0:
46,163,71389,1,2,0:3:0:0:
452,164,71689,1,2,0:3:0:0:
46,163,71989,6,0,L|166:166,1,100,2|0,0:0|0:0,0:0:0:0:
269,167,72289,2,0,L|147:164,1,100,8|0,0:0|0:0,0:0:0:0:
398,197,72589,2,0,L|339:92,2,100,2|0|8,0:0|0:0|0:0,0:0:0:0:
288,196,73039,1,0,0:0:0:0:
47,199,73189,6,0,L|160:199,1,100,6|0,0:0|0:0,0:0:0:0:
379,213,73489,1,8,0:0:0:0:
262,209,73639,1,2,0:0:0:0:
379,213,73789,2,0,L|270:211,1,100,2|0,0:0|0:0,0:0:0:0:
71,213,74089,2,0,L|201:212,1,100,8|0,0:0|0:0,0:0:0:0:
439,232,74389,5,6,0:0:0:0:
317,233,74539,1,0,0:0:0:0:
439,232,74689,2,0,L|327:231,1,100,8|2,0:0|0:0,0:0:0:0:
115,233,74989,2,0,L|232:232,1,100,2|2,0:2|0:0,0:0:0:0:
351,241,75289,2,0,L|467:242,1,100,8|0,0:0|0:0,0:0:0:0:
172,230,75589,6,0,L|70:174,1,100,14|0,0:3|0:0,0:0:0:0:
264,203,75889,2,0,L|162:147,1,100,14|0,0:3|0:0,0:0:0:0:
356,177,76189,2,0,L|254:121,1,100,14|0,0:3|0:0,0:0:0:0:
448,152,76489,2,0,L|346:96,1,100,14|2,0:3|0:0,0:0:0:0:
126,97,76789,6,0,L|231:97,1,100,6|0,0:0|0:0,0:0:0:0:
350,95,77089,1,8,0:0:0:0:
126,97,77239,2,0,L|231:97,1,100,0|2,0:0|0:0,0:0:0:0:
366,96,77539,1,0,0:0:0:0:
226,97,77689,1,8,0:0:0:0:
366,96,77839,1,0,0:0:0:0:
150,100,77989,6,0,L|50:99,1,100,6|2,0:0|0:0,0:0:0:0:
175,102,78289,2,0,L|274:101,1,100,8|0,0:0|0:0,0:0:0:0:
150,100,78589,2,0,L|50:99,1,100,2|2,0:0|0:0,0:0:0:0:
417,230,78889,2,0,P|441:180|352:149,1,150,8|0,0:0|0:0,0:0:0:0:
179,173,79189,5,6,0:0:0:0:
301,176,79339,1,0,0:0:0:0:
179,173,79489,2,0,L|298:173,1,100,8|0,0:0|0:0,0:0:0:0:
410,178,79789,2,0,L|270:176,1,100,2|2,0:0|0:0,0:0:0:0:
42,177,80089,2,0,L|141:175,1,100,8|0,0:0|0:0,0:0:0:0:
369,327,80389,5,2,0:3:0:0:
377,277,80464,1,0,0:0:0:0:
347,236,80539,1,0,0:0:0:0:
297,230,80614,1,0,0:0:0:0:
398,299,80689,1,8,0:0:0:0:
406,249,80764,1,0,0:0:0:0:
376,208,80839,1,0,0:0:0:0:
326,202,80914,1,0,0:0:0:0:
424,274,80989,1,8,0:0:0:0:
432,224,81064,1,0,0:0:0:0:
402,183,81139,1,0,0:0:0:0:
352,177,81214,1,0,0:0:0:0:
79,184,81289,1,8,0:3:0:0:
270,194,81589,6,0,L|406:194,1,100,6|0,0:0|0:0,0:0:0:0:
234,197,81889,1,8,0:0:0:0:
435,204,82189,1,2,0:0:0:0:
305,204,82339,1,2,0:0:0:0:
435,204,82489,1,8,0:0:0:0:
295,203,82639,1,0,0:0:0:0:
81,199,82789,6,0,P|63:141|135:128,1,150,2|0,0:0|0:0,0:0:0:0:
207,172,83089,1,8,0:0:0:0:
64,178,83239,1,0,0:0:0:0:
314,193,83539,2,0,P|380:133|280:96,1,200,2|0,0:0|0:0,0:0:0:0:
181,77,83989,6,0,L|74:77,1,100,2|0,0:0|0:0,0:0:0:0:
297,83,84289,2,0,L|415:85,1,100,8|0,0:0|0:0,0:0:0:0:
265,82,84589,2,0,L|314:191,2,100,2|2|8,0:0|0:0|0:0,0:0:0:0:
390,85,85039,1,0,0:0:0:0:
94,83,85189,6,0,L|215:81,1,100,2|0,0:0|0:0,0:0:0:0:
329,86,85489,1,8,0:0:0:0:
106,91,85639,2,0,P|35:143|125:163,1,200,0|2,0:0|0:0,0:0:0:0:
249,179,86089,1,8,0:0:0:0:
393,177,86239,1,0,0:0:0:0:
112,215,86389,5,6,0:0:0:0:
172,162,86539,1,0,0:0:0:0:
112,215,86689,2,0,L|225:215,1,100,8|0,0:0|0:0,0:0:0:0:
440,218,86989,1,2,0:0:0:0:
380,165,87139,1,2,0:0:0:0:
440,218,87289,1,8,0:0:0:0:
112,215,87439,1,0,0:0:0:0:
333,224,87589,5,6,0:0:0:0:
207,222,87739,1,0,0:0:0:0:
333,224,87889,1,8,0:0:0:0:
121,216,88039,2,0,P|189:158|89:152,1,200,0|2,0:0|0:0,0:0:0:0:
344,110,88489,1,8,0:0:0:0:
118,119,88639,1,0,0:0:0:0:
344,14,88789,6,0,B|428:66|481:149|447:255|447:255|354:273|299:63|239:168|239:168|202:255|294:337|381:343,1,800,6|2,0:0|0:3,0:0:0:0:
106,343,90139,1,2,0:3:0:0:
369,341,90289,1,2,0:3:0:0:
106,343,90589,1,2,0:3:0:0:
369,341,90889,1,8,0:3:0:0:
106,343,91189,6,0,L|161:235,1,100,2|0,0:0|0:0,0:0:0:0:
76,303,91489,2,0,L|131:195,1,100,8|0,0:3|0:0,0:0:0:0:
52,260,91789,2,0,L|107:152,1,100,8|0,0:3|0:0,0:0:0:0:
28,214,92089,2,0,L|83:106,1,100,0|0,0:0|0:0,0:0:0:0:
308,310,92389,6,0,L|253:202,1,100,2|0,0:0|0:0,0:0:0:0:
338,270,92689,2,0,L|283:162,1,100,8|0,0:3|0:0,0:0:0:0:
362,227,92989,2,0,L|307:119,1,100,8|0,0:3|0:0,0:0:0:0:
386,181,93289,2,0,L|331:73,1,100,8|0,0:3|0:0,0:0:0:0:
119,151,93589,6,0,L|98:99,1,50,2|0,0:0|0:0,0:0:0:0:
193,150,93739,2,0,L|214:98,1,50,0|0,0:0|0:0,0:0:0:0:
119,151,93889,2,0,L|98:99,1,50,8|0,0:3|0:0,0:0:0:0:
193,150,94039,2,0,L|214:98,1,50,0|0,0:0|0:0,0:0:0:0:
57,106,94189,1,8,0:3:0:0:
310,110,94489,2,0,L|334:110,1,25,2|0,0:3|0:0,0:0:0:0:
335,110,94789,5,6,0:0:0:0:
109,105,95089,1,8,0:3:0:0:
238,116,95239,2,0,P|307:169|216:214,1,200,0|0,0:0|0:2,0:0:0:0:
360,225,95689,1,8,0:3:0:0:
239,225,95839,1,0,0:0:0:0:
452,211,95989,6,0,L|230:211,1,200,8|8,0:3|0:3,0:0:0:0:
35,147,96439,2,0,P|34:198|164:224,1,200,0|0,0:0|0:2,0:0:0:0:
280,235,96889,1,8,0:3:0:0:
154,232,97039,1,0,0:0:0:0:
469,180,97189,6,0,L|247:180,1,200,8|8,0:3|0:3,0:0:0:0:
35,147,97639,2,0,P|34:198|164:224,1,200,0|0,0:0|0:2,0:0:0:0:
285,229,98089,1,8,0:3:0:0:
154,232,98239,1,0,0:0:0:0:
391,237,98389,5,8,0:3:0:0:
154,232,98689,1,8,0:3:0:0:
391,237,98989,1,0,0:0:0:0:
154,232,99289,2,0,L|268:236,2,100,10|0|6,0:3|0:0|0:1,0:0:0:0:
403,105,99889,5,8,0:3:0:0:
274,116,100039,2,0,P|205:169|296:214,1,200,0|0,0:0|0:0,0:0:0:0:
152,225,100489,1,8,0:3:0:0:
273,225,100639,1,0,0:0:0:0:
60,211,100789,6,0,L|282:211,1,200,8|8,0:3|0:3,0:0:0:0:
477,147,101239,2,0,P|478:198|348:224,1,200,0|0,0:0|0:0,0:0:0:0:
232,235,101689,1,8,0:3:0:0:
358,232,101839,1,0,0:0:0:0:
43,180,101989,6,0,L|265:180,1,200,8|8,0:3|0:3,0:0:0:0:
477,147,102439,2,0,P|478:198|348:224,1,200,0|0,0:0|0:0,0:0:0:0:
227,229,102889,1,8,0:3:0:0:
358,232,103039,1,0,0:0:0:0:
87,230,103189,5,2,0:3:0:0:
358,232,103339,1,0,0:0:0:0:
87,230,103489,1,6,0:0:0:0:
358,232,103789,1,6,0:0:0:0:
164,234,104089,6,0,P|130:186|218:152,1,150,8|0,0:3|0:0,0:0:0:0:
392,144,104389,1,6,0:0:0:0:
392,144,104689,5,2,3:0:0:0:
392,144,104839,5,2,3:0:0:0:
392,144,105289,5,2,3:0:0:0:
392,144,105889,5,2,3:0:0:0:
392,144,106489,5,2,3:0:0:0:
392,144,107089,5,2,3:0:0:0:
392,144,107239,5,2,3:0:0:0:
392,144,107689,5,2,3:0:0:0:
392,144,107989,6,0,L|351:143,1,25,2|0,0:3|0:0,0:0:0:0:
219,152,108064,1,0,0:0:0:0:
191,123,108139,1,0,0:0:0:0:
221,97,108214,1,0,0:0:0:0:
373,294,108289,1,2,0:2:0:0:
407,273,108364,1,0,0:0:0:0:
423,236,108439,1,0,0:0:0:0:
405,199,108514,1,0,0:0:0:0:
368,183,108589,1,2,0:3:0:0:
203,276,108664,1,0,0:0:0:0:
175,247,108739,1,0,0:0:0:0:
205,221,108814,1,0,0:0:0:0:
373,294,108889,1,2,0:2:0:0:
407,273,108964,1,0,0:0:0:0:
406,234,109039,1,0,0:0:0:0:
370,215,109114,1,0,0:0:0:0:
205,221,109189,1,6,0:0:0:0:
408,216,109489,6,0,L|304:216,1,100,8|0,0:3|0:0,0:0:0:0:
165,221,109789,2,0,P|97:160|176:120,1,200,2|8,0:0|0:3,0:0:0:0:
304,121,110239,1,0,0:0:0:0:
165,115,110389,6,0,L|61:115,1,100,2|0,0:0|0:0,0:0:0:0:
207,115,110689,2,0,L|311:115,1,100,8|0,0:3|0:0,0:0:0:0:
165,114,110989,2,0,P|161:165|210:208,1,100,2|0,0:0|0:0,0:0:0:0:
316,205,111289,1,8,0:3:0:0:
190,200,111439,1,0,0:0:0:0:
477,200,111589,5,2,0:2:0:0:
36,202,111889,1,2,0:2:0:0:
477,200,112189,1,2,0:2:0:0:
36,202,112489,1,2,0:2:0:0:
290,205,112639,1,0,0:0:0:0:
208,318,112789,5,2,0:3:0:0:
172,299,112864,1,0,0:0:0:0:
161,260,112939,1,0,0:0:0:0:
179,223,113014,1,0,0:0:0:0:
221,212,113089,1,2,0:2:0:0:
179,223,113164,1,0,0:0:0:0:
161,187,113239,1,0,0:0:0:0:
161,147,113314,1,0,0:0:0:0:
188,118,113389,1,2,0:3:0:0:
227,109,113464,1,0,0:0:0:0:
425,97,113539,2,0,L|376:98,1,50,2|0,0:0|0:0,0:0:0:0:
199,107,113689,1,8,0:3:0:0:
293,110,113839,1,2,0:0:0:0:
65,103,113989,1,6,0:0:0:0:
251,128,114289,6,0,L|378:128,1,100,8|0,0:3|0:0,0:0:0:0:
223,130,114589,2,0,P|154:179|241:222,1,200,2|8,0:0|0:3,0:0:0:0:
341,222,115039,1,0,0:0:0:0:
223,130,115189,6,0,L|109:130,1,100,2|0,0:0|0:0,0:0:0:0:
260,116,115489,2,0,L|146:116,1,100,8|0,0:3|0:0,0:0:0:0:
297,119,115789,2,0,L|408:118,1,100,2|0,0:0|0:0,0:0:0:0:
173,118,116089,1,8,0:3:0:0:
396,118,116239,1,0,0:0:0:0:
173,118,116389,6,0,L|138:4,1,100,2|0,0:0|0:0,0:0:0:0:
282,170,116689,2,0,L|315:60,1,100,8|0,0:3|0:0,0:0:0:0:
172,131,116989,2,0,P|103:180|190:223,1,200,2|8,0:0|0:3,0:0:0:0:
290,223,117439,1,0,0:0:0:0:
76,202,117589,6,0,L|48:153,2,50,2|0|0,0:3|0:0|0:0,0:0:0:0:
332,207,117889,1,8,0:3:0:0:
161,209,118189,2,0,L|133:160,2,50,2|0|0,0:3|0:0|0:0,0:0:0:0:
417,214,118489,1,8,0:3:0:0:
161,209,118639,1,2,0:2:0:0:
417,214,118789,6,0,L|309:214,1,100,6|0,0:0|0:0,0:0:0:0:
183,161,119089,2,0,P|153:199|201:225,1,100,8|0,0:3|0:0,0:0:0:0:
317,214,119389,2,0,L|194:216,1,100,2|0,0:0|0:0,0:0:0:0:
470,186,119689,2,0,L|347:188,1,100,8|0,0:3|0:0,0:0:0:0:
76,220,119989,6,0,L|203:220,1,100,6|0,0:0|0:0,0:0:0:0:
309,219,120289,2,0,L|182:219,1,100,8|0,0:3|0:0,0:0:0:0:
76,220,120589,2,0,B|89:162|89:162|255:157,1,200,2|8,0:0|0:3,0:0:0:0:
351,146,121039,1,0,0:0:0:0:
81,196,121189,5,6,0:0:0:0:
463,181,121489,1,6,0:0:0:0:
81,196,121789,1,6,0:0:0:0:
463,181,122089,1,2,0:2:0:0:
208,190,122239,5,2,0:3:0:0:
463,181,122539,1,2,0:0:0:0:
208,190,122839,1,0,0:0:0:0:
463,181,122989,1,2,0:3:0:0:
208,190,123289,5,8,0:3:0:0:
425,261,123589,2,0,P|491:208|399:145,1,200,6|0,0:0|0:0,0:0:0:0:
297,139,124039,1,2,0:0:0:0:
429,137,124189,1,2,0:2:0:0:
465,137,124489,1,12,0:3:0:0:
87,261,124789,6,0,P|21:208|113:145,1,200,6|0,0:0|0:0,0:0:0:0:
215,139,125239,1,2,0:0:0:0:
83,137,125389,1,2,0:2:0:0:
47,137,125689,1,12,0:3:0:0:
460,256,125989,6,0,P|396:189|488:151,1,200,6|0,0:0|0:0,0:0:0:0:
330,140,126439,1,2,0:0:0:0:
464,140,126589,1,2,0:2:0:0:
464,140,126889,1,12,0:3:0:0:
52,256,127189,6,0,P|116:189|24:151,1,200,6|0,0:0|0:0,0:0:0:0:
182,140,127639,1,2,0:0:0:0:
48,140,127789,1,2,0:2:0:0:
48,140,128089,1,12,0:3:0:0:
434,270,128389,6,0,B|475:221|475:221|401:193|401:193|448:134,1,200,6|0,0:0|0:0,0:0:0:0:
305,142,128839,1,2,0:0:0:0:
436,148,128989,1,2,0:2:0:0:
436,148,129289,1,12,0:3:0:0:
78,270,129589,6,0,B|37:221|37:221|111:193|111:193|64:134,1,200,6|0,0:0|0:0,0:0:0:0:
207,142,130039,1,2,0:0:0:0:
76,148,130189,1,2,0:2:0:0:
76,148,130489,1,12,0:3:0:0:
461,233,130789,6,0,L|241:236,1,200,6|0,0:0|0:0,0:0:0:0:
393,233,131239,1,2,0:0:0:0:
261,235,131389,1,2,0:2:0:0:
483,236,131689,1,12,0:3:0:0:
123,237,131989,6,0,L|6:237,1,100,6|0,0:3|0:0,0:0:0:0:
243,200,132289,2,0,L|126:200,1,100,4|0,0:0|0:0,0:0:0:0:
363,167,132589,2,0,L|246:167,1,100,2|0,0:0|0:0,0:0:0:0:
483,142,132889,2,0,L|366:142,1,100,2|0,0:0|0:0,0:0:0:0:
134,357,133189,5,2,0:3:0:0:
84,350,133264,1,0,0:0:0:0:
44,318,133339,1,0,0:0:0:0:
29,270,133414,1,0,0:0:0:0:
29,220,133489,1,8,0:0:0:0:
51,175,133564,1,0,0:0:0:0:
93,148,133639,1,0,0:0:0:0:
142,146,133714,1,0,0:0:0:0:
359,219,133789,5,2,0:0:0:0:
394,183,133864,1,0,0:0:0:0:
394,133,133939,1,0,0:0:0:0:
348,112,134014,1,0,0:0:0:0:
176,221,134089,1,8,0:0:0:0:
141,185,134164,1,0,0:0:0:0:
141,135,134239,1,0,0:0:0:0:
187,114,134314,1,0,0:0:0:0:
328,224,134389,6,0,L|392:164,1,50,2|0,0:0|0:0,0:0:0:0:
214,222,134539,2,0,L|150:162,1,50,0|0,0:0|0:0,0:0:0:0:
328,224,134689,2,0,L|392:164,1,50,8|0,0:0|0:0,0:0:0:0:
214,222,134839,2,0,L|150:162,1,50,0|0,0:0|0:0,0:0:0:0:
328,224,134989,2,0,L|392:164,1,50,2|0,0:0|0:0,0:0:0:0:
214,222,135139,2,0,L|150:162,1,50,0|0,0:0|0:0,0:0:0:0:
339,195,135289,1,8,0:0:0:0:
112,221,135439,1,0,0:0:0:0:
228,224,135589,6,0,P|245:291|217:334,1,100,2|0,0:0|0:0,0:0:0:0:
106,301,135889,1,8,0:0:0:0:
223,302,136039,1,0,0:0:0:0:
90,304,136189,1,2,0:0:0:0:
223,302,136339,1,0,0:0:0:0:
125,304,136489,1,8,0:0:0:0:
250,304,136639,1,0,0:0:0:0:
125,304,136789,5,2,0:0:0:0:
392,309,136939,1,0,0:0:0:0:
276,308,137089,1,8,0:0:0:0:
392,309,137239,2,0,P|442:213|372:129,1,200,0|0,0:0|0:0,0:0:0:0:
288,136,137689,1,8,0:0:0:0:
399,142,137839,1,0,0:0:0:0:
125,133,137989,6,0,L|14:137,1,100,6|0,0:0|0:0,0:0:0:0:
175,114,138289,2,0,L|58:117,1,100,8|0,0:0|0:0,0:0:0:0:
225,84,138589,2,0,L|114:88,1,100,2|0,0:0|0:0,0:0:0:0:
275,63,138889,2,0,L|158:66,1,100,8|0,0:0|0:0,0:0:0:0:
419,61,139189,6,0,P|485:133|409:178,1,200,6|8,0:0|0:0,0:0:0:0:
183,183,139639,2,0,L|400:183,1,200,0|0,0:0|0:0,0:0:0:0:
247,181,140089,1,8,0:0:0:0:
383,183,140239,1,0,0:0:0:0:
114,180,140389,6,0,L|40:181,1,50,6|0,0:1|0:0,0:0:0:0:
214,179,140539,2,0,L|290:178,1,50,0|0,0:0|0:0,0:0:0:0:
102,181,140689,1,8,0:0:0:0:
223,178,140839,1,0,0:0:0:0:
102,181,140989,1,2,0:0:0:0:
223,178,141139,1,0,0:0:0:0:
106,185,141289,1,8,0:0:0:0:
47,123,141439,1,0,0:0:0:0:
110,62,141589,5,6,0:0:0:0:
385,63,141739,1,0,0:0:0:0:
110,62,141889,1,0,0:0:0:0:
385,63,142189,1,0,0:0:0:0:
110,62,142489,1,0,0:0:0:0:
383,147,142789,6,0,P|314:134|294:60,1,150,2|0,0:3|0:0,0:0:0:0:
370,109,143089,2,0,P|320:145|266:129,1,100,8|0,0:0|0:0,0:0:0:0:
68,187,143389,2,0,P|137:174|157:100,1,150,2|0,0:3|0:0,0:0:0:0:
81,149,143689,2,0,P|131:185|185:169,1,100,8|0,0:0|0:0,0:0:0:0:
385,63,143989,6,0,P|414:120|366:199,1,150,2|0,0:3|0:0,0:0:0:0:
295,195,144289,2,0,L|410:197,1,100
156,72,144589,2,0,P|127:129|175:208,1,150,2|0,0:3|0:0,0:0:0:0:
246,204,144889,2,0,L|131:206,1,100
383,204,145189,6,0,P|431:168|362:124,1,150,2|0,0:3|0:0,0:0:0:0:
300,117,145489,1,8,0:0:0:0:
423,126,145639,1,0,0:0:0:0:
129,204,145789,2,0,P|81:168|150:124,1,150,2|0,0:3|0:0,0:0:0:0:
212,117,146089,1,8,0:0:0:0:
89,126,146239,1,0,0:0:0:0:
381,204,146389,6,0,P|330:157|388:127,1,150,2|0,0:3|0:0,0:0:0:0:
465,126,146689,1,0,0:0:0:0:
339,126,146839,1,0,0:0:0:0:
122,199,146989,2,0,P|173:152|115:122,1,150,2|0,0:3|0:0,0:0:0:0:
37,122,147289,1,0,0:0:0:0:
164,121,147439,1,0,0:0:0:0:
456,164,147589,6,0,L|254:162,2,200,4|2|0,1:0|0:0|0:0,0:0:0:0:
257,163,148489,1,2,0:0:0:0:
57,164,148789,6,0,L|314:163,2,239.999992675781,0|2|0,0:0|0:0|0:0,0:0:0:0:
296,163,149689,1,2,0:0:0:0:
387,161,149989,5,2,0:3:0:0:
134,160,150289,1,2,0:0:0:0:
258,146,150439,2,0,B|358:128|340:-92|2:93,1,400
340,170,151189,5,2,0:3:0:0:
91,169,151489,1,0,0:0:0:0:
214,165,151639,2,0,B|337:146|188:-114|9:212,1,400,0|0,0:0|0:0,0:0:0:0:
393,167,152389,5,4,0:0:0:0:
393,167,152689,1,8,0:0:0:0:
102,167,152989,1,2,0:0:0:0:
102,167,153289,1,8,0:0:0:0:
393,167,153589,5,0,0:0:0:0:
102,167,153889,1,8,0:0:0:0:
393,167,154189,1,2,0:0:0:0:
102,167,154489,1,8,0:0:0:0:
393,167,154789,5,6,0:0:0:0:
258,168,155089,1,8,0:0:0:0:
393,167,155239,1,2,0:2:0:0:
258,168,155389,1,2,0:0:0:0:
393,167,155689,1,8,0:0:0:0:
258,168,155839,1,2,0:0:0:0:
393,167,155989,5,2,0:0:0:0:
102,167,156289,1,8,0:0:0:0:
237,168,156439,1,2,0:2:0:0:
102,167,156589,1,2,0:0:0:0:
393,167,156889,1,8,0:0:0:0:
258,168,157039,1,0,0:0:0:0:
393,167,157189,5,6,0:0:0:0:
89,168,157489,1,8,0:0:0:0:
393,167,157789,1,2,0:0:0:0:
89,168,158089,1,8,0:0:0:0:
402,168,158389,5,6,0:0:0:0:
89,168,158689,1,8,0:0:0:0:
402,168,158989,1,2,0:0:0:0:
89,168,159289,1,8,0:0:0:0:
460,172,159589,6,0,L|350:172,1,100,6|2,0:0|0:0,0:0:0:0:
42,170,159889,2,0,L|152:170,1,100,10|2,0:0|0:0,0:0:0:0:
460,172,160189,2,0,L|350:172,1,100,14|2,0:0|0:0,0:0:0:0:
42,170,160489,2,0,L|152:170,1,100,10|2,0:0|0:0,0:0:0:0:
276,172,160789,6,0,L|346:129,1,50,4|0,0:0|0:0,0:0:0:0:
182,169,160939,2,0,L|112:126,1,50,0|0,0:0|0:0,0:0:0:0:
286,168,161089,2,0,L|356:125,1,50,4|0,0:0|0:0,0:0:0:0:
182,169,161239,2,0,L|112:126,1,50,0|0,0:0|0:0,0:0:0:0:
297,163,161389,2,0,L|367:120,1,50,4|0,0:0|0:0,0:0:0:0:
182,169,161539,2,0,L|112:126,1,50,0|0,0:0|0:0,0:0:0:0:
308,158,161689,2,0,L|378:115,1,50,4|0,0:0|0:0,0:0:0:0:
182,169,161839,2,0,L|112:126,1,50,0|0,0:0|0:0,0:0:0:0:
369,169,161989,1,2,0:3:0:0:
429,221,163189,5,2,0:3:0:0:
466,186,163264,1,0,0:0:0:0:
451,138,163339,1,0,0:0:0:0:
402,134,163414,1,0,0:0:0:0:
83,221,163489,1,2,0:3:0:0:
46,186,163564,1,0,0:0:0:0:
61,138,163639,1,0,0:0:0:0:
110,134,163714,1,0,0:0:0:0:
429,221,163789,1,2,0:3:0:0:
466,186,163864,1,0,0:0:0:0:
451,138,163939,1,0,0:0:0:0:
402,134,164014,1,0,0:0:0:0:
83,221,164089,1,8,0:3:0:0:
256,193,164389,5,0,0:0:0:0:
310,244,173689,6,0,L|374:193,1,50,4|2,0:3|0:3,0:0:0:0:
181,223,173839,2,2,L|117:172,1,50,0|0,0:0|0:0,0:0:0:0:
393,182,173989,6,0,P|451:182|469:131,1,100,2|0,0:0|0:0,0:0:0:0:
250,151,174289,2,0,L|134:150,2,100,8|0|2,0:0|0:0|0:0,0:0:0:0:
391,157,174739,1,0,0:0:0:0:
250,151,174889,2,0,L|150:150,1,100,8|0,0:0|0:0,0:0:0:0:
439,158,175189,6,0,L|303:157,1,100,6|0,0:0|0:0,0:0:0:0:
103,163,175489,2,0,L|12:104,2,100,8|0|2,0:0|0:0|0:0,0:0:0:0:
232,168,175939,1,0,0:0:0:0:
452,172,176089,2,0,P|479:228|451:257,1,100,8|0,0:0|0:0,0:0:0:0:
149,235,176389,5,6,0:0:0:0:
281,233,176539,1,0,0:0:0:0:
149,235,176689,2,0,L|261:235,1,100,8|0,0:0|0:0,0:0:0:0:
476,245,176989,2,0,L|367:245,1,100,2|0,0:0|0:0,0:0:0:0:
228,235,177289,2,0,L|119:234,1,100,8|0,0:0|0:0,0:0:0:0:
361,183,177589,6,0,L|477:143,1,100,6|0,0:3|0:0,0:0:0:0:
269,162,177889,2,0,L|385:122,1,100,6|0,0:3|0:0,0:0:0:0:
177,142,178189,2,0,L|293:102,1,100,6|0,0:3|0:0,0:0:0:0:
85,121,178489,2,0,L|201:81,1,100,6|0,0:3|0:0,0:0:0:0:
428,87,178789,6,0,P|461:143|404:188,1,150,6|0,0:0|0:0,0:0:0:0:
321,176,179089,1,8,0:0:0:0:
451,185,179239,1,0,0:0:0:0:
195,195,179389,2,0,L|82:197,1,100,2|0,0:0|0:0,0:0:0:0:
309,199,179689,2,0,L|422:201,1,100,8|0,0:0|0:0,0:0:0:0:
149,216,179989,5,6,0:0:0:0:
273,221,180139,1,0,0:0:0:0:
149,216,180289,1,8,0:0:0:0:
273,221,180439,1,0,0:0:0:0:
149,216,180589,2,0,L|57:141,1,100,2|0,0:0|0:0,0:0:0:0:
296,223,180889,2,0,L|388:148,1,100,8|0,0:0|0:0,0:0:0:0:
141,223,181189,5,6,0:0:0:0:
273,221,181339,1,0,0:0:0:0:
141,223,181489,2,0,L|253:223,1,100,8|0,0:0|0:0,0:0:0:0:
374,221,181789,2,0,L|232:220,1,100,2|0,0:0|0:0,0:0:0:0:
41,223,182089,2,0,L|153:223,1,100,8|0,0:0|0:0,0:0:0:0:
443,220,182389,6,0,L|408:220,1,25,2|0,0:3|0:0,0:0:0:0:
226,221,182539,1,4,0:0:0:0:
443,220,182689,1,6,0:0:0:0:
41,223,182989,1,6,0:0:0:0:
443,220,183289,1,6,0:0:0:0:
482,188,183364,1,0,0:0:0:0:
481,138,183439,1,0,0:0:0:0:
438,112,183514,1,0,0:0:0:0:
203,137,183589,6,0,L|86:137,1,100,2|0,0:3|0:0,0:0:0:0:
324,143,183889,2,0,L|415:84,2,100,8|0|2,0:0|0:0|0:0,0:0:0:0:
190,145,184339,1,0,0:0:0:0:
324,143,184489,2,0,L|427:143,1,100,8|0,0:0|0:0,0:0:0:0:
145,146,184789,6,0,L|34:148,1,100,6|0,0:0|0:0,0:0:0:0:
170,144,185089,2,0,L|281:146,2,100,8|0|2,0:0|0:0|0:0,0:0:0:0:
305,147,185539,1,0,0:0:0:0:
83,149,185689,2,0,P|53:191|84:213,1,100,8|0,0:0|0:0,0:0:0:0:
353,219,185989,5,6,0:0:0:0:
221,217,186139,1,0,0:0:0:0:
353,219,186289,2,0,L|459:217,1,100,8|0,0:0|0:0,0:0:0:0:
282,219,186589,2,0,L|176:217,1,100,2|0,0:0|0:0,0:0:0:0:
459,222,186889,2,0,L|354:222,1,100,8|0,0:0|0:0,0:0:0:0:
140,185,187189,6,0,L|24:145,1,100,6|0,0:3|0:0,0:0:0:0:
232,164,187489,2,0,L|116:124,1,100,6|0,0:3|0:0,0:0:0:0:
324,144,187789,2,0,L|208:104,1,100,6|0,0:3|0:0,0:0:0:0:
416,123,188089,2,0,L|300:83,1,100,6|0,0:3|0:0,0:0:0:0:
84,87,188389,6,0,P|51:143|108:188,1,150,6|0,0:0|0:0,0:0:0:0:
191,176,188689,1,8,0:0:0:0:
61,176,188839,1,0,0:0:0:0:
308,174,188989,2,0,L|417:173,1,100,2|0,0:0|0:0,0:0:0:0:
191,176,189289,2,0,L|91:176,1,100,8|0,0:0|0:0,0:0:0:0:
191,176,189589,5,6,0:0:0:0:
66,174,189739,1,0,0:0:0:0:
191,176,189889,1,8,0:0:0:0:
66,174,190039,1,0,0:0:0:0:
287,179,190189,2,0,L|404:179,1,100,2|0,0:0|0:0,0:0:0:0:
256,177,190489,2,0,L|140:179,1,100,8|0,0:0|0:0,0:0:0:0:
372,243,190789,5,6,0:0:0:0:
240,241,190939,1,0,0:0:0:0:
372,243,191089,2,0,L|260:243,1,100,8|0,0:0|0:0,0:0:0:0:
137,248,191389,2,0,L|249:248,1,100,2|0,0:0|0:0,0:0:0:0:
456,246,191689,2,0,L|344:246,1,100,8|0,0:0|0:0,0:0:0:0:
456,246,192139,5,6,0:0:0:0:
50,247,192289,1,4,0:0:0:0:
456,246,192589,1,2,0:3:0:0:
50,247,192889,1,2,0:3:0:0:
456,246,193189,6,0,L|338:246,1,100,2|0,0:0|0:0,0:0:0:0:
140,251,193489,2,0,L|250:251,1,100,8|0,0:0|0:0,0:0:0:0:
364,246,193789,2,0,L|461:175,2,100,2|0|8,0:0|0:0|0:0,0:0:0:0:
240,251,194239,1,0,0:0:0:0:
461,215,194389,6,0,L|324:212,1,100,6|0,0:0|0:0,0:0:0:0:
148,214,194689,2,0,L|255:215,1,100,8|0,0:0|0:0,0:0:0:0:
369,219,194989,2,0,L|223:216,1,100,2|0,0:0|0:0,0:0:0:0:
32,220,195289,2,0,L|168:219,1,100,8|0,0:0|0:0,0:0:0:0:
372,243,195589,5,6,0:0:0:0:
240,241,195739,1,0,0:0:0:0:
372,243,195889,2,0,L|503:246,1,100,8|0,0:0|0:0,0:0:0:0:
192,248,196189,2,0,L|68:248,1,100,2|0,0:0|0:0,0:0:0:0:
220,227,196489,2,0,L|120:227,1,100,8|0,0:0|0:0,0:0:0:0:
361,183,196789,6,0,L|477:143,1,100,14|0,0:3|0:0,0:0:0:0:
269,162,197089,2,0,L|385:122,1,100,14|0,0:3|0:0,0:0:0:0:
177,142,197389,2,0,L|293:102,1,100,14|0,0:3|0:0,0:0:0:0:
85,121,197689,2,0,L|201:81,1,100,14|0,0:3|0:0,0:0:0:0:
428,87,197989,6,0,P|461:143|404:188,1,150,6|0,0:0|0:0,0:0:0:0:
321,176,198289,1,8,0:0:0:0:
451,176,198439,1,0,0:0:0:0:
204,174,198589,2,0,L|95:173,2,100,2|0|8,0:0|0:0|0:0,0:0:0:0:
332,175,199039,1,0,0:0:0:0:
104,174,199189,6,0,L|216:174,1,100,6|0,0:0|0:0,0:0:0:0:
339,174,199489,1,8,0:0:0:0:
204,174,199639,1,0,0:0:0:0:
418,182,199789,2,0,L|304:181,1,100,2|0,0:0|0:0,0:0:0:0:
90,182,200089,2,0,P|71:251|143:264,1,150,8|0,0:0|0:0,0:0:0:0:
376,242,200389,5,6,0:0:0:0:
244,240,200539,1,0,0:0:0:0:
376,242,200689,2,0,L|507:245,1,100,10|0,0:0|0:0,0:0:0:0:
155,246,200989,2,0,L|24:249,1,100,6|0,0:0|0:0,0:0:0:0:
268,255,201289,2,0,L|399:258,1,100,10|0,0:0|0:0,0:0:0:0:
143,327,201589,5,2,0:3:0:0:
134,273,201664,1,0,0:0:0:0:
167,231,201739,1,0,0:0:0:0:
225,232,201814,1,0,0:0:0:0:
115,300,201889,1,8,0:0:0:0:
106,246,201964,1,0,0:0:0:0:
139,204,202039,1,0,0:0:0:0:
197,205,202114,1,0,0:0:0:0:
87,273,202189,1,8,0:0:0:0:
78,219,202264,1,0,0:0:0:0:
111,177,202339,1,0,0:0:0:0:
169,178,202414,1,0,0:0:0:0:
433,184,202489,1,8,0:3:0:0:
242,194,202789,6,0,L|106:194,1,100,6|0,0:0|0:0,0:0:0:0:
278,197,203089,1,8,0:0:0:0:
77,204,203389,1,2,0:0:0:0:
207,204,203539,1,2,0:2:0:0:
77,204,203689,1,8,0:0:0:0:
217,203,203839,1,0,0:0:0:0:
431,199,203989,6,0,P|449:141|377:128,1,150,2|0,0:0|0:0,0:0:0:0:
305,172,204289,1,8,0:0:0:0:
448,178,204439,1,0,0:0:0:0:
186,197,204739,2,0,P|120:137|220:100,1,200,2|0,0:2|0:0,0:0:0:0:
331,77,205189,6,0,L|438:77,1,100,2|0,0:0|0:0,0:0:0:0:
215,83,205489,2,0,L|97:85,1,100,8|0,0:0|0:0,0:0:0:0:
247,82,205789,2,0,L|198:191,2,100,2|0|8,0:0|0:0|0:0,0:0:0:0:
122,85,206239,1,0,0:0:0:0:
418,83,206389,6,0,L|297:81,1,100,2|0,0:0|0:0,0:0:0:0:
183,86,206689,1,8,0:0:0:0:
406,91,206839,2,0,P|477:143|387:163,1,200,0|2,0:0|0:2,0:0:0:0:
263,179,207289,1,8,0:0:0:0:
119,177,207439,1,0,0:0:0:0:
400,215,207589,5,6,0:0:0:0:
340,162,207739,1,0,0:0:0:0:
400,215,207889,2,0,L|287:215,1,100,8|0,0:0|0:0,0:0:0:0:
72,218,208189,1,2,0:0:0:0:
132,165,208339,1,0,0:0:0:0:
72,218,208489,1,8,0:0:0:0:
400,215,208639,1,0,0:0:0:0:
179,224,208789,5,6,0:0:0:0:
305,222,208939,1,0,0:0:0:0:
179,224,209089,1,8,0:0:0:0:
391,216,209239,2,0,P|323:158|423:152,1,200,0|0,0:0|0:2,0:0:0:0:
168,110,209689,1,8,0:0:0:0:
394,119,209839,1,0,0:0:0:0:
168,14,209989,6,0,B|84:66|31:149|65:255|65:255|158:273|213:63|273:168|273:168|310:255|218:337|131:343,1,800,6|2,0:0|0:3,0:0:0:0:
160,342,211226,1,0,0:0:0:0:
406,343,211339,1,6,0:0:0:0:
143,341,211489,1,6,0:0:0:0:
406,343,211789,1,6,0:0:0:0:
143,341,212089,1,6,0:0:0:0:
406,343,212239,1,4,0:0:0:0:
256,192,212314,12,0,214789,0:0:0:0:
