osu file format v14

[General]
AudioFilename: audio.mp3
AudioLeadIn: 0
PreviewTime: 62389
Countdown: 1
SampleSet: Normal
StackLeniency: 0.7
Mode: 2
LetterboxInBreaks: 0
WidescreenStoryboard: 1

[Editor]
Bookmarks: 11989,31189,40789,50389,59989,62389,81589,104389,107989,123589,133189,142789,152389,164389,172789,173989
DistanceSpacing: 1.2
BeatDivisor: 4
GridSize: 8
TimelineZoom: 5.199996

[Metadata]
Title:Clarity feat. Foxes (IOSYS uno DENPA Remix)
TitleUnicode:Clarity feat. Foxes (IOSYS uno DENPA Remix)
Artist:Zedd
ArtistUnicode:Zedd
Creator:Cera-
Version:My Clarity+
Source:
Tags:roughsketch Dika312 Zyzyx english electronic pop 岩杉 夏 Natsu Iwasugi ペス pesu 高井さん takaisan
BeatmapID:1662879
BeatmapSetID:662173

[Difficulty]
HPDrainRate:6
CircleSize:4
OverallDifficulty:9.6
ApproachRate:9.6
SliderMultiplier:1.8
SliderTickRate:2

[Events]
//Background and Video events
0,0,"bg.jpg",0,0
//Break Periods
//Storyboard Layer 0 (Background)
//Storyboard Layer 1 (Fail)
//Storyboard Layer 2 (Pass)
//Storyboard Layer 3 (Foreground)
//Storyboard Layer 4 (Overlay)
//Storyboard Sound Samples

[TimingPoints]
1189,300,4,1,1,70,1,0
15589,-100,4,2,1,90,0,0
16789,-100,4,1,1,70,0,0
30889,-100,4,2,2,40,0,0
31189,-100,4,2,1,60,0,0
40789,-100,4,1,1,70,0,0
62089,-100,4,2,2,60,0,0
62389,-100,4,3,2,70,0,1
62464,-100,4,1,1,70,0,1
80539,-100,4,1,2,70,0,1
81214,-100,4,1,1,70,0,1
81589,-100,4,1,1,70,0,0
88789,-80,4,1,1,70,0,0
89989,-100,4,1,1,70,0,0
104914,-100,4,1,1,5,0,0
105064,-100,4,1,1,70,0,0
105964,-100,4,1,1,5,0,0
106114,-100,4,1,1,70,0,0
107314,-100,4,1,1,5,0,0
107464,-100,4,1,1,70,0,0
123589,-100,4,1,1,70,0,0
131989,-66.6666666666667,4,3,1,70,0,0
133189,-100,4,3,2,70,0,1
133264,-100,4,1,2,70,0,1
141589,-66.6666666666667,4,1,2,70,0,1
142789,-100,4,3,0,70,0,0
152389,-100,4,1,2,70,0,0
155164,-100,4,1,1,70,0,0
155314,-100,4,1,2,70,0,0
155764,-100,4,1,1,70,0,0
155914,-100,4,1,2,70,0,0
156364,-100,4,1,1,70,0,0
156514,-100,4,1,2,70,0,0
161989,-100,4,1,1,70,0,0
164389,-100,4,1,1,70,0,0
173389,-100,4,3,1,30,0,0
173689,-100,4,1,2,70,0,0
173764,-100,4,3,1,30,0,0
173989,-100,4,3,2,70,0,1
174064,-100,4,1,1,70,0,1
183589,-100,4,3,2,70,0,1
183664,-100,4,1,1,70,0,1
201739,-100,4,1,2,70,0,1
202339,-100,4,1,1,70,0,1
202789,-100,4,1,1,70,0,0
211189,-66.6666666666667,4,1,1,70,0,0
212314,-66.6666666666667,4,2,2,70,0,0

[HitObjects]
336,328,1189,5,2,0:0:0:0:
378,316,1264,1,0,0:0:0:0:
410,285,1339,1,0,0:0:0:0:
420,241,1414,1,0,0:0:0:0:
407,199,1489,1,2,0:0:0:0:
232,192,1564,5,0,0:0:0:0:
189,180,1639,1,0,0:0:0:0:
157,149,1714,1,0,0:0:0:0:
147,105,1789,1,2,0:0:0:0:
160,64,1864,1,0,0:0:0:0:
320,64,1939,6,0,L|376:64,1,45
205,64,2089,2,0,L|157:64,1,45,8|0,0:3|0:0,0:0:0:0:
344,136,2239,2,0,L|400:136,1,45
168,224,2389,6,0,P|104:233|64:360,1,180,2|8,0:0|0:0,0:0:0:0:
152,336,2839,1,0,0:0:0:0:
187,307,2914,1,0,0:0:0:0:
222,279,2989,1,2,0:0:0:0:
112,200,3139,1,2,0:0:0:0:
248,176,3289,1,8,0:0:0:0:
104,112,3439,1,0,0:0:0:0:
240,64,3589,2,0,P|288:104|312:224,1,180,2|8,0:0|0:0,0:0:0:0:
176,232,4039,5,2,0:0:0:0:
160,280,4114,1,0,0:0:0:0:
176,320,4189,1,2,0:0:0:0:
312,328,4339,1,2,0:0:0:0:
176,320,4489,1,8,0:0:0:0:
160,280,4639,1,0,0:0:0:0:
400,336,4789,2,8,P|440:288|408:184,1,180,2|8,0:0|0:0,0:0:0:0:
312,176,5239,5,2,0:0:0:0:
256,176,5314,1,0,0:0:0:0:
208,176,5389,1,2,0:0:0:0:
336,96,5539,1,2,0:0:0:0:
232,96,5689,1,8,0:0:0:0:
336,96,5839,1,0,0:0:0:0:
112,64,5989,2,0,P|64:120|88:176,1,135,2|0,0:0|0:0,0:0:0:0:
128,168,6289,2,0,L|272:168,1,135,10|0,0:0|0:0,0:0:0:0:
120,328,6589,5,2,0:0:0:0:
80,304,6664,1,0,0:0:0:0:
40,272,6739,1,2,0:0:0:0:
16,224,6814,1,0,0:0:0:0:
16,168,6889,1,8,0:0:0:0:
24,120,6964,1,0,0:0:0:0:
40,64,7039,2,0,L|112:32,1,45
256,40,7189,6,0,L|352:40,1,90,6|0,0:0|0:0,0:0:0:0:
200,96,7489,2,0,L|312:96,1,90,8|0,0:0|0:0,0:0:0:0:
136,152,7789,2,0,L|232:152,2,90,2|2|8,0:0|0:0|0:0,0:0:0:0:
352,184,8239,2,0,L|400:280,1,90,2|6,0:0|0:0,0:0:0:0:
184,184,8539,6,0,L|112:264,1,90,2|8,0:0|0:0,0:0:0:0:
360,256,8839,2,2,L|256:256,1,90
424,312,9139,2,2,L|334:312,1,90,2|10,0:0|0:0,0:0:0:0:
88,328,9439,1,0,0:0:0:0:
312,344,9589,6,0,B|450:328|416:104|288:48|194:112|154:264|288:320|360:312|432:72,1,675,6|0,0:0|0:0,0:0:0:0:
448,32,10789,1,0,0:0:0:0:
360,32,10939,1,2,0:3:0:0:
152,24,11089,1,2,0:3:0:0:
336,24,11389,2,0,P|384:32|408:160,1,180,2|8,0:0|0:3,0:0:0:0:
280,160,11989,5,2,0:0:0:0:
232,248,12139,1,0,0:0:0:0:
296,336,12289,2,0,P|368:320|384:224,1,180,8|2,0:3|0:0,0:0:0:0:
280,176,12739,1,0,0:0:0:0:
168,216,12889,1,8,0:3:0:0:
280,176,13039,1,0,0:0:0:0:
160,104,13189,2,0,P|208:32|312:64,1,180,2|8,0:0|0:3,0:0:0:0:
192,40,13639,5,0,0:0:0:0:
96,112,13789,1,2,0:0:0:0:
232,112,13939,1,0,0:0:0:0:
136,184,14089,1,8,0:3:0:0:
272,224,14239,1,0,0:0:0:0:
136,240,14389,2,0,P|80:288|128:368,1,180,2|8,0:0|0:3,0:0:0:0:
216,344,14839,5,0,0:0:0:0:
248,312,14914,1,0,0:0:0:0:
288,280,14989,1,2,0:0:0:0:
128,216,15139,1,0,0:0:0:0:
240,216,15289,1,8,0:3:0:0:
128,216,15439,1,0,0:0:0:0:
368,88,15589,6,0,L|400:168,2,45,2|0|0,0:3|0:0|0:0,0:0:0:0:
144,88,15889,1,8,0:3:0:0:
304,88,16189,6,0,L|336:168,2,45,2|0|0,0:3|0:0|0:0,0:0:0:0:
96,88,16489,1,8,0:3:0:0:
32,160,16639,1,2,1:0:0:0:
240,224,16789,2,0,P|232:272|88:296,1,180,6|8,0:0|0:3,0:0:0:0:
216,304,17239,5,0,0:0:0:0:
312,304,17389,1,2,0:0:0:0:
216,248,17539,1,0,0:0:0:0:
320,200,17689,1,8,0:3:0:0:
256,200,17764,1,0,0:0:0:0:
192,200,17839,1,0,0:0:0:0:
288,120,17989,2,0,L|384:120,1,90,2|0,0:0|0:0,0:0:0:0:
168,16,18289,5,8,0:3:0:0:
56,64,18439,1,0,0:0:0:0:
200,80,18589,1,2,0:0:0:0:
88,128,18739,1,0,0:0:0:0:
312,184,18889,1,8,0:3:0:0:
344,248,18964,1,0,0:0:0:0:
368,320,19039,1,0,0:0:0:0:
216,104,19189,5,6,0:0:0:0:
312,184,19339,1,0,0:0:0:0:
160,168,19489,1,6,0:1:0:0:
256,256,19639,1,0,0:0:0:0:
112,232,19789,1,6,0:0:0:0:
320,336,19939,1,0,0:0:0:0:
376,264,20089,1,6,0:0:0:0:
152,192,20239,1,4,0:0:0:0:
48,104,20389,5,2,0:3:0:0:
88,64,20464,1,0,0:0:0:0:
128,24,20539,1,0,0:0:0:0:
344,24,20689,1,0,0:3:0:0:
216,80,20989,5,2,0:3:0:0:
160,112,21064,1,0,0:0:0:0:
240,144,21139,1,0,0:0:0:0:
304,176,21214,1,0,0:0:0:0:
128,200,21289,1,0,0:3:0:0:
72,264,21439,1,2,0:0:0:0:
320,264,21589,1,2,0:1:0:0:
216,264,21739,1,0,0:0:0:0:
320,264,21889,5,8,0:3:0:0:
72,264,22039,1,0,0:0:0:0:
168,88,22189,2,0,P|256:120|272:224,1,180,2|8,0:0|0:3,0:0:0:0:
184,200,22639,1,0,0:0:0:0:
88,224,22789,1,2,0:0:0:0:
296,264,22939,1,0,0:0:0:0:
200,264,23089,1,8,0:3:0:0:
296,264,23239,1,0,0:0:0:0:
88,352,23389,6,0,P|40:272|48:160,1,180,2|8,0:0|0:3,0:0:0:0:
128,144,23839,1,0,0:0:0:0:
224,104,23989,2,0,P|288:136|312:264,1,180,2|8,0:0|0:3,0:0:0:0:
192,216,24439,1,0,0:0:0:0:
328,248,24589,1,2,0:0:0:0:
344,289,24664,1,0,0:0:0:0:
337,333,24739,1,0,0:0:0:0:
192,336,24889,1,8,0:3:0:0:
337,333,25039,1,0,0:0:0:0:
112,256,25189,5,2,0:3:0:0:
152,235,25264,1,0,0:0:0:0:
192,215,25339,1,0,0:0:0:0:
424,192,25489,2,0,B|458:157|436:73|347:59,1,180,8|2,0:3|0:3,0:0:0:0:
288,64,25864,1,0,0:0:0:0:
224,64,25939,1,0,0:0:0:0:
336,136,26089,2,0,L|224:136,1,90,8|2,0:3|0:2,0:0:0:0:
456,168,26389,2,0,P|496:224|392:288,1,180,6|8,0:0|0:3,0:0:0:0:
344,296,26839,5,0,0:0:0:0:
256,296,26989,1,2,0:0:0:0:
344,296,27139,1,0,0:0:0:0:
433,298,27289,1,8,0:3:0:0:
232,200,27364,1,0,0:0:0:0:
176,136,27439,1,0,0:0:0:0:
120,72,27514,1,0,0:0:0:0:
320,56,27589,2,0,P|392:88|392:192,1,180,6|8,0:0|0:3,0:0:0:0:
264,200,28039,6,0,L|360:200,1,90,0|2,0:0|0:0,0:0:0:0:
208,264,28339,2,0,L|312:264,2,90,0|8|0,0:0|0:3|0:0,0:0:0:0:
432,320,28789,6,8,L|440:296,1,22.5,2|0,0:3|0:0,0:0:0:0:
248,208,29089,2,0,L|240:176,1,22.5,2|0,0:3|0:0,0:0:0:0:
448,208,29389,6,8,L|456:184,1,22.5,2|0,0:3|0:0,0:0:0:0:
232,136,29689,2,0,L|224:96,1,22.5,2|0,0:3|0:0,0:0:0:0:
440,104,29839,1,2,0:3:0:0:
456,120,29876,2,0,P|488:176|464:280,1,157.5
256,312,30214,1,0,0:0:0:0:
192,264,30289,1,0,0:0:0:0:
152,192,30364,1,0,0:0:0:0:
144,104,30439,1,0,0:0:0:0:
144,24,30589,1,0,0:0:0:0:
304,56,31189,5,4,0:0:0:0:
368,96,31264,1,0,0:0:0:0:
424,144,31339,1,0,0:0:0:0:
456,208,31414,1,0,0:0:0:0:
296,192,31489,5,4,0:0:0:0:
256,232,31564,1,0,0:0:0:0:
432,240,31639,1,0,0:0:0:0:
472,280,31714,1,0,0:0:0:0:
272,280,31789,5,4,0:0:0:0:
232,312,31864,1,0,0:0:0:0:
440,320,31939,1,0,0:0:0:0:
472,352,32014,1,0,0:0:0:0:
232,352,32089,5,4,0:0:0:0:
176,304,32164,1,0,0:0:0:0:
144,232,32239,1,0,0:0:0:0:
144,152,32314,1,0,0:0:0:0:
312,32,32389,6,0,L|353:74,1,45,4|0,0:0|0:0,0:0:0:0:
169,34,32539,2,0,L|137:66,1,45
336,104,32689,6,0,L|384:152,1,45,4|0,0:0|0:0,0:0:0:0:
136,120,32839,2,0,P|88:120|88:248,1,180,0|2,0:0|0:3,0:0:0:0:
272,344,33289,2,0,P|336:352|360:256,1,180,4|4,0:0|0:0,0:0:0:0:
192,240,33664,5,0,0:0:0:0:
152,216,33739,1,0,0:0:0:0:
120,192,33814,1,0,0:0:0:0:
336,192,33889,1,4,0:0:0:0:
376,192,33964,1,0,0:0:0:0:
216,144,34039,6,0,L|160:144,1,45
336,112,34189,1,4,0:0:0:0:
384,112,34264,1,0,0:0:0:0:
424,112,34339,1,0,0:0:0:0:
224,48,34414,5,0,0:0:0:0:
179,48,34489,1,4,0:0:0:0:
134,48,34564,1,0,0:0:0:0:
224,120,34639,2,0,L|272:120,1,45
96,120,34789,6,0,P|32:152|40:240,1,135,4|0,0:0|0:0,0:0:0:0:
176,352,35089,2,0,P|240:296|192:208,1,180,4|2,0:0|0:3,0:0:0:0:
72,184,35539,1,4,0:0:0:0:
208,168,35689,1,4,0:0:0:0:
72,120,35839,1,0,0:0:0:0:
336,24,35989,5,4,0:0:0:0:
368,56,36064,1,0,0:0:0:0:
400,88,36139,1,2,0:3:0:0:
248,56,36289,5,4,0:0:0:0:
280,88,36364,1,0,0:0:0:0:
312,120,36439,1,2,0:3:0:0:
152,88,36589,5,4,0:0:0:0:
184,120,36664,1,0,0:0:0:0:
216,152,36739,1,2,0:3:0:0:
344,192,36889,5,4,0:0:0:0:
312,224,36964,1,0,0:0:0:0:
280,256,37039,1,2,0:3:0:0:
432,232,37189,5,4,0:0:0:0:
400,264,37264,1,0,0:0:0:0:
368,296,37339,1,2,0:3:0:0:
472,352,37489,1,4,0:0:0:0:
256,352,37639,2,0,P|192:312|184:200,1,180,2|2,0:3|0:3,0:0:0:0:
416,200,38089,1,4,0:0:0:0:
256,32,38389,6,0,L|360:80,1,90,4|0,0:0|0:0,0:0:0:0:
376,88,38614,1,0,0:0:0:0:
416,112,38689,2,0,P|432:184|368:240,1,135,4|0,0:0|0:0,0:0:0:0:
248,352,38989,6,0,P|200:304|216:232,1,135,4|0,0:0|0:0,0:0:0:0:
256,224,39289,2,0,L|368:192,1,90,4|0,0:0|0:0,0:0:0:0:
176,104,39514,1,0,0:0:0:0:
120,104,39589,2,0,L|16:104,1,90,2|2,0:3|0:1,0:0:0:0:
256,168,39889,1,2,0:2:0:0:
136,192,40039,1,0,0:0:0:0:
256,208,40189,1,2,0:2:0:0:
48,296,40339,6,0,L|33:253,5,45,0|0|8|0|0|0,0:0|0:0|0:3|0:0|0:0|0:0,0:0:0:0:
256,344,40789,6,0,P|312:328|272:224,1,180,2|0,0:0|0:0,0:0:0:0:
184,232,41239,1,2,0:1:0:0:
80,232,41389,1,2,0:2:0:0:
292,228,41539,1,0,0:0:0:0:
80,232,41689,2,0,P|56:144|128:88,1,180,12|2,0:3|0:0,0:0:0:0:
200,88,42139,5,0,0:0:0:0:
296,88,42289,1,0,0:0:0:0:
80,232,42439,2,0,L|170:232,2,90,2|2|0,0:1|0:2|0:0,0:0:0:0:
312,368,42889,2,0,P|384:336|384:240,1,180,12|2,0:3|0:1,0:0:0:0:
224,224,43339,5,0,0:0:0:0:
344,224,43489,1,0,0:0:0:0:
224,224,43639,1,2,0:1:0:0:
344,224,43789,1,2,0:2:0:0:
456,224,43939,1,0,0:0:0:0:
192,64,44089,2,0,P|112:112|112:224,1,180,12|2,0:3|0:0,0:0:0:0:
256,232,44539,5,0,0:0:0:0:
128,232,44689,1,0,0:0:0:0:
288,288,44839,5,2,0:1:0:0:
168,288,44989,1,2,0:2:0:0:
328,344,45139,1,0,0:0:0:0:
88,360,45289,2,0,P|48:264|80:184,1,180,12|6,0:3|0:1,0:0:0:0:
240,64,45664,5,0,0:0:0:0:
296,80,45739,1,0,0:0:0:0:
320,136,45814,1,0,0:0:0:0:
296,192,45889,1,0,0:0:0:0:
248,216,45964,1,0,0:0:0:0:
192,200,46039,1,2,0:1:0:0:
160,144,46114,1,0,0:0:0:0:
304,312,46189,6,0,L|448:272,1,135,2|0,0:0|0:0,0:0:0:0:
272,168,46489,2,0,L|128:312,1,180,12|2,0:3|0:1,0:0:0:0:
336,64,46864,5,0,0:0:0:0:
288,88,46939,1,0,0:0:0:0:
256,112,47014,1,0,0:0:0:0:
240,152,47089,1,0,0:0:0:0:
256,192,47164,1,0,0:0:0:0:
288,216,47239,1,2,0:1:0:0:
328,232,47314,1,0,0:0:0:0:
176,320,47389,6,0,L|72:208,1,135,2|0,0:2|0:0,0:0:0:0:
296,200,47689,2,0,L|464:112,1,180,12|2,0:3|0:1,0:0:0:0:
296,72,48064,5,0,0:0:0:0:
240,88,48139,1,0,0:0:0:0:
216,144,48214,1,0,0:0:0:0:
240,200,48289,1,0,0:0:0:0:
288,224,48364,1,0,0:0:0:0:
344,208,48439,1,2,0:1:0:0:
376,152,48514,1,0,0:0:0:0:
224,320,48589,6,0,L|80:280,1,135,2|0,0:2|0:0,0:0:0:0:
264,232,48889,2,0,L|408:288,1,135,12|0,0:3|0:0,0:0:0:0:
120,160,49189,2,0,L|96:128,1,22.5,2|0,0:0|0:0,0:0:0:0:
272,152,49489,2,0,L|288:120,1,22.5,2|0,0:1|0:0,0:0:0:0:
104,64,49789,6,0,L|120:88,1,22.5,2|0,0:0|0:0,0:0:0:0:
296,80,49939,2,0,L|320:112,1,22.5,2|0,0:1|0:0,0:0:0:0:
480,120,50089,2,0,L|504:152,1,22.5,2|0,0:0|0:0,0:0:0:0:
304,232,50239,2,0,L|272:256,1,22.5,2|0,0:1|0:0,0:0:0:0:
104,320,50389,5,2,0:1:0:0:
40,256,50539,1,2,0:0:0:0:
104,256,50614,1,0,0:0:0:0:
168,256,50689,1,8,0:3:0:0:
56,168,50839,1,0,0:0:0:0:
152,168,50989,1,2,0:1:0:0:
56,128,51139,1,2,0:2:0:0:
424,128,51289,1,12,0:3:0:0:
240,128,51589,5,2,0:1:0:0:
384,128,51739,1,2,0:2:0:0:
240,128,51889,1,8,0:3:0:0:
384,128,52039,1,2,0:1:0:0:
200,80,52339,1,2,0:0:0:0:
464,80,52489,1,12,0:3:0:0:
280,88,52789,5,2,0:1:0:0:
258,127,52864,1,0,0:0:0:0:
253,171,52939,1,0,0:0:0:0:
267,214,53014,1,0,0:0:0:0:
296,248,53089,1,8,0:3:0:0:
448,248,53239,5,0,0:0:0:0:
296,280,53389,1,2,0:1:0:0:
448,280,53539,1,2,0:2:0:0:
296,320,53689,2,0,P|232:312|176:208,1,180,12|2,0:3|0:1,0:0:0:0:
296,200,54139,5,2,0:2:0:0:
416,200,54289,1,8,0:3:0:0:
168,88,54439,2,0,L|336:24,1,180,2|2,0:2|0:1,0:0:0:0:
96,88,54889,2,0,P|32:128|88:216,1,180,12|6,0:3|0:1,0:0:0:0:
240,296,55264,5,0,0:0:0:0:
312,272,55339,1,0,0:0:0:0:
360,216,55414,1,0,0:0:0:0:
352,144,55489,1,8,0:3:0:0:
208,144,55639,1,0,0:0:0:0:
352,144,55789,1,2,0:1:0:0:
208,80,55939,1,2,0:2:0:0:
424,80,56089,2,0,P|488:120|464:224,1,180,12|6,0:3|0:1,0:0:0:0:
224,264,56539,5,2,0:2:0:0:
352,264,56689,1,8,0:3:0:0:
88,264,56839,1,2,0:1:0:0:
272,192,57139,1,2,0:0:0:0:
48,192,57289,1,12,0:3:0:0:
216,32,57589,5,6,0:1:0:0:
264,72,57664,1,0,0:0:0:0:
304,136,57739,1,0,0:0:0:0:
312,200,57814,1,0,0:0:0:0:
272,256,57889,1,8,0:3:0:0:
224,296,57964,1,0,0:0:0:0:
24,304,58039,5,0,0:0:0:0:
256,296,58189,1,2,0:1:0:0:
128,296,58339,1,0,0:2:0:0:
416,304,58489,2,0,P|464:248|440:144,1,180,12|6,0:3|0:1,0:0:0:0:
216,128,58864,5,0,0:0:0:0:
176,128,58939,1,2,0:2:0:0:
216,128,59014,1,0,0:0:0:0:
400,80,59089,1,8,0:3:0:0:
160,64,59239,2,0,P|96:112|160:168,1,180,2|2,0:0|0:2,0:0:0:0:
384,304,59689,1,8,0:3:0:0:
256,192,59989,5,2,0:3:0:0:
256,192,60064,12,0,61114,0:3:0:0:
312,48,61189,5,2,0:3:0:0:
200,48,61339,5,2,0:0:0:0:
160,72,61414,1,0,0:0:0:0:
144,112,61489,1,2,0:0:0:0:
400,176,61639,1,2,0:0:0:0:
152,200,61789,1,2,0:0:0:0:
400,280,61939,1,0,0:0:0:0:
152,272,62089,2,0,P|96:240|80:120,1,180,12|2,0:3|0:3,0:0:0:0:
368,48,62539,5,0,0:0:0:0:
232,56,62689,1,8,0:0:0:0:
272,80,62764,1,0,0:0:0:0:
312,104,62839,1,0,0:0:0:0:
176,96,62989,2,0,L|272:160,1,90,2|0,0:0|0:0,0:0:0:0:
464,176,63289,6,0,L|360:176,1,90,8|0,0:0|0:0,0:0:0:0:
248,224,63589,1,2,0:0:0:0:
216,256,63664,1,0,0:0:0:0:
237,305,63739,1,0,0:0:0:0:
472,328,63889,2,0,L|360:328,2,90,8|0|2,0:0|0:0|0:0,0:0:0:0:
240,272,64339,6,0,L|166:344,1,90,0|8,0:0|0:0,0:0:0:0:
464,264,64639,1,0,0:0:0:0:
336,232,64789,1,2,0:0:0:0:
384,232,64864,1,0,0:0:0:0:
432,232,64939,1,0,0:0:0:0:
200,192,65089,6,0,L|139:280,1,90,8|0,0:0|0:0,0:0:0:0:
368,192,65389,2,0,L|264:192,1,90,2|0,0:0|0:0,0:0:0:0:
424,256,65689,2,0,L|320:320,1,90,8|0,0:0|0:0,0:0:0:0:
80,288,65989,5,14,0:3:0:0:
376,288,66139,1,0,0:0:0:0:
120,232,66289,1,14,0:3:0:0:
344,224,66439,1,0,0:0:0:0:
80,168,66589,1,14,0:3:0:0:
376,176,66739,1,0,0:0:0:0:
120,112,66889,1,14,0:3:0:0:
336,120,67039,1,0,0:0:0:0:
80,32,67189,2,0,P|32:104|112:192,1,180,6|8,0:0|0:0,0:0:0:0:
304,184,67639,5,0,0:0:0:0:
208,184,67789,1,2,0:0:0:0:
304,104,67939,1,0,0:0:0:0:
400,104,68089,1,8,0:0:0:0:
120,32,68239,2,0,L|224:32,2,90,0|2|0,0:0|0:0|0:0,0:0:0:0:
336,0,68689,5,8,0:0:0:0:
413,45,68839,1,0,0:0:0:0:
288,24,68989,1,2,0:0:0:0:
416,32,69139,1,0,0:0:0:0:
288,88,69289,1,8,0:0:0:0:
416,88,69439,1,0,0:0:0:0:
127,96,69589,5,6,0:0:0:0:
166,127,69664,1,0,0:0:0:0:
199,152,69739,1,2,0:0:0:0:
408,192,69889,2,0,L|312:192,2,90,8|0|2,0:0|0:0|0:0,0:0:0:0:
184,216,70339,1,2,0:0:0:0:
280,216,70489,1,8,0:0:0:0:
64,216,70639,2,0,P|24:304|104:368,1,180,2|2,0:0|0:0,0:0:0:0:
296,360,71089,6,0,L|392:360,1,90,12|2,0:0|0:2,0:0:0:0:
144,256,71389,5,2,0:3:0:0:
376,256,71539,1,0,0:0:0:0:
120,192,71689,1,2,0:3:0:0:
400,192,71839,1,0,0:0:0:0:
144,120,71989,2,0,P|88:72|160:8,1,180,2|8,0:0|0:0,0:0:0:0:
248,8,72439,1,0,0:0:0:0:
128,64,72589,6,0,L|232:64,1,90,2|0,0:0|0:0,0:0:0:0:
440,72,72889,1,8,0:0:0:0:
312,120,73039,1,0,0:0:0:0:
432,152,73189,1,6,0:0:0:0:
396,180,73264,1,0,0:0:0:0:
361,208,73339,1,0,0:0:0:0:
104,192,73489,2,0,L|216:232,1,90,8|2,0:0|0:0,0:0:0:0:
320,248,73789,5,2,0:0:0:0:
192,248,73939,1,0,0:0:0:0:
320,304,74089,1,8,0:0:0:0:
192,304,74239,1,0,0:0:0:0:
320,368,74389,1,6,0:0:0:0:
256,368,74464,1,0,0:0:0:0:
192,368,74539,5,0,0:0:0:0:
416,312,74689,1,8,0:0:0:0:
304,208,74839,1,2,0:0:0:0:
416,208,74989,1,2,0:2:0:0:
152,112,75139,2,0,L|256:112,2,90,2|8|0,0:0|0:0|0:0,0:0:0:0:
392,72,75589,5,14,0:3:0:0:
184,72,75739,1,0,0:0:0:0:
416,120,75889,1,14,0:3:0:0:
160,112,76039,1,0,0:0:0:0:
392,160,76189,1,14,0:3:0:0:
184,152,76339,1,0,0:0:0:0:
416,200,76489,1,14,0:3:0:0:
160,192,76639,1,2,0:0:0:0:
392,256,76789,2,0,P|448:176|384:136,1,180,6|8,0:0|0:0,0:0:0:0:
296,136,77239,5,0,0:0:0:0:
184,136,77389,1,2,0:0:0:0:
296,136,77539,1,0,0:0:0:0:
399,136,77689,1,8,0:0:0:0:
256,200,77839,1,0,0:0:0:0:
304,200,77914,1,0,0:0:0:0:
352,200,77989,1,6,0:0:0:0:
240,272,78139,5,2,0:0:0:0:
376,272,78289,2,0,L|272:272,1,90,8|0,0:0|0:0,0:0:0:0:
424,352,78589,1,2,0:0:0:0:
328,352,78739,1,2,0:0:0:0:
232,352,78889,1,8,0:0:0:0:
352,352,79039,1,0,0:0:0:0:
128,160,79189,6,0,L|24:160,1,90,6|0,0:0|0:0,0:0:0:0:
256,96,79489,2,0,L|144:96,1,90,8|0,0:0|0:0,0:0:0:0:
400,40,79789,2,0,L|288:40,1,90,2|2,0:0|0:0,0:0:0:0:
440,96,80089,1,8,0:0:0:0:
120,96,80239,1,0,0:0:0:0:
328,96,80389,6,0,L|376:96,1,45,2|0,0:3|0:0,0:0:0:0:
168,152,80539,2,0,L|120:152,1,45
320,152,80689,2,0,L|376:152,1,45,8|0,0:0|0:0,0:0:0:0:
365,192,80839,2,0,L|320:192,1,45
144,240,80989,6,0,L|99:240,1,45,8|0,0:0|0:0,0:0:0:0:
288,272,81139,2,0,L|333:272,1,45
144,240,81289,2,0,P|72:296|120:352,1,180,8|6,0:3|0:0,0:0:0:0:
344,352,81739,5,0,0:0:0:0:
432,320,81889,1,8,0:0:0:0:
344,320,82039,1,0,0:0:0:0:
256,320,82189,1,2,0:0:0:0:
384,248,82339,1,2,0:0:0:0:
128,192,82489,1,8,0:0:0:0:
240,136,82639,1,0,0:0:0:0:
184,136,82714,1,0,0:0:0:0:
128,136,82789,1,2,0:0:0:0:
336,208,82939,6,0,L|400:288,1,90,0|8,0:0|0:0,0:0:0:0:
184,216,83239,2,0,L|112:296,1,90,0|2,0:0|0:0,0:0:0:0:
400,336,83539,2,0,L|310:336,2,90,2|8|0,0:0|0:0|0:0,0:0:0:0:
248,224,83914,1,0,0:0:0:0:
112,224,83989,1,2,0:0:0:0:
216,224,84139,6,0,L|248:312,1,90,0|8,0:0|0:0,0:0:0:0:
112,224,84439,2,0,L|80:312,1,90,0|2,0:0|0:0,0:0:0:0:
368,176,84739,2,0,L|272:176,2,90,2|8|0,0:0|0:0|0:0,0:0:0:0:
112,104,85189,2,0,P|71:128|53:227,1,135,2|0,0:0|0:0,0:0:0:0:
256,296,85489,2,0,L|408:240,1,135,8|0,0:0|0:0,0:0:0:0:
168,72,85789,6,0,L|120:72,1,45,2|0,0:0|0:0,0:0:0:0:
304,72,85939,2,0,L|376:72,1,45,2|0,0:0|0:0,0:0:0:0:
176,144,86089,2,0,L|128:144,1,45,8|0,0:0|0:0,0:0:0:0:
296,152,86239,2,0,L|360:152,1,45
176,256,86389,5,6,0:0:0:0:
88,256,86539,1,0,0:0:0:0:
88,320,86689,2,0,L|200:320,1,90,8|0,0:0|0:0,0:0:0:0:
304,264,86989,1,2,0:0:0:0:
208,200,87139,2,0,L|320:200,1,90,2|8,0:0|0:0,0:0:0:0:
208,168,87439,1,0,0:0:0:0:
328,344,87589,6,0,L|448:288,1,90,6|0,0:0|0:0,0:0:0:0:
160,240,87889,2,0,L|256:240,2,90,8|0|2,0:0|0:0|0:0,0:0:0:0:
432,240,88339,2,0,L|336:240,2,90,2|8|0,0:0|0:0|0:0,0:0:0:0:
136,88,88789,5,6,0:0:0:0:
83,105,88864,1,0,0:0:0:0:
53,151,88939,1,0,0:0:0:0:
77,200,89014,1,0,0:0:0:0:
130,213,89089,1,8,0:0:0:0:
179,187,89164,1,0,0:0:0:0:
215,144,89239,1,0,0:0:0:0:
256,106,89314,1,0,0:0:0:0:
310,101,89389,5,2,0:0:0:0:
355,134,89464,1,0,0:0:0:0:
376,185,89539,1,2,0:0:0:0:
373,241,89614,1,0,0:0:0:0:
345,289,89689,1,8,0:0:0:0:
297,318,89764,1,0,0:0:0:0:
242,319,89839,1,0,0:0:0:0:
189,299,89914,1,0,0:0:0:0:
392,272,89989,5,2,0:3:0:0:
464,248,90064,1,0,0:0:0:0:
216,272,90139,1,2,0:3:0:0:
128,272,90289,1,2,0:3:0:0:
344,224,90439,2,0,L|424:144,1,90,0|2,0:0|0:3,0:0:0:0:
152,176,90739,2,0,L|272:176,2,90,0|8|0,0:0|0:3|0:0,0:0:0:0:
376,56,91189,6,0,P|440:88|384:192,1,180,2|8,0:0|0:3,0:0:0:0:
288,192,91639,1,0,0:0:0:0:
168,176,91789,2,0,P|48:88|192:56,1,360,8|2,0:3|0:0,0:0:0:0:
312,112,92539,6,0,L|392:160,1,90,0|8,0:0|0:3,0:0:0:0:
240,168,92839,2,0,L|336:224,1,90,0|8,0:0|0:3,0:0:0:0:
100,230,93139,1,0,0:0:0:0:
188,278,93289,1,8,0:3:0:0:
100,230,93439,1,0,0:0:0:0:
376,296,93589,5,2,0:0:0:0:
408,312,93664,1,0,0:0:0:0:
416,344,93739,1,0,0:0:0:0:
168,120,93889,2,0,L|72:160,1,90,8|0,0:3|0:0,0:0:0:0:
312,160,94189,2,0,L|216:200,1,90,8|0,0:3|0:0,0:0:0:0:
456,168,94489,1,2,0:3:0:0:
224,48,94789,6,0,P|336:24|408:48,1,180,6|8,0:0|0:3,0:0:0:0:
224,48,95239,2,0,P|153:60|105:157,1,180,0|0,0:0|0:2,0:0:0:0:
248,176,95689,2,0,L|152:192,1,90,8|0,0:3|0:0,0:0:0:0:
296,248,95989,6,0,P|176:248|160:296,1,180,8|8,0:3|0:3,0:0:0:0:
368,352,96439,2,0,P|432:328|416:224,1,180,0|0,0:0|0:2,0:0:0:0:
272,168,96889,2,0,L|152:112,1,90,8|0,0:3|0:0,0:0:0:0:
416,96,97189,6,0,P|488:176|464:248,1,180,8|8,0:3|0:3,0:0:0:0:
256,224,97639,2,0,L|400:336,1,180,0|0,0:0|0:2,0:0:0:0:
256,336,98089,2,0,L|352:336,1,90,8|0,0:3|0:0,0:0:0:0:
120,336,98389,6,0,P|64:256|96:144,1,180,8|8,0:3|0:3,0:0:0:0:
168,176,98839,1,0,0:0:0:0:
272,176,98989,1,0,0:0:0:0:
152,120,99139,1,0,0:0:0:0:
48,120,99289,1,10,0:3:0:0:
392,120,99439,1,0,0:0:0:0:
280,120,99589,6,0,P|256:200|344:272,1,180,6|8,0:1|0:3,0:0:0:0:
160,320,100039,2,0,L|344:320,1,180
216,240,100489,2,0,L|136:184,1,90,8|0,0:3|0:0,0:0:0:0:
440,104,100789,6,0,P|472:184|408:256,1,180,8|8,0:3|0:3,0:0:0:0:
280,248,101239,2,0,L|152:104,1,180
296,80,101689,2,0,L|184:80,1,90,8|0,0:3|0:0,0:0:0:0:
432,96,101989,6,0,P|448:200|392:248,1,180,8|8,0:3|0:3,0:0:0:0:
168,248,102439,2,0,L|352:248,1,180
256,320,102889,2,0,L|352:320,1,90,8|0,0:3|0:0,0:0:0:0:
112,320,103189,6,0,P|56:256|72:144,1,180,2|6,0:3|0:0,0:0:0:0:
168,168,103639,2,0,L|258:168,2,90,0|6|0,0:0|0:0|0:0,0:0:0:0:
448,168,104089,2,0,L|480:216,4,45,8|0|0|0|6,0:3|0:0|0:0|0:0|0:0,0:0:0:0:
280,96,104689,5,0,0:0:0:0:
384,96,104839,2,0,P|448:120|384:176,1,180
176,160,105289,1,0,0:0:0:0:
336,168,105589,1,0,0:0:0:0:
168,312,105889,2,0,P|112:272|184:216,1,180
400,192,106489,1,0,0:0:0:0:
184,192,106789,5,0,0:0:0:0:
400,192,107089,1,0,0:0:0:0:
256,192,107239,2,0,P|208:160|280:88,1,180
416,96,107689,1,0,0:0:0:0:
208,248,107989,5,2,0:3:0:0:
144,256,108064,1,0,0:0:0:0:
96,216,108139,1,0,0:0:0:0:
96,144,108214,1,0,0:0:0:0:
144,112,108289,1,2,0:2:0:0:
208,112,108364,1,0,0:0:0:0:
256,160,108439,1,0,0:0:0:0:
248,216,108514,5,0,0:0:0:0:
184,240,108589,1,2,0:3:0:0:
128,200,108664,1,0,0:0:0:0:
160,136,108739,1,0,0:0:0:0:
224,152,108814,1,0,0:0:0:0:
280,208,108889,2,0,L|312:264,1,45,2|0,0:2|0:0,0:0:0:0:
240,264,109039,2,0,L|168:280,1,45
400,288,109189,5,6,0:0:0:0:
488,288,109339,1,0,0:0:0:0:
256,192,109489,2,0,L|136:192,1,90,8|0,0:3|0:0,0:0:0:0:
256,192,109789,1,2,0:0:0:0:
346,192,109939,1,0,0:0:0:0:
256,120,110089,1,8,0:3:0:0:
168,120,110239,1,0,0:0:0:0:
416,120,110389,6,0,L|448:216,1,90,2|0,0:0|0:0,0:0:0:0:
192,120,110689,2,0,L|96:120,1,90,8|0,0:3|0:0,0:0:0:0:
192,200,110989,2,0,L|312:200,1,90,2|0,0:0|0:0,0:0:0:0:
136,280,111289,2,0,L|240:280,1,90,8|0,0:3|0:0,0:0:0:0:
480,64,111589,5,2,0:2:0:0:
256,136,111889,1,2,0:2:0:0:
480,200,112189,1,2,0:2:0:0:
256,240,112489,1,2,0:2:0:0:
480,320,112639,1,0,0:0:0:0:
384,216,112789,1,2,0:3:0:0:
440,216,112864,1,0,0:0:0:0:
496,216,112939,1,0,0:0:0:0:
280,144,113089,6,0,L|152:144,1,90,2|0,0:2|0:0,0:0:0:0:
312,72,113389,2,0,L|424:72,1,90,2|2,0:3|0:0,0:0:0:0:
192,192,113689,1,8,0:3:0:0:
304,192,113839,1,2,0:0:0:0:
96,312,113989,2,0,P|40:280|112:240,1,180,6|8,0:0|0:3,0:0:0:0:
400,192,114439,5,0,0:0:0:0:
296,192,114589,1,2,0:0:0:0:
296,192,114739,1,0,0:0:0:0:
400,192,114889,1,8,0:3:0:0:
184,104,115039,1,0,0:0:0:0:
184,104,115189,1,2,0:0:0:0:
304,104,115339,6,0,L|408:104,1,90,0|8,0:0|0:3,0:0:0:0:
176,144,115639,1,0,0:0:0:0:
88,216,115789,2,0,L|200:216,2,90,2|0|8,0:0|0:0|0:3,0:0:0:0:
336,160,116239,1,0,0:0:0:0:
90,115,116389,6,0,L|186:147,1,90,2|0,0:0|0:0,0:0:0:0:
265,144,116689,2,0,L|151:143,1,90,8|0,0:3|0:0,0:0:0:0:
424,192,116989,2,0,L|328:192,1,90,2|0,0:0|0:0,0:0:0:0:
244,192,117289,2,0,L|364:192,1,90,8|0,0:3|0:0,0:0:0:0:
112,232,117589,6,0,L|40:232,1,45,2|0,0:3|0:0,0:0:0:0:
240,128,117739,1,0,0:0:0:0:
136,128,117889,1,8,0:3:0:0:
312,192,118189,1,2,0:3:0:0:
360,192,118264,1,0,0:0:0:0:
176,128,118339,1,0,0:0:0:0:
264,128,118489,1,8,0:3:0:0:
176,128,118639,1,2,0:2:0:0:
384,48,118789,6,0,P|448:88|384:128,1,180,6|8,0:0|0:3,0:0:0:0:
144,296,119239,2,0,L|240:296,2,90,0|2|0,0:0|0:0|0:0,0:0:0:0:
280,240,119689,1,8,0:3:0:0:
232,240,119764,1,0,0:0:0:0:
184,240,119839,1,0,0:0:0:0:
392,296,119989,6,0,P|448:216|384:208,1,180,6|8,0:0|0:3,0:0:0:0:
176,72,120439,2,0,L|72:72,1,90,0|2,0:0|0:0,0:0:0:0:
328,104,120739,2,0,L|216:104,1,90,0|8,0:0|0:3,0:0:0:0:
360,168,121039,1,0,0:0:0:0:
408,168,121114,1,0,0:0:0:0:
152,192,121189,1,6,0:0:0:0:
360,256,121489,5,6,0:0:0:0:
152,248,121789,1,6,0:0:0:0:
360,328,122089,1,2,0:2:0:0:
96,328,122239,2,0,P|40:272|88:152,1,180,2|2,0:3|0:0,0:0:0:0:
336,192,122689,1,2,0:3:0:0:
54,179,122839,1,0,0:0:0:0:
336,192,122989,1,2,0:3:0:0:
88,72,123289,1,8,0:3:0:0:
328,64,123589,5,6,0:0:0:0:
364,87,123664,1,0,0:0:0:0:
377,130,123739,1,0,0:0:0:0:
357,169,123814,1,0,0:0:0:0:
317,186,123889,1,0,0:0:0:0:
272,192,123964,1,0,0:0:0:0:
96,192,124039,2,0,L|32:192,1,45,2|0,0:0|0:0,0:0:0:0:
288,264,124189,6,0,L|424:264,1,135,2|0,0:2|0:0,0:0:0:0:
168,336,124489,2,0,P|80:296|32:208,1,180,12|6,0:3|0:0,0:0:0:0:
144,200,124864,6,0,L|208:160,1,45
272,184,125014,2,0,L|336:144,1,45
392,136,125164,1,0,0:0:0:0:
144,96,125239,2,0,L|56:96,1,45,2|0,0:0|0:0,0:0:0:0:
320,40,125389,2,0,P|392:64|432:112,1,135,2|0,0:2|0:0,0:0:0:0:
160,32,125689,2,0,P|104:56|56:176,1,180,12|6,0:3|0:0,0:0:0:0:
160,192,126064,6,0,L|144:248,1,45
232,208,126214,2,0,L|216:264,1,45
304,224,126364,2,0,L|288:288,1,45,0|2,0:0|0:0,0:0:0:0:
384,248,126514,1,0,0:0:0:0:
200,328,126589,2,0,L|40:296,1,135,2|0,0:2|0:0,0:0:0:0:
280,328,126889,2,0,P|384:304|416:232,1,180,12|6,0:3|0:0,0:0:0:0:
304,192,127264,6,0,L|320:136,1,45
232,176,127414,2,0,L|248:120,1,45
160,160,127564,2,0,L|176:96,1,45,0|2,0:0|0:0,0:0:0:0:
80,136,127714,1,0,0:0:0:0:
288,64,127789,2,0,L|448:96,1,135,2|0,0:2|0:0,0:0:0:0:
192,56,128089,2,0,P|88:80|56:152,1,180,12|6,0:3|0:0,0:0:0:0:
272,120,128464,5,0,0:0:0:0:
316,115,128539,1,0,0:0:0:0:
356,133,128614,1,0,0:0:0:0:
382,169,128689,1,0,0:0:0:0:
385,213,128764,1,0,0:0:0:0:
365,253,128839,1,2,0:0:0:0:
328,277,128914,1,0,0:0:0:0:
120,280,128989,2,0,L|256:280,1,135,2|0,0:2|0:0,0:0:0:0:
72,280,129289,2,0,P|32:200|112:152,1,180,12|6,0:3|0:0,0:0:0:0:
272,48,129664,5,0,0:0:0:0:
316,43,129739,1,0,0:0:0:0:
356,61,129814,1,0,0:0:0:0:
382,97,129889,1,0,0:0:0:0:
385,141,129964,1,0,0:0:0:0:
365,181,130039,1,2,0:0:0:0:
328,205,130114,1,0,0:0:0:0:
160,208,130189,2,0,L|48:120,1,135,2|0,0:2|0:0,0:0:0:0:
340,61,130489,2,0,P|408:64|480:168,1,180,12|6,0:3|0:0,0:0:0:0:
256,56,130864,5,0,0:0:0:0:
300,51,130939,1,0,0:0:0:0:
340,69,131014,1,0,0:0:0:0:
366,105,131089,1,0,0:0:0:0:
369,149,131164,1,0,0:0:0:0:
349,189,131239,1,2,0:0:0:0:
312,213,131314,1,0,0:0:0:0:
96,224,131389,2,0,P|80:280|136:344,1,135,2|0,0:2|0:0,0:0:0:0:
296,336,131689,2,0,L|136:336,1,135,12|0,0:3|0:0,0:0:0:0:
368,336,131989,6,0,P|416:264|368:168,1,202.500007724762,6|0,0:3|0:0,0:0:0:0:
120,184,132289,6,0,P|72:112|120:8,1,202.500007724762,4|0,0:0|0:0,0:0:0:0:
336,32,132589,6,0,P|400:103|378:209,1,202.500007724762,2|0,0:0|0:0,0:0:0:0:
168,184,132889,6,0,P|240:128|320:192,1,202.500007724762,2|0,0:0|0:0,0:0:0:0:
120,312,133189,5,2,0:3:0:0:
77,298,133264,1,0,0:0:0:0:
45,267,133339,1,0,0:0:0:0:
32,224,133414,1,0,0:0:0:0:
41,181,133489,1,8,0:0:0:0:
68,146,133564,1,0,0:0:0:0:
109,128,133639,1,0,0:0:0:0:
304,120,133714,5,0,0:0:0:0:
347,134,133789,1,2,0:0:0:0:
379,165,133864,1,0,0:0:0:0:
392,208,133939,1,0,0:0:0:0:
383,251,134014,1,0,0:0:0:0:
356,286,134089,1,8,0:0:0:0:
315,304,134164,1,0,0:0:0:0:
208,304,134239,2,0,L|160:304,1,45
368,352,134389,6,0,L|456:352,1,45,2|0,0:0|0:0,0:0:0:0:
192,352,134539,2,0,L|128:352,1,45
340,286,134689,2,0,L|384:287,1,45,8|0,0:0|0:0,0:0:0:0:
168,288,134839,2,0,L|123:288,1,45
296,224,134989,6,0,L|368:224,1,45,2|0,0:0|0:0,0:0:0:0:
282,161,135139,2,0,L|237:161,1,45
448,160,135289,2,0,L|477:120,1,45,8|0,0:0|0:0,0:0:0:0:
280,112,135439,2,0,L|224:112,1,45
456,96,135589,6,0,L|480:56,1,45,2|0,0:0|0:0,0:0:0:0:
400,32,135739,2,0,L|368:80,1,45
456,96,135889,2,0,L|488:128,1,45,8|0,0:0|0:0,0:0:0:0:
248,136,136039,2,0,L|184:136,1,45
384,200,136189,6,0,L|448:200,1,45,2|0,0:0|0:0,0:0:0:0:
232,248,136339,2,0,L|168:248,1,45
187,248,136489,2,0,L|251:248,1,45,8|0,0:0|0:0,0:0:0:0:
432,184,136639,2,0,L|387:184,1,45
200,176,136789,6,0,L|136:176,1,45,2|0,0:0|0:0,0:0:0:0:
368,104,136939,2,0,L|448:104,1,45
368,40,137089,2,0,L|323:40,1,45,8|0,0:0|0:0,0:0:0:0:
152,272,137239,2,0,L|80:272,1,45
256,320,137389,6,0,L|312:320,1,45,2|0,0:0|0:0,0:0:0:0:
128,48,137539,2,0,L|104:96,1,45
168,128,137689,2,0,L|232:128,1,45,8|0,0:0|0:0,0:0:0:0:
64,168,137839,2,0,L|32:216,1,45
368,192,137989,6,0,L|416:192,1,45,6|0,0:0|0:0,0:0:0:0:
208,192,138139,2,0,L|128:192,1,45
360,336,138289,2,0,L|392:272,1,45,8|0,0:0|0:0,0:0:0:0:
304,272,138439,2,0,L|328:216,1,45
392,216,138589,6,0,L|437:216,1,45,2|0,0:0|0:0,0:0:0:0:
208,136,138739,2,0,L|163:136,1,45
379,144,138889,2,0,L|424:144,1,45,8|0,0:0|0:0,0:0:0:0:
152,336,139039,2,0,L|80:336,1,45
248,272,139189,6,0,L|296:272,1,45,6|0,0:0|0:0,0:0:0:0:
248,272,139339,2,0,L|203:272,1,45
376,184,139489,2,0,L|440:184,1,45,8|0,0:0|0:0,0:0:0:0:
208,192,139639,2,0,L|152:192,1,45
208,120,139789,6,0,L|280:120,1,45
56,72,139939,2,0,L|-8:72,1,45
248,48,140089,2,0,L|328:48,1,45,8|0,0:0|0:0,0:0:0:0:
80,152,140239,2,0,L|0:152,1,45
208,192,140389,6,0,L|264:192,1,45,6|0,0:1|0:0,0:0:0:0:
104,264,140539,2,0,L|43:264,1,45
256,320,140689,2,0,L|320:320,1,45,8|0,0:0|0:0,0:0:0:0:
256,248,140839,2,0,L|208:248,1,45
416,168,140989,6,0,L|464:168,1,45,2|0,0:0|0:0,0:0:0:0:
208,160,141139,2,0,L|128:160,1,45
352,248,141289,2,0,L|400:248,1,45,8|0,0:0|0:0,0:0:0:0:
128,248,141439,2,0,L|80:248,1,45
296,352,141589,6,0,B|440:320|440:320|456:136|456:136|304:136|304:136|256:320|256:320|432:352|432:352|475:228|475:228|472:136,1,1012.50003862381,6|0,0:0|0:0,0:0:0:0:
256,56,142789,6,0,P|184:88|184:144,1,135,0|0,0:1|0:0,0:0:0:0:
104,176,143089,2,0,P|72:240|104:320,1,135,8|0,0:0|0:0,0:0:0:0:
256,312,143389,2,0,L|352:312,1,90,0|0,0:3|0:0,0:0:0:0:
128,176,143689,2,0,P|104:240|128:320,1,135,8|0,0:3|0:0,0:0:0:0:
352,312,143989,2,0,P|384:232|352:152,1,135,8|0,0:0|0:0,0:0:0:0:
136,56,144289,2,0,L|288:56,1,135,8|0,0:0|0:0,0:0:0:0:
136,56,144589,2,0,L|96:136,1,90,8|0,0:0|0:0,0:0:0:0:
352,120,144889,2,0,L|440:272,1,135,8|0,0:0|0:0,0:0:0:0:
208,328,145189,6,0,L|112:208,1,135,4|0,0:0|0:0,0:0:0:0:
296,328,145489,2,0,L|368:248,1,90,8|0,0:0|0:0,0:0:0:0:
208,328,145789,2,0,L|120:216,1,135
336,288,146089,2,0,L|400:216,1,90
304,176,146389,2,0,P|272:144|352:112,1,135,4|0,0:0|0:0,0:0:0:0:
144,48,146689,2,0,L|24:48,1,90
200,112,146989,2,0,L|56:184,1,135
328,168,147289,2,0,L|432:168,1,90
184,248,147589,6,0,L|24:344,2,180,4|0|0,0:2|0:0|0:2,0:0:0:0:
328,248,148339,1,0,0:0:0:0:
184,248,148489,1,0,0:0:0:0:
184,248,148639,1,0,0:0:0:0:
328,248,148789,6,0,L|482:340,2,180
184,248,149539,1,0,0:0:0:0:
328,248,149689,1,0,0:0:0:0:
328,248,149839,1,0,0:0:0:0:
184,248,149989,6,0,P|120:200|120:72,1,180
328,80,150439,2,0,P|392:128|392:256,1,180
256,240,150889,2,0,L|368:240,1,90
88,224,151189,2,0,P|99:137|168:82,1,180
416,160,151639,2,0,P|405:247|337:303,1,180
120,304,152089,1,0,0:0:0:0:
120,304,152239,1,0,0:0:0:0:
408,304,152389,5,4,0:0:0:0:
256,296,152689,1,8,0:0:0:0:
256,296,152989,1,2,0:0:0:0:
72,296,153289,1,8,0:0:0:0:
256,192,153589,5,0,0:0:0:0:
440,192,153889,1,8,0:0:0:0:
256,192,154189,1,2,0:0:0:0:
72,192,154489,1,8,0:0:0:0:
256,264,154789,5,6,0:0:0:0:
440,264,155089,1,8,0:0:0:0:
440,264,155239,1,2,0:2:0:0:
72,264,155389,1,2,0:0:0:0:
256,264,155689,1,8,0:0:0:0:
256,264,155839,1,2,0:0:0:0:
88,168,155989,5,2,0:0:0:0:
336,160,156289,1,8,0:0:0:0:
248,160,156439,1,2,0:2:0:0:
160,160,156589,1,2,0:0:0:0:
384,232,156889,1,8,0:0:0:0:
288,232,157039,1,0,0:0:0:0:
192,232,157189,6,0,L|192:344,1,90,6|0,0:0|0:0,0:0:0:0:
56,288,157489,2,0,L|56:400,1,90,8|0,0:0|0:0,0:0:0:0:
192,280,157789,2,0,L|192:176,1,90,2|0,0:0|0:0,0:0:0:0:
56,88,158089,2,0,L|56:192,1,90,8|0,0:0|0:0,0:0:0:0:
312,352,158389,5,6,0:0:0:0:
408,288,158539,1,0,0:0:0:0:
400,152,158689,1,8,0:0:0:0:
304,56,158839,1,0,0:0:0:0:
200,56,158989,1,2,0:0:0:0:
96,56,159139,1,0,0:0:0:0:
320,320,159289,1,8,0:0:0:0:
416,216,159439,1,0,0:0:0:0:
160,48,159589,5,6,0:0:0:0:
117,63,159664,1,2,0:0:0:0:
84,92,159739,1,2,0:0:0:0:
64,133,159814,1,2,0:0:0:0:
61,177,159889,5,10,0:0:0:0:
224,216,159964,1,2,0:0:0:0:
176,240,160039,1,2,0:0:0:0:
152,280,160114,1,2,0:0:0:0:
336,16,160189,5,14,0:0:0:0:
380,26,160264,1,2,0:0:0:0:
415,54,160339,1,2,0:0:0:0:
436,93,160414,1,2,0:0:0:0:
240,72,160489,5,10,0:0:0:0:
197,82,160564,1,2,0:0:0:0:
160,112,160639,1,2,0:0:0:0:
152,152,160714,1,2,0:0:0:0:
392,200,160789,6,0,L|424:200,2,22.5,4|0|0,0:0|0:0|0:0,0:0:0:0:
256,200,160901,1,0,0:0:0:0:
120,200,160939,6,0,L|88:200,2,22.5
256,200,161051,1,0,0:0:0:0:
392,200,161089,6,0,L|424:200,2,22.5,4|0|0,0:0|0:0|0:0,0:0:0:0:
256,200,161201,1,0,0:0:0:0:
120,200,161239,6,0,L|88:200,2,22.5
256,200,161351,1,0,0:0:0:0:
424,304,161389,6,0,L|446:304,2,22.5,4|0|0,0:0|0:0|0:0,0:0:0:0:
256,304,161501,1,0,0:0:0:0:
80,304,161539,6,0,L|48:304,2,22.5
256,304,161651,1,0,0:0:0:0:
432,304,161689,6,0,L|454:304,2,22.5,4|0|0,0:0|0:0|0:0,0:0:0:0:
256,304,161801,1,0,0:0:0:0:
80,304,161839,6,0,L|48:304,2,22.5
256,304,161951,1,0,0:0:0:0:
432,304,161989,1,2,0:3:0:0:
256,192,162026,12,0,163189,0:0:0:0:
384,144,163339,5,0,0:0:0:0:
416,144,163414,1,0,0:0:0:0:
440,144,163489,1,2,0:3:0:0:
208,152,163639,2,0,L|298:152,1,90,0|2,0:0|0:3,0:0:0:0:
160,224,163939,2,0,L|250:224,1,90,0|8,0:0|0:3,0:0:0:0:
24,232,164239,1,0,0:0:0:0:
152,288,164389,6,0,B|-8:240|32:48|264:32|232:256,1,450
104,320,165289,2,0,P|64:248|32:168,1,135
368,288,165589,6,0,B|528:240|488:48|256:32|288:256,1,450
400,336,166489,2,0,B|456:272|456:272|464:208,1,135
152,48,166789,6,0,B|56:136|56:136|80:320|80:320|184:208,1,450
384,216,167689,2,0,P|440:184|496:128,1,135
256,48,167989,6,0,B|352:64|352:64|408:240|408:240|328:304|328:304|256:232,1,450
32,160,168889,1,0,0:0:0:0:
256,168,169039,1,0,0:0:0:0:
32,160,169189,6,0,B|26:274|26:274|105:378|105:378|224:368|224:368|286:261,1,450
168,256,170089,2,0,P|112:208|112:144,1,135
320,56,170389,6,0,B|424:72|424:72|464:168|464:168|392:272|392:272|336:232|336:232|264:232,1,450
200,232,171289,2,0,P|144:200|128:128,1,135
336,56,171589,6,0,B|240:56|240:56|184:136|184:136|200:248|200:248|304:280|304:280|328:232,1,450
176,320,172489,2,0,L|280:320,1,90
56,248,172789,5,4,0:0:0:0:
16,176,172864,1,0,0:0:0:0:
24,104,172939,1,0,0:0:0:0:
72,40,173014,1,0,0:0:0:0:
272,48,173089,1,0,0:0:0:0:
320,56,173164,1,0,0:0:0:0:
353,96,173239,1,0,0:0:0:0:
352,144,173314,1,0,0:0:0:0:
152,256,173389,5,2,0:0:0:0:
112,256,173439,1,2,0:0:0:0:
112,256,173489,1,2,0:0:0:0:
152,256,173539,1,2,0:0:0:0:
336,200,173589,1,2,0:0:0:0:
376,200,173639,1,2,0:0:0:0:
376,200,173689,5,4,0:3:0:0:
336,200,173739,1,2,0:3:0:0:
152,160,173789,1,2,0:0:0:0:
112,160,173839,1,2,0:0:0:0:
112,160,173889,1,2,0:0:0:0:
152,160,173939,1,2,0:0:0:0:
376,200,173989,1,0,0:0:0:0:
426,192,174139,1,0,0:0:0:0:
216,56,174289,5,8,0:0:0:0:
176,56,174364,1,0,0:0:0:0:
144,56,174439,1,0,0:0:0:0:
360,264,174589,5,2,0:0:0:0:
256,264,174739,1,0,0:0:0:0:
256,264,174889,1,8,0:0:0:0:
360,264,175039,1,0,0:0:0:0:
144,192,175189,5,6,0:0:0:0:
192,192,175264,1,0,0:0:0:0:
240,192,175339,1,0,0:0:0:0:
120,112,175489,1,8,0:0:0:0:
210,112,175639,1,0,0:0:0:0:
296,112,175789,5,2,0:0:0:0:
192,112,175939,2,0,L|88:112,1,90,0|8,0:0|0:0,0:0:0:0:
248,168,176239,1,0,0:0:0:0:
208,168,176314,1,0,0:0:0:0:
168,168,176389,1,6,0:0:0:0:
424,168,176539,6,0,L|334:168,1,90,0|2,0:0|0:0,0:0:0:0:
440,224,176839,2,0,L|350:224,1,90,0|8,0:0|0:0,0:0:0:0:
112,312,177139,2,0,L|216:312,2,90,0|8|0,0:0|0:0|0:0,0:0:0:0:
376,256,177589,5,6,0:3:0:0:
88,256,177739,1,0,0:0:0:0:
352,200,177889,1,6,0:3:0:0:
112,192,178039,1,0,0:0:0:0:
376,144,178189,1,6,0:3:0:0:
88,144,178339,1,0,0:0:0:0:
344,80,178489,1,6,0:3:0:0:
112,88,178639,1,0,0:0:0:0:
352,0,178789,2,0,P|424:48|360:112,1,180,6|8,0:0|0:0,0:0:0:0:
168,104,179239,6,0,L|72:160,1,90,0|2,0:0|0:0,0:0:0:0:
200,104,179539,2,0,L|280:144,1,90,0|8,0:0|0:0,0:0:0:0:
176,336,179839,1,0,0:0:0:0:
131,336,179914,1,0,0:0:0:0:
86,336,179989,1,6,0:0:0:0:
360,336,180139,5,0,0:0:0:0:
240,288,180289,2,0,L|344:288,1,90,8|0,0:0|0:0,0:0:0:0:
184,224,180589,2,0,L|280:224,1,90,2|0,0:0|0:0,0:0:0:0:
168,104,180889,2,0,L|88:192,1,90,8|0,0:0|0:0,0:0:0:0:
416,96,181189,1,6,0:0:0:0:
368,96,181264,1,0,0:0:0:0:
168,104,181339,6,0,L|64:104,1,90,0|8,0:0|0:0,0:0:0:0:
320,104,181639,2,0,L|216:104,1,90,0|2,0:0|0:0,0:0:0:0:
448,184,181939,1,0,0:0:0:0:
336,184,182089,1,8,0:0:0:0:
448,128,182239,1,0,0:0:0:0:
184,200,182389,5,2,0:3:0:0:
152,232,182464,1,0,0:0:0:0:
184,256,182539,1,4,0:0:0:0:
392,64,182689,2,0,L|480:128,1,90,6|0,0:0|0:0,0:0:0:0:
184,96,182989,6,0,L|229:96,1,45,6|0,0:0|0:0,0:0:0:0:
416,168,183139,2,0,L|461:168,1,45
229,168,183289,2,0,L|184:168,1,45,6|0,0:0|0:0,0:0:0:0:
357,168,183439,2,0,L|402:168,1,45
144,208,183589,2,0,P|80:256|152:320,1,180,2|8,0:3|0:0,0:0:0:0:
368,320,184039,6,0,L|424:240,1,90,0|2,0:0|0:0,0:0:0:0:
200,64,184339,2,0,L|120:120,2,90,0|8|0,0:0|0:0|0:0,0:0:0:0:
328,64,184789,1,6,0:0:0:0:
360,96,184864,1,0,0:0:0:0:
328,128,184939,1,0,0:0:0:0:
120,192,185089,2,0,L|232:192,2,90,8|0|2,0:0|0:0|0:0,0:0:0:0:
384,192,185539,6,0,L|384:288,1,90,0|8,0:0|0:0,0:0:0:0:
256,288,185839,1,0,0:0:0:0:
360,208,185989,1,6,0:0:0:0:
312,208,186064,1,0,0:0:0:0:
264,208,186139,1,0,0:0:0:0:
408,208,186289,6,0,L|312:208,1,90,8|0,0:0|0:0,0:0:0:0:
80,192,186589,2,0,L|184:192,1,90,2|0,0:0|0:0,0:0:0:0:
64,256,186889,2,0,L|168:320,1,90,8|0,0:0|0:0,0:0:0:0:
400,288,187189,5,6,0:3:0:0:
136,288,187339,1,0,0:0:0:0:
368,232,187489,1,6,0:3:0:0:
160,232,187639,1,0,0:0:0:0:
400,176,187789,1,6,0:3:0:0:
136,176,187939,1,0,0:0:0:0:
368,120,188089,1,6,0:3:0:0:
160,120,188239,1,0,0:0:0:0:
392,40,188389,2,0,P|440:96|360:184,1,180,6|8,0:0|0:0,0:0:0:0:
168,192,188839,5,0,0:0:0:0:
78,192,188989,1,2,0:0:0:0:
168,192,189139,1,0,0:0:0:0:
258,192,189289,1,8,0:0:0:0:
120,128,189439,2,0,L|224:128,1,90,0|6,0:0|0:0,0:0:0:0:
456,88,189739,1,0,0:0:0:0:
366,88,189889,5,8,0:0:0:0:
83,45,190039,1,0,0:0:0:0:
192,48,190189,1,2,0:0:0:0:
83,45,190339,1,0,0:0:0:0:
192,48,190489,1,8,0:0:0:0:
83,45,190639,1,0,0:0:0:0:
328,80,190789,5,6,0:0:0:0:
368,80,190864,1,0,0:0:0:0:
328,80,190939,1,0,0:0:0:0:
96,192,191089,2,0,L|192:192,2,90,8|0|2,0:0|0:0|0:0,0:0:0:0:
312,216,191539,1,0,0:0:0:0:
216,216,191689,1,8,0:0:0:0:
432,216,191839,2,0,P|472:304|392:368,1,180,0|6,0:0|0:0,0:0:0:0:
200,360,192289,6,0,L|120:312,1,90,4|0,0:0|0:0,0:0:0:0:
352,256,192589,5,2,0:3:0:0:
120,256,192739,1,0,0:0:0:0:
352,192,192889,1,2,0:3:0:0:
120,192,193039,1,0,0:0:0:0:
352,120,193189,2,0,P|408:72|336:8,1,180,2|8,0:0|0:0,0:0:0:0:
248,8,193639,1,0,0:0:0:0:
368,64,193789,6,0,L|264:64,1,90,2|0,0:0|0:0,0:0:0:0:
56,72,194089,1,8,0:0:0:0:
176,72,194239,1,0,0:0:0:0:
80,144,194389,1,6,0:0:0:0:
120,144,194464,1,0,0:0:0:0:
160,144,194539,1,0,0:0:0:0:
392,192,194689,2,0,L|280:240,1,90,8|0,0:0|0:0,0:0:0:0:
176,248,194989,5,2,0:0:0:0:
304,248,195139,1,0,0:0:0:0:
176,304,195289,1,8,0:0:0:0:
304,304,195439,1,0,0:0:0:0:
176,368,195589,1,6,0:0:0:0:
240,368,195664,1,0,0:0:0:0:
304,368,195739,5,0,0:0:0:0:
80,304,195889,1,8,0:0:0:0:
192,208,196039,1,0,0:0:0:0:
80,208,196189,1,2,0:0:0:0:
344,112,196339,2,0,L|240:112,2,90,0|8|0,0:0|0:0|0:0,0:0:0:0:
104,72,196789,5,14,0:3:0:0:
312,72,196939,1,0,0:0:0:0:
80,120,197089,1,14,0:3:0:0:
336,112,197239,1,0,0:0:0:0:
104,160,197389,1,14,0:3:0:0:
312,152,197539,1,0,0:0:0:0:
80,200,197689,1,14,0:3:0:0:
336,192,197839,1,0,0:0:0:0:
104,256,197989,2,0,P|48:176|112:152,1,180,6|8,0:0|0:0,0:0:0:0:
344,128,198439,5,0,0:0:0:0:
240,128,198589,1,2,0:0:0:0:
240,128,198739,1,0,0:0:0:0:
344,128,198889,1,8,0:0:0:0:
240,200,199039,1,0,0:0:0:0:
304,200,199114,1,0,0:0:0:0:
368,200,199189,1,6,0:0:0:0:
144,232,199339,5,0,0:0:0:0:
54,232,199489,2,0,L|150:232,1,90,8|0,0:0|0:0,0:0:0:0:
48,152,199789,1,2,0:0:0:0:
48,152,199939,1,0,0:0:0:0:
264,136,200089,1,8,0:0:0:0:
176,136,200239,1,0,0:0:0:0:
392,160,200389,6,0,L|496:160,1,90,6|0,0:0|0:0,0:0:0:0:
256,96,200689,2,0,L|368:96,1,90,10|0,0:0|0:0,0:0:0:0:
112,40,200989,2,0,L|224:40,1,90,6|0,0:0|0:0,0:0:0:0:
72,96,201289,1,10,0:0:0:0:
384,96,201439,1,0,0:0:0:0:
168,128,201589,6,0,L|120:128,1,45,2|0,0:3|0:0,0:0:0:0:
304,128,201739,2,0,L|352:128,1,45
208,184,201889,2,0,L|152:184,1,45,8|0,0:0|0:0,0:0:0:0:
208,184,202039,2,0,L|253:184,1,45
104,240,202189,6,0,L|59:240,1,45,8|0,0:0|0:0,0:0:0:0:
288,240,202339,6,0,L|333:240,1,45
136,240,202489,2,0,P|72:304|128:352,1,180,8|6,0:3|0:0,0:0:0:0:
352,352,202939,5,0,0:0:0:0:
448,352,203089,1,8,0:0:0:0:
352,352,203239,1,0,0:0:0:0:
256,352,203389,1,2,0:0:0:0:
408,264,203539,1,2,0:2:0:0:
408,264,203689,1,8,0:0:0:0:
296,144,203839,1,0,0:0:0:0:
352,144,203914,1,0,0:0:0:0:
408,144,203989,1,2,0:0:0:0:
160,224,204139,6,0,L|96:304,1,90,0|8,0:0|0:0,0:0:0:0:
312,232,204439,2,0,L|384:312,1,90,0|2,0:0|0:0,0:0:0:0:
96,352,204739,2,0,L|186:352,2,90,2|8|0,0:2|0:0|0:0,0:0:0:0:
240,256,205114,1,0,0:0:0:0:
384,256,205189,1,0,0:0:0:0:
296,136,205339,1,0,0:0:0:0:
386,136,205489,6,0,L|274:136,2,90,8|0|2,0:0|0:0|0:0,0:0:0:0:
88,160,205939,1,0,0:0:0:0:
320,80,206089,1,8,0:0:0:0:
208,80,206239,1,0,0:0:0:0:
448,184,206389,2,0,P|472:224|440:320,1,135,2|0,0:0|0:0,0:0:0:0:
240,312,206689,2,0,L|88:256,1,135,8|0,0:0|0:0,0:0:0:0:
312,176,206989,6,0,L|360:176,1,45,2|0,0:0|0:0,0:0:0:0:
200,136,207139,2,0,L|144:136,1,45,2|0,0:2|0:0,0:0:0:0:
320,80,207289,2,0,L|384:80,1,45,8|0,0:0|0:0,0:0:0:0:
192,48,207439,2,0,L|128:48,1,45
448,160,207589,5,6,0:0:0:0:
352,160,207739,1,0,0:0:0:0:
256,160,207889,1,8,0:0:0:0:
352,160,208039,1,0,0:0:0:0:
40,88,208189,1,0,0:0:0:0:
149,88,208339,1,0,0:0:0:0:
253,88,208489,1,8,0:0:0:0:
149,88,208639,1,0,0:0:0:0:
400,224,208789,6,0,L|272:224,1,90,6|0,0:0|0:0,0:0:0:0:
432,304,209089,2,0,L|320:304,2,90,8|0|2,0:0|0:0|0:0,0:0:0:0:
80,304,209539,2,0,L|176:304,2,90,0|8|0,0:2|0:0|0:0,0:0:0:0:
376,104,209989,5,6,0:0:0:0:
429,121,210064,1,0,0:0:0:0:
459,167,210139,1,0,0:0:0:0:
435,216,210214,1,0,0:0:0:0:
382,229,210289,1,8,0:0:0:0:
333,203,210364,1,0,0:0:0:0:
297,160,210439,1,0,0:0:0:0:
256,122,210514,1,0,0:0:0:0:
202,117,210589,5,2,0:0:0:0:
157,150,210664,1,0,0:0:0:0:
136,201,210739,1,2,0:2:0:0:
139,257,210814,1,0,0:0:0:0:
167,305,210889,1,8,0:0:0:0:
215,334,210964,1,0,0:0:0:0:
270,335,211039,1,0,0:0:0:0:
323,315,211114,1,0,0:0:0:0:
120,328,211189,6,0,P|24:272|-8:208,1,135.000005149842,2|6,0:3|0:0,0:0:0:0:
344,224,211414,2,0,L|440:224,1,67.5000025749208,0|6,0:0|0:0,0:0:0:0:
134,120,211564,2,0,L|336:120,1,202.500007724762,0|6,0:0|0:0,0:0:0:0:
256,192,212089,5,6,0:0:0:0:
256,192,212239,1,4,0:0:0:0:
256,192,212314,12,0,214789,0:0:0:0:
