osu file format v14

[General]
AudioFilename: audio.mp3
AudioLeadIn: 0
PreviewTime: 173992
Countdown: 0
SampleSet: Normal
StackLeniency: 0.7
Mode: 1
LetterboxInBreaks: 0
WidescreenStoryboard: 1

[Editor]
Bookmarks: 193192
DistanceSpacing: 1.2
BeatDivisor: 4
GridSize: 8
TimelineZoom: 3.399999

[Metadata]
Title:Clarity feat. Foxes (IOSYS uno DENPA Remix)
TitleUnicode:Clarity feat. Foxes (IOSYS uno DENPA Remix)
Artist:Zedd
ArtistUnicode:Zedd
Creator:Boaz
Version:fuwafuwa
Source:
Tags:english electronic pop 岩杉 夏 Natsu Iwasugi ペス pesu 高井さん takaisan
BeatmapID:3940274
BeatmapSetID:1811043

[Difficulty]
HPDrainRate:7
CircleSize:5
OverallDifficulty:7
ApproachRate:5
SliderMultiplier:1.4
SliderTickRate:1

[Events]
//Background and Video events
0,0,"608365.png",0,0
//Break Periods
//Storyboard Layer 0 (Background)
//Storyboard Layer 1 (Fail)
//Storyboard Layer 2 (Pass)
//Storyboard Layer 3 (Foreground)
//Storyboard Layer 4 (Overlay)
//Storyboard Sound Samples

[TimingPoints]
1192,300,4,1,0,100,1,0
1192,-100,4,1,0,80,0,0
10938,-100,4,1,0,80,0,0
11088,-93.3701585238552,4,1,0,80,0,0
11388,-82.4390075003009,4,1,0,80,0,0
11688,-73.7991040788765,4,1,0,80,0,0
11988,-111.111111111111,4,1,0,80,0,0
19038,-111.111111111111,4,1,0,80,0,0
19188,-105.985757633889,4,1,0,80,0,0
19488,-97.0336803904635,4,1,0,80,0,0
19788,-89.4760906464379,4,1,0,80,0,0
20088,-83.0107673266299,4,1,0,80,0,0
20238,-80,4,1,0,80,0,0
20388,-82.5566131975002,4,1,0,80,0,0
20463,-83.897192380457,4,1,0,80,0,0
20538,-85.2819549353094,4,1,0,80,0,0
20688,-88.1934541054494,4,1,0,80,0,0
20838,-91.3107753106621,4,1,0,80,0,0
20988,-94.6564538663375,4,1,0,80,0,0
21063,-96.422996113189,4,1,0,80,0,0
21138,-98.2567291120933,4,1,0,80,0,0
21288,-102.141707319066,4,1,0,80,0,0
21438,-106.346436277747,4,1,0,80,0,0
21588,-110.91233156576,4,1,0,80,0,0
28638,-111.111111111111,4,1,0,80,0,0
28788,-105.985757633889,4,1,0,80,0,0
29088,-97.0336803904635,4,1,0,80,0,0
29388,-89.4760906464379,4,1,0,80,0,0
29688,-83.0107673266299,4,1,0,80,0,0
29838,-80.1162005372592,4,1,0,80,0,0
29988,-90.9090909090909,4,1,0,80,0,0
30138,-90.9090909090909,4,1,0,80,0,0
30213,-93.709909729244,4,1,0,80,0,0
30288,-96.6887020218575,4,1,0,80,0,0
30438,-103.253198525957,4,1,0,80,0,0
30588,-110.773866229479,4,1,0,80,0,0
31188,-111.111111111111,4,1,0,75,0,0
31338,-110.91245458135,4,1,0,75,0,0
31413,-110.81339246336,4,1,0,75,0,0
31488,-110.7145071433,4,1,0,75,0,0
31638,-110.517387147933,4,1,0,75,0,0
31713,-110.419029173812,4,1,0,75,0,0
31788,-110.320846116761,4,1,0,75,0,0
31938,-110.125002890781,4,1,0,75,0,0
32013,-110.027341794436,4,1,0,75,0,0
32088,-109.929853760316,4,1,0,75,0,0
32238,-109.735395041935,4,1,0,75,0,0
32313,-109.638423443326,4,1,0,75,0,0
32388,-109.541623078229,4,1,0,75,0,0
32613,-109.252364221162,4,1,0,75,0,0
32688,-109.156244064629,4,1,0,75,0,0
32838,-108.964510259009,4,1,0,75,0,0
32913,-108.868895721017,4,1,0,75,0,0
32988,-108.773448836233,4,1,0,75,0,0
33138,-108.583056265568,4,1,0,75,0,0
33288,-108.393446532223,4,1,0,75,0,0
33438,-108.20438076256,4,1,0,75,0,0
33513,-108.11009499634,4,1,0,75,0,0
33588,-108.015973402147,4,1,0,75,0,0
33738,-107.828221017661,4,1,0,75,0,0
33813,-107.734589374999,4,1,0,75,0,0
33888,-107.64112019961,4,1,0,75,0,0
34038,-107.454667562122,4,1,0,75,0,0
34113,-107.361798524849,4,1,0,75,0,0
34188,-107.268974808954,4,1,0,75,0,0
34338,-107.083808071549,4,1,0,75,0,0
34413,-106.991464220984,4,1,0,75,0,0
34488,-106.899279498856,4,1,0,75,0,0
34638,-106.715385797463,4,1,0,75,0,0
34713,-106.623676000503,4,1,0,75,0,0
34788,-106.532123696579,4,1,0,75,0,0
34938,-106.349489947846,4,1,0,75,0,0
35013,-106.258520605121,4,1,0,75,0,0
35088,-106.167594040601,4,1,0,75,0,0
35238,-105.986206955027,4,1,0,75,0,0
35313,-105.895745638419,4,1,0,75,0,0
35388,-105.805438611155,4,1,0,75,0,0
35538,-105.62528584843,4,1,0,75,0,0
35613,-105.535439328204,4,1,0,75,0,0
35688,-105.445745527782,4,1,0,75,0,0
35838,-105.266925342591,4,1,0,75,0,0
35913,-105.17768718473,4,1,0,75,0,0
35988,-105.088600198828,4,1,0,75,0,0
36138,-104.910878208961,4,1,0,75,0,0
36213,-104.822242441268,4,1,0,75,0,0
36288,-104.733756318064,4,1,0,75,0,0
36438,-104.557231491802,4,1,0,75,0,0
36513,-104.469192035269,4,1,0,75,0,0
36588,-104.381300716264,4,1,0,75,0,0
36738,-104.206069586729,4,1,0,75,0,0
36813,-104.118620261692,4,1,0,75,0,0
36888,-104.031317587847,4,1,0,75,0,0
36963,-103.944161196605,4,1,0,75,0,0
37038,-103.857150720613,4,1,0,75,0,0
37188,-103.683566051097,4,1,0,75,0,0
37338,-103.510560664952,4,1,0,75,0,0
37413,-103.424274297723,4,1,0,75,0,0
37488,-103.338238455052,4,1,0,75,0,0
37638,-103.166382615227,4,1,0,75,0,0
37713,-103.080668869844,4,1,0,75,0,0
37788,-102.995097433362,4,1,0,75,0,0
37938,-102.824380071813,4,1,0,75,0,0
38013,-102.739233442031,4,1,0,75,0,0
38088,-102.654227711714,4,1,0,75,0,0
38163,-102.569362531412,4,1,0,75,0,0
38238,-102.484637552831,4,1,0,75,0,0
38388,-102.315711498342,4,1,0,75,0,0
38538,-102.147237070458,4,1,0,75,0,0
38613,-102.063207744556,4,1,0,75,0,0
38688,-101.979316555016,4,1,0,75,0,0
38838,-101.811947224759,4,1,0,75,0,0
38913,-101.728468406698,4,1,0,75,0,0
38988,-101.645126370303,4,1,0,75,0,0
39138,-101.478954279672,4,1,0,75,0,0
39213,-101.396020408991,4,1,0,75,0,0
39288,-101.313221983348,4,1,0,75,0,0
39363,-101.230558671207,4,1,0,75,0,0
39438,-101.148030142113,4,1,0,75,0,0
39588,-100.983376116624,4,1,0,75,0,0
39738,-100.819257284695,4,1,0,75,0,0
39888,-100.655671041162,4,1,0,75,0,0
40038,-100.492715785496,4,1,0,75,0,0
40113,-100.411385446173,4,1,0,75,0,0
40188,-100.330186644246,4,1,0,75,0,0
40263,-100.249119060866,4,1,0,75,0,0
40338,-100.168182378213,4,1,0,75,0,0
40413,-100.087376279492,4,1,0,75,0,0
40488,-100.00670044893,4,1,0,75,0,0
40788,-117.647058823529,4,1,0,80,0,0
41238,-104.021470031414,4,1,0,80,0,0
41388,-100.154839381684,4,1,0,80,0,0
41688,-80,4,1,0,80,0,0
41913,-117.647058823529,4,1,0,80,0,0
42363,-104.021470031414,4,1,0,80,0,0
42513,-100.154839381684,4,1,0,80,0,0
42813,-80,4,1,0,80,0,0
43113,-117.647058823529,4,1,0,80,0,0
43563,-104.021470031414,4,1,0,80,0,0
43713,-100.154839381684,4,1,0,80,0,0
44013,-80,4,1,0,80,0,0
44313,-117.647058823529,4,1,0,80,0,0
44763,-104.021470031414,4,1,0,80,0,0
44913,-100.154839381684,4,1,0,80,0,0
45213,-80,4,1,0,80,0,0
45513,-117.647058823529,4,1,0,80,0,0
45963,-104.021470031414,4,1,0,80,0,0
46113,-100.154839381684,4,1,0,80,0,0
46413,-80,4,1,0,80,0,0
46713,-117.647058823529,4,1,0,80,0,0
47163,-104.021470031414,4,1,0,80,0,0
47313,-100.154839381684,4,1,0,80,0,0
47613,-80,4,1,0,80,0,0
47913,-117.647058823529,4,1,0,80,0,0
48363,-104.021470031414,4,1,0,80,0,0
48513,-100.154839381684,4,1,0,80,0,0
48813,-80,4,1,0,80,0,0
49188,-66.6666666666667,4,1,0,80,0,0
49788,-66.6666666666667,4,1,0,80,0,0
49938,-74.6728396214087,4,1,0,80,0,0
50013,-79.4430722860459,4,1,0,80,0,0
50088,-84.8643570549013,4,1,0,80,0,0
50238,-98.2775870100617,4,1,0,80,0,0
50388,-117.647058823529,4,1,0,80,0,0
50688,-109.950038702414,4,1,0,80,0,0
50988,-103.198322408071,4,1,0,80,0,0
51138,-100.124153950899,4,1,0,80,0,0
51288,-80,4,1,0,80,0,0
51588,-117.647058823529,4,1,0,80,0,0
51738,-113.668397457465,4,1,0,80,0,0
51888,-109.950038702414,4,1,0,80,0,0
52038,-106.467246416312,4,1,0,80,0,0
52188,-103.198322408071,4,1,0,80,0,0
52338,-100.124153950899,4,1,0,80,0,0
52488,-80,4,1,0,80,0,0
52713,-117.647058823529,4,1,0,80,0,0
53013,-109.950038702414,4,1,0,80,0,0
53313,-103.198322408071,4,1,0,80,0,0
53463,-100.124153950899,4,1,0,80,0,0
53613,-80,4,1,0,80,0,0
53913,-117.647058823529,4,1,0,80,0,0
54063,-113.668397457465,4,1,0,80,0,0
54213,-109.950038702414,4,1,0,80,0,0
54363,-106.467246416312,4,1,0,80,0,0
54513,-103.198322408071,4,1,0,80,0,0
54663,-100.124153950899,4,1,0,80,0,0
54813,-80,4,1,0,80,0,0
55113,-117.647058823529,4,1,0,80,0,0
55413,-109.950038702414,4,1,0,80,0,0
55713,-103.198322408071,4,1,0,80,0,0
55863,-100.124153950899,4,1,0,80,0,0
56013,-80,4,1,0,80,0,0
56313,-117.647058823529,4,1,0,80,0,0
56463,-113.668397457465,4,1,0,80,0,0
56613,-109.950038702414,4,1,0,80,0,0
56763,-106.467246416312,4,1,0,80,0,0
56913,-103.198322408071,4,1,0,80,0,0
57063,-100.124153950899,4,1,0,80,0,0
57213,-80,4,1,0,80,0,0
57513,-117.647058823529,4,1,0,80,0,0
57813,-109.950038702414,4,1,0,80,0,0
58113,-103.198322408071,4,1,0,80,0,0
58263,-100.124153950899,4,1,0,80,0,0
58413,-80,4,1,0,80,0,0
58713,-80,4,1,0,80,0,0
58863,-113.668397457465,4,1,0,80,0,0
59013,-80,4,1,0,80,0,0
59163,-106.467246416312,4,1,0,80,0,0
59313,-80,4,1,0,80,0,0
59463,-100.124153950899,4,1,0,80,0,0
59613,-80,4,1,0,80,0,0
59988,-100,4,1,0,80,0,0
60288,-97.5671627956895,4,1,0,80,0,0
60438,-96.3945544788284,4,1,0,80,0,0
60588,-95.2498880813815,4,1,0,80,0,0
60738,-94.1319994201469,4,1,0,80,0,0
60888,-93.0401328613097,4,1,0,80,0,0
61038,-91.9732210769512,4,1,0,80,0,0
61188,-90.9305835924855,4,1,0,80,0,0
61338,-89.9112396242429,4,1,0,80,0,0
61413,-89.4100901074888,4,1,0,80,0,0
61488,-88.9145753217596,4,1,0,80,0,0
61638,-87.9396874447629,4,1,0,80,0,0
61788,-86.9860213463696,4,1,0,80,0,0
61938,-86.0527434475138,4,1,0,80,0,0
62088,-85.1393518341145,4,1,0,80,0,0
62392,-83.3693905947656,4,1,0,85,0,1
80392,-83.3333333333333,4,1,0,80,0,0
80688,-86.936942027839,4,1,0,80,0,0
80988,-90.8663011418259,4,1,0,80,0,0
81138,-92.9672160409353,4,1,0,80,0,0
81288,-95.1676711614358,4,1,0,80,0,0
81588,-99.8965072185216,4,1,0,80,0,0
89988,-100,4,1,0,80,0,0
90138,-101.259157625068,4,1,0,80,0,0
90288,-102.550429173546,4,1,0,80,0,0
90588,-105.23446765566,4,1,0,80,0,0
90888,-108.062663377239,4,1,0,80,0,0
91188,-111.047197279788,4,1,0,80,0,0
99588,-105.263157894737,4,1,0,80,0,0
104088,-105.263157894737,4,1,0,80,0,0
104163,-109.497243406897,4,1,0,80,0,0
104238,-114.086096213368,4,1,0,80,0,0
104388,-124.523541798195,4,1,0,65,0,0
107988,-125,4,1,0,80,0,0
108063,-123.086770018525,4,1,0,80,0,0
108138,-121.231224314134,4,1,0,80,0,0
108213,-119.430650204346,4,1,0,80,0,0
108288,-117.682917500744,4,1,0,80,0,0
108363,-115.985599228,4,1,0,80,0,0
108438,-114.336545046884,4,1,0,80,0,0
108513,-112.733598106977,4,1,0,80,0,0
108588,-111.175098556725,4,1,0,80,0,0
108663,-109.65910274729,4,1,0,80,0,0
108738,-108.183895312608,4,1,0,80,0,0
108813,-106.747738015431,4,1,0,80,0,0
108888,-105.349322551181,4,1,0,80,0,0
108963,-103.987072327168,4,1,0,80,0,0
109038,-102.659602317233,4,1,0,80,0,0
109113,-101.365597327192,4,1,0,80,0,0
109188,-100.103707440909,4,1,0,80,0,0
111588,-100,4,1,0,80,0,0
111738,-96.5714247085716,4,1,0,80,0,0
111888,-93.3701585238552,4,1,0,80,0,0
112038,-90.3743214018142,4,1,0,80,0,0
112188,-87.5647541356833,4,1,0,80,0,0
112338,-84.924608179089,4,1,0,80,0,0
112488,-82.4390075003009,4,1,0,80,0,0
112638,-80,4,1,0,80,0,0
112788,-81.8096289933325,4,1,0,80,0,0
112863,-82.7454955420864,4,1,0,80,0,0
112938,-83.7030216790826,4,1,0,80,0,0
113088,-85.6860582785157,4,1,0,80,0,0
113238,-87.7654135813467,4,1,0,80,0,0
113388,-89.9481988322925,4,1,0,80,0,0
113463,-91.0808196545122,4,1,0,80,0,0
113538,-92.2423279749765,4,1,0,80,0,0
113688,-94.6564538663375,4,1,0,80,0,0
113838,-97.20043312513,4,1,0,80,0,0
113988,-99.8849325576935,4,1,0,80,0,0
121038,-100,4,1,0,80,0,0
121188,-98.1191539381594,4,1,0,80,0,0
121488,-94.5619323920008,4,1,0,80,0,0
121788,-91.2536147838156,4,1,0,80,0,0
122088,-88.1690376790383,4,1,0,80,0,0
122238,-86.7035734877813,4,1,0,80,0,0
122538,-83.9142295876539,4,1,0,80,0,0
122838,-81.2986979200541,4,1,0,80,0,0
122988,-80.0511687070375,4,1,0,80,0,0
123288,-100,4,1,0,80,0,0
123513,-117.647058823529,4,1,0,80,0,0
123963,-104.021470031414,4,1,0,80,0,0
124113,-100.154839381684,4,1,0,80,0,0
124413,-80,4,1,0,80,0,0
124713,-117.647058823529,4,1,0,80,0,0
125163,-104.021470031414,4,1,0,80,0,0
125313,-100.154839381684,4,1,0,80,0,0
125613,-80,4,1,0,80,0,0
125913,-117.647058823529,4,1,0,80,0,0
126363,-104.021470031414,4,1,0,80,0,0
126513,-100.154839381684,4,1,0,80,0,0
126813,-80,4,1,0,80,0,0
127113,-117.647058823529,4,1,0,80,0,0
127563,-104.021470031414,4,1,0,80,0,0
127713,-100.154839381684,4,1,0,80,0,0
128013,-80,4,1,0,80,0,0
128313,-117.647058823529,4,1,0,80,0,0
128763,-104.021470031414,4,1,0,80,0,0
128913,-100.154839381684,4,1,0,80,0,0
129213,-80,4,1,0,80,0,0
129513,-117.647058823529,4,1,0,80,0,0
129963,-104.021470031414,4,1,0,80,0,0
130113,-100.154839381684,4,1,0,80,0,0
130413,-80,4,1,0,80,0,0
130713,-117.647058823529,4,1,0,80,0,0
131163,-104.021470031414,4,1,0,80,0,0
131313,-100.154839381684,4,1,0,80,0,0
131613,-80,4,1,0,80,0,0
131988,-80,4,1,0,80,0,0
132138,-81.2118760999134,4,1,0,80,0,0
132213,-81.8316542841735,4,1,0,80,0,0
132288,-82.4610330388375,4,1,0,80,0,0
132438,-83.749217991677,4,1,0,80,0,0
132588,-85.078216658485,4,1,0,80,0,0
132738,-86.4501493858581,4,1,0,80,0,0
132888,-87.8670536331709,4,1,0,80,0,0
133038,-89.3311774742503,4,1,0,80,0,0
133188,-90.8449213600938,4,1,0,80,0,0
133263,-91.1846342949057,4,1,0,80,0,0
133338,-91.4618530903131,4,1,0,80,0,0
133413,-91.7407626226115,4,1,0,80,0,0
133488,-92.0213784066314,4,1,0,80,0,0
133563,-92.3037161476121,4,1,0,80,0,0
133638,-92.587877469203,4,1,0,80,0,0
133713,-92.8737075462674,4,1,0,80,0,0
133788,-93.161307872969,4,1,0,80,0,0
133863,-93.450694946093,4,1,0,80,0,0
133938,-93.7418854680392,4,1,0,80,0,0
134013,-94.0348963500355,4,1,0,80,0,0
134088,-94.3297447154119,4,1,0,80,0,0
134163,-94.626447902936,4,1,0,80,0,0
134238,-94.9250234702121,4,1,0,80,0,0
134313,-95.2254891971444,4,1,0,80,0,0
134388,-95.5279543452801,4,1,0,80,0,0
134463,-95.8322552204621,4,1,0,80,0,0
134538,-96.1385009700375,4,1,0,80,0,0
134613,-96.4467102991584,4,1,0,80,0,0
134688,-96.7569021536151,4,1,0,80,0,0
134763,-97.0690957237181,4,1,0,80,0,0
134838,-97.3833104482554,4,1,0,80,0,0
134913,-97.6995660185277,4,1,0,80,0,0
134988,-98.0178823824619,4,1,0,80,0,0
135063,-98.3382797488047,4,1,0,80,0,0
135138,-98.6608759309887,4,1,0,80,0,0
135288,-99.3122625816223,4,1,0,80,0,0
135438,-99.9723076707752,4,1,0,80,0,0
152388,-100,4,1,0,80,0,0
152688,-99.4901131700037,4,1,0,80,0,0
152988,-98.9853016725546,4,1,0,80,0,0
153288,-98.4856841209562,4,1,0,80,0,0
153588,-97.9909887486747,4,1,0,80,0,0
153888,-97.5013333307333,4,1,0,80,0,0
154188,-97.0164530202677,4,1,0,80,0,0
154488,-96.5364647188182,4,1,0,80,0,0
154788,-96.0611102358877,4,1,0,80,0,0
155088,-95.5905055686249,4,1,0,80,0,0
155238,-95.3568826690773,4,1,0,80,0,0
155388,-95.1243989327042,4,1,0,80,0,0
155688,-94.6629053938923,4,1,0,80,0,0
155838,-94.4337891652336,4,1,0,80,0,0
155988,-94.2057793361507,4,1,0,80,0,0
156288,-93.7531348704472,4,1,0,80,0,0
156438,-93.528396156357,4,1,0,80,0,0
156588,-93.3047323227187,4,1,0,80,0,0
156888,-92.8606848289785,4,1,0,80,0,0
157038,-92.640199361709,4,1,0,80,0,0
157188,-92.4208438577569,4,1,0,80,0,0
157338,-92.2024396765538,4,1,0,80,0,0
157488,-91.9850653047971,4,1,0,80,0,0
157638,-91.768713476052,4,1,0,80,0,0
157788,-91.5534608123722,4,1,0,80,0,0
157938,-91.3391321503698,4,1,0,80,0,0
158088,-91.125804640855,4,1,0,80,0,0
158238,-90.9134712854347,4,1,0,80,0,0
158388,-90.702207419622,4,1,0,80,0,0
158538,-90.4918412555924,4,1,0,80,0,0
158688,-90.282448640572,4,1,0,80,0,0
158838,-90.0740228319633,4,1,0,80,0,0
158988,-89.8666379093425,4,1,0,80,0,0
159138,-89.6601253627873,4,1,0,80,0,0
159288,-89.454559767275,4,1,0,80,0,0
159438,-89.2500142800023,4,1,0,80,0,0
159588,-89.0463227875773,4,1,0,80,0,0
159663,-88.9447857453529,4,1,0,80,0,0
159738,-88.8435589308211,4,1,0,80,0,0
159813,-88.7425622640003,4,1,0,80,0,0
159888,-88.6417163872828,4,1,0,80,0,0
159963,-88.5411778455806,4,1,0,80,0,0
160038,-88.4408671096375,4,1,0,80,0,0
160113,-88.3407053651961,4,1,0,80,0,0
160188,-88.2408481004393,4,1,0,80,0,0
160263,-88.1411386424854,4,1,0,80,0,0
160338,-88.0417317808641,4,1,0,80,0,0
160413,-87.9425488916601,4,1,0,80,0,0
160488,-87.8435120538867,4,1,0,80,0,0
160563,-87.7447750180096,4,1,0,80,0,0
160638,-87.6462596958675,4,1,0,80,0,0
160713,-87.5478886951162,4,1,0,80,0,0
160788,-87.4498147375675,4,1,0,80,0,0
160838,-87.3845540809898,4,1,0,80,0,0
160888,-87.3193145084534,4,1,0,80,0,0
160938,-87.254248409355,4,1,0,80,0,0
161013,-87.1568308730413,4,1,0,80,0,0
161088,-87.0595548296723,4,1,0,80,0,0
161138,-86.994875131906,4,1,0,80,0,0
161188,-86.9302914685743,4,1,0,80,0,0
161238,-86.8658036259524,4,1,0,80,0,0
161313,-86.7691757709224,4,1,0,80,0,0
161388,-86.6728377727161,4,1,0,80,0,0
161438,-86.6087311994097,4,1,0,80,0,0
161488,-86.5446444875821,4,1,0,80,0,0
161538,-86.4807273375092,4,1,0,80,0,0
161613,-86.3850284379514,4,1,0,80,0,0
161688,-86.2895411035914,4,1,0,80,0,0
161738,-86.2259257215385,4,1,0,80,0,0
161788,-86.1624783085961,4,1,0,80,0,0
161838,-86.0991241997086,4,1,0,80,0,0
161913,-86.0041935644782,4,1,0,80,0,0
161988,-85.9095458391859,4,1,0,80,0,0
162288,-85.5329558478882,4,1,0,80,0,0
162438,-85.3458598296667,4,1,0,80,0,0
162588,-85.1595805379701,4,1,0,80,0,0
162738,-84.9741126365853,4,1,0,80,0,0
162888,-84.7895227282555,4,1,0,80,0,0
163038,-84.6056614724431,4,1,0,80,0,0
163188,-84.4225958766316,4,1,0,80,0,0
163338,-84.2403207871416,4,1,0,80,0,0
163413,-84.1495134895878,4,1,0,80,0,0
163488,-84.0589017536368,4,1,0,80,0,0
163638,-83.8781920894477,4,1,0,80,0,0
163788,-83.6982577370669,4,1,0,80,0,0
163938,-83.5191634720587,4,1,0,80,0,0
164088,-83.3407645515058,4,1,0,80,0,0
164388,-100,4,1,0,80,0,0
172788,-100,4,1,0,80,0,0
172863,-98.7717730027113,4,1,0,80,0,0
172938,-97.5733507664387,4,1,0,80,0,0
173013,-96.4035684744906,4,1,0,80,0,0
173088,-95.261593097726,4,1,0,80,0,0
173163,-94.1463561594312,4,1,0,80,0,0
173238,-93.0569294377221,4,1,0,80,0,0
173313,-91.9923425574055,4,1,0,80,0,0
173388,-90.9519209955233,4,1,0,80,0,0
173438,-90.2712832604543,4,1,0,80,0,0
173488,-89.6007569471947,4,1,0,80,0,0
173538,-88.9401183970856,4,1,0,80,0,0
173588,-88.2891504994517,4,1,0,80,0,0
173638,-87.6475656326883,4,1,0,80,0,0
173688,-87.0153138250801,4,1,0,80,0,0
173763,-86.0838560058124,4,1,0,80,0,0
173838,-85.1721286133211,4,1,0,80,0,0
173913,-84.2795113136816,4,1,0,80,0,0
173992,-83.4053399434845,4,1,0,85,0,1
201592,-83.3333333333333,4,1,0,80,0,0
201850,-86.936942027839,4,1,0,80,0,0
202150,-90.8663011418259,4,1,0,80,0,0
202300,-92.9672160409353,4,1,0,80,0,0
202450,-95.1676711614358,4,1,0,80,0,0
202750,-99.8965072185216,4,1,0,80,0,0
211188,-100,4,1,0,80,0,0
211338,-96.5714247085716,4,1,0,80,0,0
211488,-93.3701585238552,4,1,0,80,0,0
211788,-87.5647541356833,4,1,0,80,0,0
212088,-82.4390075003009,4,1,0,80,0,0
212238,-80,4,1,0,80,0,0
212388,-66.6666666666667,4,1,0,80,0,0
212425,-100,4,1,0,80,0,0

[HitObjects]
258,193,1192,5,8,0:0:0:0:
258,193,1267,1,8,0:0:0:0:
258,193,1342,1,8,0:0:0:0:
258,193,1417,1,0,0:0:0:0:
258,193,1492,1,8,0:0:0:0:
258,193,1567,1,0,0:0:0:0:
258,193,1642,1,0,0:0:0:0:
258,193,1717,1,0,0:0:0:0:
258,193,1792,1,0,0:0:0:0:
258,193,1867,1,8,0:0:0:0:
258,193,1942,1,8,0:0:0:0:
258,193,2017,1,0,0:0:0:0:
258,193,2092,1,8,0:0:0:0:
218,61,2167,1,0,0:0:0:0:
218,61,2242,1,0,0:0:0:0:
218,61,2317,1,0,0:0:0:0:
244,131,2392,1,8,0:0:0:0:
248,191,2542,1,0,0:0:0:0:
244,131,2692,1,12,0:0:0:0:
248,191,2842,1,8,0:0:0:0:
248,191,2992,1,0,0:0:0:0:
248,191,3142,1,0,0:0:0:0:
244,131,3292,1,12,0:0:0:0:
248,191,3442,1,0,0:0:0:0:
320,192,3592,1,8,0:0:0:0:
244,131,3892,1,12,0:0:0:0:
320,192,4042,1,0,0:0:0:0:
320,192,4342,1,0,0:0:0:0:
244,131,4492,1,12,0:0:0:0:
228,136,4792,1,8,0:0:0:0:
228,136,4942,1,0,0:0:0:0:
244,131,5092,1,12,0:0:0:0:
228,136,5242,1,0,0:0:0:0:
228,136,5392,1,0,0:0:0:0:
228,136,5542,1,0,0:0:0:0:
244,131,5692,1,12,0:0:0:0:
195,143,5842,1,8,0:0:0:0:
195,143,5992,1,0,0:0:0:0:
244,131,6292,1,8,0:0:0:0:
195,143,6442,1,0,0:0:0:0:
244,131,6592,1,8,0:0:0:0:
195,143,6742,1,8,0:0:0:0:
195,143,6892,1,8,0:0:0:0:
195,143,7042,1,0,0:0:0:0:
228,142,7192,1,8,0:0:0:0:
244,131,7492,1,12,0:0:0:0:
228,142,7642,1,0,0:0:0:0:
228,142,7792,1,0,0:0:0:0:
228,142,7942,1,0,0:0:0:0:
244,131,8092,1,12,0:0:0:0:
228,142,8242,1,8,0:0:0:0:
228,142,8392,1,0,0:0:0:0:
228,142,8542,1,0,0:0:0:0:
244,131,8692,1,12,0:0:0:0:
228,142,8842,1,0,0:0:0:0:
228,142,8992,1,0,0:0:0:0:
228,142,9142,1,0,0:0:0:0:
244,131,9292,1,12,0:0:0:0:
228,142,9442,1,8,0:0:0:0:
228,142,9592,1,0,0:0:0:0:
244,131,9892,1,12,0:0:0:0:
227,144,10192,1,0,0:0:0:0:
228,142,10342,1,0,0:0:0:0:
244,131,10492,1,12,0:0:0:0:
244,131,10792,5,0,0:0:0:0:
244,131,10942,1,12,0:0:0:0:
244,131,11092,1,12,0:0:0:0:
244,131,11392,1,12,0:0:0:0:
244,131,11692,1,12,0:0:0:0:
244,131,11992,1,0,0:0:0:0:
227,144,12292,1,8,0:0:0:0:
227,144,12592,1,0,0:0:0:0:
227,144,12892,1,8,0:0:0:0:
227,144,13042,1,0,0:0:0:0:
227,144,13192,1,8,0:0:0:0:
227,144,13492,1,8,0:0:0:0:
227,144,13792,1,0,0:0:0:0:
227,144,14092,1,8,0:0:0:0:
227,144,14242,1,8,0:0:0:0:
227,144,14392,1,0,0:0:0:0:
227,144,14692,1,8,0:0:0:0:
227,144,14992,1,0,0:0:0:0:
227,144,15292,1,8,0:0:0:0:
227,144,15442,1,0,0:0:0:0:
231,146,15592,1,8,0:0:0:0:
174,128,15667,1,8,0:0:0:0:
231,146,15742,1,0,0:0:0:0:
231,146,15892,1,12,0:0:0:0:
227,144,16042,1,0,0:0:0:0:
231,146,16192,1,8,0:0:0:0:
174,128,16267,1,0,0:0:0:0:
231,146,16342,1,0,0:0:0:0:
231,146,16492,1,12,0:0:0:0:
231,146,16792,1,0,0:0:0:0:
227,144,17092,1,8,0:0:0:0:
231,146,17392,1,8,0:0:0:0:
231,146,17692,1,0,0:0:0:0:
227,144,17842,1,0,0:0:0:0:
227,144,17992,1,8,0:0:0:0:
223,152,18292,1,8,0:0:0:0:
223,152,18592,1,0,0:0:0:0:
223,152,18892,1,8,0:0:0:0:
223,152,19042,5,0,0:0:0:0:
231,146,19192,1,12,0:0:0:0:
231,146,19492,1,12,0:0:0:0:
231,146,19792,1,12,0:0:0:0:
231,146,20092,1,12,0:0:0:0:
231,146,20242,1,4,0:0:0:0:
231,146,20392,5,8,0:0:0:0:
174,128,20467,1,8,0:0:0:0:
231,146,20542,1,0,0:0:0:0:
231,146,20692,1,12,0:0:0:0:
223,152,20842,1,0,0:0:0:0:
231,146,20992,1,8,0:0:0:0:
174,128,21067,1,0,0:0:0:0:
231,146,21142,1,0,0:0:0:0:
231,146,21292,1,12,0:0:0:0:
208,126,21442,1,12,0:0:0:0:
224,122,21592,1,12,0:0:0:0:
199,141,21892,1,8,0:0:0:0:
199,141,22192,1,0,0:0:0:0:
199,141,22492,1,8,0:0:0:0:
199,141,22642,1,0,0:0:0:0:
199,141,22792,1,0,0:0:0:0:
199,141,23092,1,8,0:0:0:0:
207,139,23392,1,0,0:0:0:0:
207,139,23692,1,0,0:0:0:0:
207,139,23842,1,8,0:0:0:0:
207,139,23992,1,0,0:0:0:0:
207,139,24292,1,0,0:0:0:0:
207,139,24592,1,8,0:0:0:0:
207,139,24892,1,8,0:0:0:0:
207,139,25042,1,0,0:0:0:0:
224,122,25192,1,8,0:0:0:0:
174,128,25267,1,8,0:0:0:0:
224,122,25342,1,0,0:0:0:0:
224,122,25492,1,12,0:0:0:0:
207,139,25642,1,0,0:0:0:0:
224,122,25792,1,8,0:0:0:0:
174,128,25867,1,0,0:0:0:0:
224,122,25942,1,0,0:0:0:0:
224,122,26092,1,12,0:0:0:0:
207,139,26392,1,8,0:0:0:0:
207,139,26692,1,0,0:0:0:0:
207,139,26992,1,8,0:0:0:0:
207,139,27292,1,8,0:0:0:0:
207,139,27442,1,0,0:0:0:0:
207,139,27592,1,8,0:0:0:0:
207,139,27892,1,8,0:0:0:0:
207,139,28192,1,0,0:0:0:0:
207,139,28492,1,0,0:0:0:0:
186,131,28642,5,0,0:0:0:0:
184,141,28792,1,12,0:0:0:0:
184,141,29092,1,12,0:0:0:0:
184,141,29392,1,12,0:0:0:0:
184,141,29692,1,12,0:0:0:0:
184,141,29842,1,4,0:0:0:0:
186,131,30142,5,8,0:0:0:0:
186,131,30217,1,8,0:0:0:0:
186,131,30292,1,0,0:0:0:0:
186,131,30442,1,0,0:0:0:0:
186,131,30592,1,8,0:0:0:0:
214,146,31192,5,8,0:0:0:0:
289,132,31342,1,0,0:0:0:0:
289,132,31417,1,0,0:0:0:0:
214,146,31492,1,8,0:0:0:0:
289,132,31642,1,8,0:0:0:0:
289,132,31717,1,8,0:0:0:0:
289,132,31792,1,8,0:0:0:0:
289,132,31942,1,0,0:0:0:0:
289,132,32017,1,0,0:0:0:0:
289,132,32092,1,8,0:0:0:0:
289,132,32242,1,8,0:0:0:0:
289,132,32317,1,8,0:0:0:0:
289,132,32392,1,0,0:0:0:0:
209,118,32542,1,0,0:0:0:0:
203,137,32617,1,0,0:0:0:0:
289,132,32692,1,0,0:0:0:0:
203,137,32842,1,8,0:0:0:0:
203,137,32917,1,8,0:0:0:0:
203,137,32992,1,0,0:0:0:0:
203,137,33142,1,0,0:0:0:0:
236,119,33217,1,0,0:0:0:0:
203,137,33292,1,8,0:0:0:0:
199,130,33367,1,0,0:0:0:0:
203,137,33442,1,8,0:0:0:0:
203,137,33517,1,8,0:0:0:0:
203,137,33592,1,0,0:0:0:0:
203,137,33742,1,8,0:0:0:0:
186,136,33817,1,8,0:0:0:0:
203,137,33892,1,8,0:0:0:0:
203,137,34042,1,0,0:0:0:0:
186,136,34117,1,0,0:0:0:0:
203,137,34192,1,8,0:0:0:0:
203,137,34342,1,0,0:0:0:0:
203,137,34417,1,0,0:0:0:0:
203,137,34492,1,0,0:0:0:0:
203,137,34642,1,8,0:0:0:0:
203,137,34717,1,8,0:0:0:0:
203,137,34792,1,0,0:0:0:0:
186,136,34942,1,8,0:0:0:0:
186,136,35017,1,8,0:0:0:0:
186,136,35092,1,8,0:0:0:0:
186,136,35242,1,0,0:0:0:0:
186,136,35317,1,0,0:0:0:0:
186,136,35392,1,8,0:0:0:0:
186,136,35542,1,0,0:0:0:0:
186,136,35617,1,0,0:0:0:0:
186,136,35692,1,0,0:0:0:0:
186,136,35842,1,8,0:0:0:0:
186,136,35917,1,8,0:0:0:0:
186,136,35992,1,0,0:0:0:0:
186,136,36142,1,0,0:0:0:0:
186,136,36217,1,8,0:0:0:0:
186,136,36292,1,0,0:0:0:0:
186,136,36442,1,8,0:0:0:0:
186,136,36517,1,8,0:0:0:0:
186,136,36592,1,0,0:0:0:0:
186,136,36742,1,0,0:0:0:0:
186,136,36817,1,0,0:0:0:0:
186,136,36892,1,8,0:0:0:0:
186,136,36967,1,8,0:0:0:0:
186,136,37042,1,0,0:0:0:0:
186,136,37192,1,8,0:0:0:0:
186,136,37342,1,0,0:0:0:0:
186,136,37417,1,0,0:0:0:0:
186,136,37492,1,8,0:0:0:0:
186,136,37642,1,0,0:0:0:0:
186,136,37717,1,0,0:0:0:0:
186,136,37792,1,0,0:0:0:0:
186,136,37942,1,8,0:0:0:0:
186,136,38017,1,0,0:0:0:0:
186,136,38092,1,8,0:0:0:0:
186,136,38167,1,8,0:0:0:0:
186,136,38242,1,0,0:0:0:0:
186,136,38392,1,8,0:0:0:0:
186,136,38542,1,0,0:0:0:0:
186,136,38617,1,0,0:0:0:0:
186,136,38692,1,8,0:0:0:0:
186,136,38842,1,0,0:0:0:0:
186,136,38917,1,0,0:0:0:0:
186,136,38992,1,0,0:0:0:0:
186,136,39142,1,8,0:0:0:0:
186,136,39217,1,8,0:0:0:0:
186,136,39292,1,0,0:0:0:0:
186,136,39367,1,0,0:0:0:0:
186,136,39442,1,8,0:0:0:0:
186,136,39592,1,0,0:0:0:0:
186,136,39742,1,12,0:0:0:0:
186,136,39892,1,12,0:0:0:0:
186,136,40042,1,0,0:0:0:0:
186,136,40117,1,0,0:0:0:0:
186,136,40192,1,8,0:0:0:0:
186,136,40267,1,0,0:0:0:0:
186,136,40342,1,0,0:0:0:0:
186,136,40417,1,0,0:0:0:0:
186,136,40492,1,8,0:0:0:0:
186,136,40792,5,0,0:0:0:0:
214,169,41242,1,0,0:0:0:0:
214,169,41392,1,8,0:0:0:0:
218,150,41692,5,12,0:0:0:0:
199,151,41992,5,0,0:0:0:0:
190,155,42442,1,0,0:0:0:0:
190,155,42592,1,8,0:0:0:0:
218,150,42892,1,12,0:0:0:0:
214,142,43192,1,0,0:0:0:0:
214,142,43642,1,0,0:0:0:0:
214,142,43792,1,8,0:0:0:0:
218,150,44092,1,12,0:0:0:0:
188,140,44392,1,0,0:0:0:0:
188,140,44842,1,0,0:0:0:0:
188,140,44992,1,8,0:0:0:0:
218,150,45292,1,12,0:0:0:0:
188,140,45592,1,0,0:0:0:0:
188,140,46042,1,0,0:0:0:0:
188,140,46192,1,8,0:0:0:0:
218,150,46492,1,12,0:0:0:0:
222,147,46792,1,0,0:0:0:0:
222,147,47242,1,0,0:0:0:0:
222,147,47392,1,8,0:0:0:0:
218,150,47692,1,12,0:0:0:0:
222,147,47992,1,0,0:0:0:0:
222,147,48442,1,0,0:0:0:0:
222,147,48592,1,8,0:0:0:0:
218,150,48892,1,12,0:0:0:0:
218,150,49192,1,4,0:0:0:0:
218,150,49492,1,4,0:0:0:0:
218,150,49792,5,4,0:0:0:0:
218,150,49942,1,8,0:0:0:0:
218,150,50017,1,8,0:0:0:0:
218,150,50092,1,4,0:0:0:0:
218,150,50242,1,4,0:0:0:0:
218,150,50392,5,4,0:0:0:0:
185,135,50692,1,8,0:0:0:0:
185,135,50992,1,0,0:0:0:0:
185,135,51142,1,0,0:0:0:0:
218,150,51292,1,12,0:0:0:0:
185,135,51592,5,0,0:0:0:0:
147,124,51742,1,8,0:0:0:0:
147,124,51892,1,8,0:0:0:0:
147,124,52042,1,0,0:0:0:0:
147,124,52192,1,8,0:0:0:0:
122,130,52342,1,0,0:0:0:0:
222,158,52492,1,12,0:0:0:0:
170,126,52792,1,0,0:0:0:0:
170,126,53092,1,8,0:0:0:0:
170,126,53392,1,0,0:0:0:0:
170,126,53542,1,0,0:0:0:0:
221,158,53692,1,12,0:0:0:0:
160,133,53992,1,0,0:0:0:0:
160,133,54142,1,8,0:0:0:0:
160,133,54292,1,0,0:0:0:0:
160,133,54442,1,8,0:0:0:0:
160,132,54592,1,8,0:0:0:0:
160,133,54742,1,0,0:0:0:0:
221,158,54892,1,12,0:0:0:0:
160,133,55192,1,0,0:0:0:0:
160,132,55492,1,0,0:0:0:0:
160,133,55792,1,0,0:0:0:0:
160,133,55942,1,0,0:0:0:0:
221,158,56092,1,12,0:0:0:0:
160,132,56392,1,0,0:0:0:0:
160,133,56542,1,0,0:0:0:0:
160,133,56692,1,8,0:0:0:0:
160,133,56842,1,8,0:0:0:0:
160,132,56992,1,0,0:0:0:0:
160,132,57142,1,0,0:0:0:0:
221,158,57292,1,12,0:0:0:0:
160,133,57592,1,0,0:0:0:0:
160,132,57892,1,8,0:0:0:0:
160,133,58192,1,0,0:0:0:0:
160,133,58342,1,0,0:0:0:0:
221,158,58492,1,12,0:0:0:0:
268,141,58792,1,12,0:0:0:0:
160,133,58942,1,0,0:0:0:0:
268,141,59092,1,12,0:0:0:0:
160,133,59242,1,0,0:0:0:0:
268,141,59392,1,12,0:0:0:0:
188,125,59542,1,0,0:0:0:0:
268,141,59692,1,12,0:0:0:0:
257,147,59992,5,8,0:0:0:0:
188,125,60292,1,8,0:0:0:0:
188,125,60442,1,0,0:0:0:0:
188,125,60592,1,0,0:0:0:0:
188,125,60742,1,8,0:0:0:0:
188,125,60892,1,8,0:0:0:0:
188,125,61042,1,0,0:0:0:0:
257,147,61192,1,12,0:0:0:0:
257,147,61342,1,0,0:0:0:0:
257,147,61417,1,0,0:0:0:0:
257,147,61492,1,8,0:0:0:0:
257,147,61642,1,8,0:0:0:0:
257,147,61792,1,0,0:0:0:0:
257,147,61942,1,0,0:0:0:0:
257,147,62092,1,8,0:0:0:0:
257,147,62392,1,8,0:0:0:0:
211,119,62467,1,0,0:0:0:0:
252,156,62542,1,0,0:0:0:0:
211,119,62617,1,0,0:0:0:0:
257,147,62692,1,8,0:0:0:0:
211,119,62767,1,8,0:0:0:0:
252,156,62842,1,0,0:0:0:0:
252,156,62917,1,0,0:0:0:0:
257,147,62992,1,0,0:0:0:0:
211,119,63067,1,0,0:0:0:0:
211,119,63142,1,8,0:0:0:0:
211,119,63217,1,8,0:0:0:0:
257,147,63292,1,0,0:0:0:0:
211,119,63367,1,0,0:0:0:0:
252,156,63442,1,8,0:0:0:0:
252,156,63517,1,0,0:0:0:0:
257,147,63592,1,8,0:0:0:0:
211,119,63667,1,8,0:0:0:0:
252,156,63742,1,8,0:0:0:0:
211,119,63817,1,8,0:0:0:0:
211,119,63892,1,0,0:0:0:0:
211,119,63967,1,0,0:0:0:0:
252,156,64042,1,8,0:0:0:0:
252,156,64117,1,0,0:0:0:0:
257,147,64192,1,8,0:0:0:0:
211,119,64267,1,8,0:0:0:0:
252,156,64342,1,0,0:0:0:0:
211,119,64417,1,0,0:0:0:0:
257,147,64492,1,8,0:0:0:0:
211,119,64567,1,8,0:0:0:0:
252,156,64642,1,0,0:0:0:0:
211,119,64717,1,0,0:0:0:0:
252,156,64792,1,8,0:0:0:0:
211,119,64867,1,8,0:0:0:0:
257,147,64942,1,8,0:0:0:0:
211,119,65017,1,8,0:0:0:0:
257,147,65092,1,0,0:0:0:0:
211,119,65167,1,8,0:0:0:0:
252,156,65242,1,0,0:0:0:0:
252,156,65317,1,0,0:0:0:0:
252,156,65392,1,0,0:0:0:0:
211,119,65467,1,8,0:0:0:0:
252,156,65542,1,8,0:0:0:0:
211,119,65617,1,0,0:0:0:0:
252,156,65692,1,8,0:0:0:0:
222,129,65842,1,0,0:0:0:0:
252,156,65992,1,12,0:0:0:0:
252,156,66142,1,0,0:0:0:0:
252,156,66292,1,12,0:0:0:0:
252,156,66442,1,0,0:0:0:0:
252,156,66592,1,12,0:0:0:0:
252,156,66742,1,0,0:0:0:0:
252,156,66892,1,12,0:0:0:0:
252,156,67042,1,0,0:0:0:0:
252,156,67192,1,8,0:0:0:0:
241,129,67267,1,8,0:0:0:0:
252,156,67342,1,0,0:0:0:0:
247,126,67417,1,0,0:0:0:0:
252,156,67492,1,8,0:0:0:0:
247,126,67567,1,0,0:0:0:0:
252,156,67642,1,8,0:0:0:0:
252,156,67717,1,8,0:0:0:0:
252,156,67792,1,0,0:0:0:0:
247,126,67867,1,0,0:0:0:0:
252,156,67942,1,0,0:0:0:0:
247,126,68017,1,0,0:0:0:0:
252,156,68092,1,8,0:0:0:0:
247,126,68167,1,0,0:0:0:0:
252,156,68242,1,8,0:0:0:0:
252,156,68317,1,8,0:0:0:0:
252,156,68392,1,8,0:0:0:0:
247,126,68467,1,8,0:0:0:0:
252,156,68542,1,0,0:0:0:0:
247,126,68617,1,0,0:0:0:0:
247,126,68692,1,8,0:0:0:0:
247,126,68767,1,0,0:0:0:0:
247,126,68842,1,8,0:0:0:0:
252,156,68917,1,8,0:0:0:0:
252,156,68992,1,8,0:0:0:0:
247,126,69067,1,0,0:0:0:0:
252,156,69142,1,0,0:0:0:0:
247,126,69217,1,8,0:0:0:0:
252,156,69292,1,8,0:0:0:0:
247,126,69367,1,8,0:0:0:0:
252,156,69442,1,8,0:0:0:0:
252,156,69517,1,0,0:0:0:0:
252,156,69592,1,8,0:0:0:0:
247,126,69667,1,8,0:0:0:0:
252,156,69742,1,0,0:0:0:0:
247,126,69817,1,8,0:0:0:0:
252,156,69892,1,0,0:0:0:0:
247,126,69967,1,0,0:0:0:0:
252,156,70042,1,0,0:0:0:0:
252,156,70117,1,0,0:0:0:0:
252,156,70192,1,8,0:0:0:0:
247,126,70267,1,0,0:0:0:0:
252,156,70342,1,0,0:0:0:0:
247,126,70417,1,0,0:0:0:0:
252,156,70492,1,8,0:0:0:0:
247,126,70567,1,8,0:0:0:0:
252,156,70642,1,8,0:0:0:0:
252,156,70717,1,8,0:0:0:0:
252,156,70792,1,0,0:0:0:0:
252,156,70942,1,12,0:0:0:0:
252,156,71092,1,12,0:0:0:0:
252,156,71392,1,12,0:0:0:0:
252,156,71542,1,0,0:0:0:0:
252,156,71692,1,12,0:0:0:0:
252,156,71842,1,0,0:0:0:0:
226,123,71992,1,8,0:0:0:0:
256,140,72067,1,8,0:0:0:0:
252,156,72142,1,0,0:0:0:0:
256,140,72217,1,0,0:0:0:0:
252,156,72292,1,0,0:0:0:0:
252,156,72367,1,0,0:0:0:0:
252,156,72442,1,8,0:0:0:0:
252,156,72517,1,0,0:0:0:0:
252,156,72592,1,8,0:0:0:0:
250,138,72667,1,8,0:0:0:0:
252,156,72742,1,0,0:0:0:0:
250,138,72817,1,0,0:0:0:0:
252,156,72892,1,8,0:0:0:0:
250,138,72967,1,8,0:0:0:0:
252,156,73042,1,0,0:0:0:0:
250,138,73117,1,0,0:0:0:0:
252,156,73192,1,8,0:0:0:0:
250,138,73267,1,0,0:0:0:0:
252,156,73342,1,0,0:0:0:0:
250,138,73417,1,0,0:0:0:0:
252,156,73492,1,0,0:0:0:0:
250,138,73567,1,8,0:0:0:0:
252,156,73642,1,8,0:0:0:0:
252,156,73717,1,0,0:0:0:0:
252,156,73792,1,8,0:0:0:0:
252,156,73867,1,0,0:0:0:0:
252,156,73942,1,8,0:0:0:0:
252,156,74017,1,8,0:0:0:0:
252,156,74092,1,8,0:0:0:0:
250,138,74167,1,0,0:0:0:0:
252,156,74242,1,8,0:0:0:0:
250,138,74317,1,8,0:0:0:0:
252,156,74392,1,0,0:0:0:0:
250,138,74467,1,0,0:0:0:0:
250,138,74542,1,0,0:0:0:0:
252,156,74617,1,0,0:0:0:0:
252,156,74692,1,8,0:0:0:0:
250,138,74767,1,0,0:0:0:0:
252,156,74842,1,8,0:0:0:0:
250,138,74917,1,8,0:0:0:0:
252,156,74992,1,0,0:0:0:0:
250,138,75067,1,0,0:0:0:0:
252,156,75142,1,0,0:0:0:0:
250,138,75217,1,0,0:0:0:0:
252,156,75292,1,8,0:0:0:0:
252,156,75442,1,0,0:0:0:0:
252,156,75592,1,12,0:0:0:0:
245,154,75742,1,0,0:0:0:0:
252,156,75892,1,12,0:0:0:0:
252,156,76042,1,0,0:0:0:0:
252,156,76192,1,12,0:0:0:0:
252,156,76342,1,0,0:0:0:0:
252,156,76492,1,12,0:0:0:0:
252,156,76642,1,0,0:0:0:0:
252,156,76792,1,8,0:0:0:0:
237,132,76867,1,8,0:0:0:0:
252,156,76942,1,0,0:0:0:0:
237,132,77017,1,0,0:0:0:0:
252,156,77092,1,8,0:0:0:0:
237,132,77167,1,0,0:0:0:0:
252,156,77242,1,0,0:0:0:0:
252,156,77317,1,0,0:0:0:0:
252,156,77392,1,0,0:0:0:0:
237,132,77467,1,8,0:0:0:0:
252,156,77542,1,8,0:0:0:0:
237,132,77617,1,0,0:0:0:0:
237,132,77692,1,8,0:0:0:0:
237,132,77767,1,0,0:0:0:0:
237,132,77842,1,0,0:0:0:0:
252,156,77917,1,0,0:0:0:0:
237,132,77992,1,8,0:0:0:0:
237,132,78067,1,8,0:0:0:0:
252,156,78142,1,0,0:0:0:0:
237,132,78217,1,0,0:0:0:0:
252,156,78292,1,8,0:0:0:0:
237,132,78367,1,0,0:0:0:0:
252,156,78442,1,0,0:0:0:0:
237,132,78517,1,8,0:0:0:0:
237,132,78592,1,8,0:0:0:0:
237,132,78667,1,8,0:0:0:0:
237,132,78742,1,8,0:0:0:0:
237,132,78817,1,0,0:0:0:0:
237,132,78892,1,0,0:0:0:0:
252,156,78967,1,8,0:0:0:0:
237,132,79042,1,8,0:0:0:0:
252,156,79117,1,0,0:0:0:0:
237,132,79192,1,8,0:0:0:0:
237,132,79267,1,8,0:0:0:0:
237,132,79342,1,8,0:0:0:0:
237,132,79417,1,0,0:0:0:0:
237,132,79492,1,8,0:0:0:0:
237,132,79567,1,0,0:0:0:0:
252,156,79642,1,0,0:0:0:0:
252,156,79717,1,0,0:0:0:0:
237,132,79792,1,8,0:0:0:0:
237,132,79867,1,8,0:0:0:0:
237,132,79942,1,8,0:0:0:0:
237,132,80017,1,8,0:0:0:0:
237,132,80092,1,0,0:0:0:0:
237,132,80167,1,0,0:0:0:0:
237,132,80242,1,8,0:0:0:0:
237,132,80317,1,0,0:0:0:0:
252,156,80392,5,8,0:0:0:0:
237,155,80692,1,8,0:0:0:0:
237,155,80992,1,0,0:0:0:0:
237,155,81142,1,0,0:0:0:0:
237,155,81292,1,8,0:0:0:0:
237,155,81592,1,4,0:0:0:0:
241,197,81892,1,12,0:0:0:0:
241,197,82192,1,0,0:0:0:0:
241,197,82342,1,0,0:0:0:0:
241,197,82492,1,12,0:0:0:0:
241,197,82792,1,0,0:0:0:0:
241,197,83092,1,12,0:0:0:0:
218,188,83242,1,0,0:0:0:0:
241,197,83542,1,0,0:0:0:0:
241,197,83692,1,12,0:0:0:0:
241,197,83992,1,0,0:0:0:0:
241,197,84292,1,12,0:0:0:0:
241,197,84592,1,0,0:0:0:0:
241,197,84742,1,0,0:0:0:0:
241,197,84892,1,12,0:0:0:0:
241,197,85042,1,0,0:0:0:0:
241,197,85192,1,0,0:0:0:0:
241,197,85492,1,8,0:0:0:0:
241,197,85642,1,0,0:0:0:0:
241,197,85792,1,8,0:0:0:0:
241,197,85942,1,8,0:0:0:0:
241,197,86092,1,0,0:0:0:0:
241,197,86242,1,0,0:0:0:0:
241,197,86392,1,8,0:0:0:0:
241,197,86542,1,0,0:0:0:0:
241,197,86692,1,12,0:0:0:0:
241,197,86992,1,0,0:0:0:0:
241,197,87142,1,0,0:0:0:0:
241,197,87292,1,12,0:0:0:0:
241,197,87442,1,8,0:0:0:0:
241,197,87592,1,0,0:0:0:0:
241,197,87892,1,12,0:0:0:0:
241,197,88042,1,0,0:0:0:0:
217,158,88342,1,0,0:0:0:0:
217,158,88492,1,12,0:0:0:0:
217,158,88642,1,8,0:0:0:0:
217,158,88792,1,0,0:0:0:0:
217,158,89092,1,12,0:0:0:0:
217,158,89392,1,0,0:0:0:0:
217,158,89542,1,0,0:0:0:0:
217,158,89692,1,12,0:0:0:0:
217,158,89992,5,12,0:0:0:0:
217,158,90142,1,4,0:0:0:0:
217,158,90292,1,4,0:0:0:0:
217,158,90592,1,4,0:0:0:0:
217,158,90892,1,4,0:0:0:0:
227,163,91192,1,12,0:0:0:0:
226,163,91492,1,0,0:0:0:0:
226,163,91792,1,8,0:0:0:0:
227,163,92092,1,8,0:0:0:0:
226,163,92392,1,4,0:0:0:0:
226,163,92692,1,0,0:0:0:0:
202,146,92992,1,8,0:0:0:0:
202,146,93292,1,8,0:0:0:0:
202,146,93592,1,4,0:0:0:0:
211,157,93892,1,4,0:0:0:0:
209,157,94192,1,4,0:0:0:0:
209,157,94492,1,12,0:0:0:0:
211,157,94792,1,4,0:0:0:0:
217,155,95092,1,8,0:0:0:0:
217,155,95242,1,0,0:0:0:0:
166,154,95542,1,0,0:0:0:0:
166,154,95692,1,8,0:0:0:0:
166,154,95842,1,8,0:0:0:0:
166,154,95992,1,0,0:0:0:0:
166,154,96292,1,8,0:0:0:0:
166,154,96442,1,0,0:0:0:0:
166,154,96742,1,0,0:0:0:0:
166,154,96892,1,8,0:0:0:0:
166,154,97042,1,8,0:0:0:0:
166,154,97192,1,0,0:0:0:0:
166,154,97492,1,0,0:0:0:0:
166,154,97642,1,8,0:0:0:0:
166,154,97942,1,8,0:0:0:0:
166,154,98092,1,0,0:0:0:0:
166,154,98242,1,0,0:0:0:0:
166,154,98392,1,8,0:0:0:0:
173,144,98692,1,8,0:0:0:0:
173,144,98992,1,0,0:0:0:0:
165,146,99592,1,12,0:0:0:0:
165,146,99892,1,0,0:0:0:0:
165,146,100042,1,8,0:0:0:0:
165,146,100342,1,0,0:0:0:0:
165,146,100492,1,8,0:0:0:0:
165,146,100642,1,8,0:0:0:0:
165,146,100792,1,0,0:0:0:0:
185,146,101092,1,0,0:0:0:0:
185,146,101242,1,8,0:0:0:0:
185,146,101542,1,0,0:0:0:0:
185,146,101692,1,8,0:0:0:0:
185,146,101842,1,8,0:0:0:0:
185,146,101992,1,0,0:0:0:0:
185,146,102292,1,8,0:0:0:0:
185,146,102442,1,0,0:0:0:0:
196,152,102742,1,0,0:0:0:0:
195,152,102892,1,8,0:0:0:0:
195,152,103042,1,8,0:0:0:0:
195,151,103192,1,4,0:0:0:0:
195,151,103342,1,12,0:0:0:0:
196,152,103492,1,12,0:0:0:0:
195,152,103792,1,4,0:0:0:0:
181,130,104092,5,8,0:0:0:0:
181,130,104167,1,0,0:0:0:0:
181,130,104242,1,0,0:0:0:0:
181,130,104392,1,8,0:0:0:0:
181,130,104692,1,0,0:0:0:0:
141,131,104842,1,0,0:0:0:0:
141,131,104992,1,8,0:0:0:0:
141,131,105292,1,0,0:0:0:0:
141,131,105442,1,8,0:0:0:0:
141,131,105592,1,0,0:0:0:0:
141,131,105892,1,0,0:0:0:0:
141,131,106192,1,8,0:0:0:0:
141,131,106492,1,0,0:0:0:0:
141,131,106642,1,0,0:0:0:0:
141,131,106792,1,8,0:0:0:0:
141,131,107092,1,8,0:0:0:0:
141,131,107242,1,0,0:0:0:0:
141,131,107392,1,0,0:0:0:0:
150,138,107692,1,0,0:0:0:0:
149,138,107842,1,0,0:0:0:0:
149,138,107992,5,8,0:0:0:0:
149,138,108067,1,0,0:0:0:0:
149,138,108142,1,0,0:0:0:0:
149,138,108217,1,0,0:0:0:0:
149,138,108292,1,8,0:0:0:0:
149,138,108367,1,8,0:0:0:0:
150,138,108442,1,0,0:0:0:0:
150,138,108517,1,0,0:0:0:0:
150,138,108592,1,8,0:0:0:0:
150,138,108667,1,0,0:0:0:0:
291,151,108742,1,0,0:0:0:0:
291,151,108817,1,0,0:0:0:0:
291,151,108892,1,8,0:0:0:0:
291,151,108967,1,8,0:0:0:0:
291,151,109042,1,8,0:0:0:0:
291,151,109117,1,8,0:0:0:0:
291,151,109192,1,0,0:0:0:0:
247,166,109342,1,0,0:0:0:0:
247,166,109492,1,8,0:0:0:0:
247,166,109642,1,0,0:0:0:0:
247,166,109792,1,8,0:0:0:0:
247,166,109942,1,0,0:0:0:0:
247,166,110092,1,8,0:0:0:0:
247,166,110242,1,8,0:0:0:0:
247,166,110392,1,0,0:0:0:0:
247,166,110542,1,0,0:0:0:0:
247,166,110692,1,8,0:0:0:0:
247,166,110842,1,0,0:0:0:0:
247,166,110992,1,8,0:0:0:0:
247,166,111142,1,8,0:0:0:0:
247,166,111292,1,0,0:0:0:0:
247,166,111442,1,0,0:0:0:0:
247,166,111592,1,12,0:0:0:0:
247,166,111742,1,0,0:0:0:0:
247,166,111892,1,12,0:0:0:0:
247,166,112042,1,0,0:0:0:0:
247,166,112192,1,12,0:0:0:0:
247,166,112342,1,0,0:0:0:0:
247,166,112492,1,12,0:0:0:0:
247,166,112642,5,4,0:0:0:0:
247,166,112792,1,8,0:0:0:0:
213,125,112867,1,0,0:0:0:0:
213,125,112942,1,0,0:0:0:0:
213,125,113092,1,12,0:0:0:0:
213,125,113242,1,0,0:0:0:0:
213,125,113392,1,8,0:0:0:0:
213,125,113467,1,8,0:0:0:0:
213,125,113542,1,0,0:0:0:0:
213,125,113692,1,12,0:0:0:0:
213,125,113842,1,4,0:0:0:0:
213,125,113992,1,12,0:0:0:0:
247,166,114142,1,0,0:0:0:0:
247,166,114292,1,8,0:0:0:0:
247,166,114442,1,8,0:0:0:0:
247,166,114592,1,0,0:0:0:0:
247,166,114742,1,0,0:0:0:0:
247,166,114892,1,8,0:0:0:0:
247,166,115042,1,0,0:0:0:0:
247,166,115192,1,8,0:0:0:0:
247,166,115342,1,8,0:0:0:0:
247,166,115492,1,0,0:0:0:0:
247,166,115642,1,0,0:0:0:0:
247,166,115792,1,8,0:0:0:0:
247,166,115942,1,0,0:0:0:0:
247,166,116092,1,8,0:0:0:0:
247,166,116242,1,8,0:0:0:0:
247,166,116392,1,0,0:0:0:0:
247,166,116542,1,0,0:0:0:0:
247,166,116692,1,8,0:0:0:0:
247,166,116842,1,0,0:0:0:0:
247,166,116992,1,8,0:0:0:0:
247,166,117142,1,8,0:0:0:0:
247,166,117292,1,0,0:0:0:0:
247,166,117442,1,0,0:0:0:0:
247,166,117592,1,8,0:0:0:0:
222,161,117667,1,0,0:0:0:0:
222,161,117742,1,0,0:0:0:0:
222,161,117892,1,12,0:0:0:0:
222,161,118042,1,0,0:0:0:0:
222,161,118192,1,8,0:0:0:0:
222,161,118267,1,8,0:0:0:0:
222,161,118342,1,0,0:0:0:0:
247,166,118492,1,12,0:0:0:0:
247,166,118642,1,4,0:0:0:0:
247,166,118792,1,12,0:0:0:0:
247,166,118942,1,0,0:0:0:0:
247,166,119092,1,8,0:0:0:0:
247,166,119242,1,0,0:0:0:0:
247,166,119392,1,8,0:0:0:0:
247,166,119542,1,8,0:0:0:0:
247,166,119692,1,4,0:0:0:0:
247,166,119842,1,0,0:0:0:0:
247,166,119992,1,12,0:0:0:0:
247,166,120142,1,0,0:0:0:0:
247,166,120292,1,8,0:0:0:0:
247,166,120442,1,0,0:0:0:0:
247,166,120592,1,8,0:0:0:0:
247,166,120742,1,0,0:0:0:0:
247,166,120892,1,8,0:0:0:0:
247,166,121042,5,8,0:0:0:0:
203,163,121192,1,4,0:0:0:0:
203,163,121492,1,4,0:0:0:0:
203,163,121792,1,4,0:0:0:0:
203,163,122092,1,12,0:0:0:0:
203,163,122242,1,4,0:0:0:0:
203,163,122542,1,4,0:0:0:0:
203,163,122842,1,4,0:0:0:0:
203,163,122992,1,12,0:0:0:0:
203,163,123292,1,12,0:0:0:0:
203,163,123592,1,0,0:0:0:0:
203,163,124042,1,0,0:0:0:0:
203,163,124192,1,8,0:0:0:0:
203,163,124492,1,12,0:0:0:0:
203,163,124792,1,0,0:0:0:0:
203,163,125242,1,0,0:0:0:0:
203,163,125392,1,0,0:0:0:0:
203,163,125692,1,12,0:0:0:0:
182,149,125992,1,0,0:0:0:0:
182,150,126442,1,0,0:0:0:0:
182,150,126592,1,8,0:0:0:0:
182,149,126892,1,12,0:0:0:0:
182,150,127192,1,0,0:0:0:0:
182,150,127642,1,0,0:0:0:0:
178,152,127792,1,0,0:0:0:0:
182,150,128092,1,12,0:0:0:0:
182,150,128392,1,0,0:0:0:0:
182,150,128842,1,0,0:0:0:0:
182,150,128992,1,8,0:0:0:0:
182,150,129292,1,12,0:0:0:0:
182,150,129592,1,0,0:0:0:0:
168,151,130042,1,0,0:0:0:0:
168,151,130192,1,0,0:0:0:0:
161,159,130492,1,12,0:0:0:0:
161,159,130792,1,0,0:0:0:0:
161,159,131242,1,0,0:0:0:0:
161,159,131392,1,8,0:0:0:0:
161,159,131692,1,12,0:0:0:0:
161,159,131992,1,12,0:0:0:0:
161,159,132142,1,0,0:0:0:0:
161,159,132217,1,0,0:0:0:0:
161,159,132292,1,12,0:0:0:0:
161,159,132442,1,0,0:0:0:0:
161,159,132592,1,12,0:0:0:0:
161,159,132742,1,0,0:0:0:0:
161,159,132892,1,12,0:0:0:0:
156,147,133042,1,0,0:0:0:0:
156,147,133192,5,8,0:0:0:0:
137,130,133267,1,0,0:0:0:0:
137,130,133342,1,0,0:0:0:0:
137,130,133417,1,0,0:0:0:0:
137,130,133492,1,8,0:0:0:0:
137,130,133567,1,0,0:0:0:0:
137,130,133642,1,8,0:0:0:0:
137,130,133717,1,8,0:0:0:0:
137,130,133792,1,0,0:0:0:0:
137,130,133867,1,0,0:0:0:0:
137,130,133942,1,0,0:0:0:0:
137,130,134017,1,0,0:0:0:0:
137,130,134092,1,8,0:0:0:0:
137,130,134167,1,0,0:0:0:0:
137,130,134242,1,8,0:0:0:0:
137,130,134317,1,8,0:0:0:0:
159,157,134392,1,8,0:0:0:0:
137,130,134467,1,8,0:0:0:0:
137,130,134542,1,0,0:0:0:0:
137,130,134617,1,0,0:0:0:0:
137,130,134692,1,8,0:0:0:0:
137,130,134767,1,0,0:0:0:0:
137,130,134842,1,0,0:0:0:0:
137,130,134917,1,0,0:0:0:0:
137,130,134992,1,8,0:0:0:0:
137,130,135067,1,8,0:0:0:0:
137,130,135142,1,0,0:0:0:0:
137,130,135292,1,8,0:0:0:0:
155,151,135442,1,0,0:0:0:0:
155,151,135742,1,0,0:0:0:0:
155,151,135892,1,8,0:0:0:0:
155,151,136042,1,0,0:0:0:0:
155,151,136192,1,8,0:0:0:0:
155,151,136342,1,8,0:0:0:0:
155,151,136492,1,0,0:0:0:0:
155,151,136642,1,0,0:0:0:0:
155,151,136792,1,12,0:0:0:0:
155,151,136942,1,8,0:0:0:0:
155,151,137092,1,0,0:0:0:0:
155,151,137242,1,0,0:0:0:0:
206,137,137692,1,0,0:0:0:0:
206,137,137992,1,12,0:0:0:0:
213,133,138292,1,0,0:0:0:0:
213,133,138442,1,0,0:0:0:0:
213,133,138592,1,8,0:0:0:0:
213,133,138892,1,8,0:0:0:0:
213,133,139192,1,0,0:0:0:0:
167,136,139642,1,8,0:0:0:0:
167,136,139942,1,8,0:0:0:0:
167,136,140092,1,0,0:0:0:0:
167,136,140242,1,0,0:0:0:0:
167,136,140392,1,12,0:0:0:0:
167,136,140542,1,0,0:0:0:0:
167,136,140692,1,8,0:0:0:0:
167,136,140842,1,8,0:0:0:0:
167,136,140992,1,0,0:0:0:0:
167,136,141142,1,0,0:0:0:0:
167,136,141292,1,8,0:0:0:0:
167,136,141442,1,0,0:0:0:0:
167,136,141592,1,0,0:0:0:0:
167,136,141742,1,12,0:0:0:0:
167,136,141892,1,12,0:0:0:0:
167,136,142042,1,0,0:0:0:0:
167,136,142192,1,12,0:0:0:0:
182,124,142342,1,0,0:0:0:0:
182,124,142492,1,12,0:0:0:0:
182,124,142642,1,0,0:0:0:0:
182,124,142792,1,8,0:0:0:0:
182,124,143092,1,0,0:0:0:0:
182,124,143392,1,8,0:0:0:0:
182,124,143692,1,8,0:0:0:0:
182,124,143992,1,8,0:0:0:0:
182,124,144292,1,0,0:0:0:0:
182,124,144592,1,8,0:0:0:0:
182,124,144892,1,8,0:0:0:0:
182,124,145192,1,8,0:0:0:0:
182,124,145492,1,0,0:0:0:0:
182,124,145642,1,0,0:0:0:0:
182,124,145792,1,8,0:0:0:0:
182,124,146092,1,0,0:0:0:0:
182,124,146167,1,0,0:0:0:0:
182,124,146242,1,0,0:0:0:0:
182,124,146392,1,8,0:0:0:0:
182,124,146692,1,0,0:0:0:0:
182,124,146842,1,0,0:0:0:0:
182,124,146992,1,8,0:0:0:0:
182,124,147292,1,0,0:0:0:0:
182,124,147367,1,0,0:0:0:0:
182,124,147442,1,0,0:0:0:0:
182,124,147592,1,12,0:0:0:0:
182,124,147892,1,0,0:0:0:0:
182,124,148192,1,0,0:0:0:0:
182,124,148792,1,8,0:0:0:0:
182,124,149092,1,0,0:0:0:0:
182,124,149392,1,0,0:0:0:0:
182,124,149992,1,8,0:0:0:0:
182,124,150292,1,8,0:0:0:0:
182,124,150442,1,0,0:0:0:0:
176,121,150892,1,0,0:0:0:0:
176,121,151192,1,12,0:0:0:0:
176,121,151492,1,8,0:0:0:0:
176,121,151642,1,0,0:0:0:0:
176,121,152092,1,0,0:0:0:0:
191,152,152392,5,12,0:0:0:0:
191,152,152692,1,0,0:0:0:0:
191,152,152992,1,8,0:0:0:0:
191,152,153292,1,0,0:0:0:0:
191,152,153592,1,8,0:0:0:0:
191,152,153892,1,0,0:0:0:0:
191,152,154192,1,8,0:0:0:0:
191,152,154492,1,0,0:0:0:0:
191,152,154792,1,8,0:0:0:0:
191,152,155092,1,0,0:0:0:0:
191,152,155242,1,0,0:0:0:0:
191,152,155392,1,8,0:0:0:0:
191,152,155692,1,8,0:0:0:0:
191,152,155842,1,0,0:0:0:0:
191,152,155992,1,8,0:0:0:0:
191,152,156292,1,0,0:0:0:0:
191,152,156442,1,0,0:0:0:0:
191,152,156592,1,8,0:0:0:0:
191,152,156892,1,8,0:0:0:0:
191,152,157042,1,0,0:0:0:0:
191,152,157192,1,12,0:0:0:0:
191,152,157342,1,8,0:0:0:0:
191,152,157492,1,0,0:0:0:0:
191,152,157642,1,0,0:0:0:0:
191,152,157792,1,8,0:0:0:0:
191,152,157942,1,0,0:0:0:0:
191,152,158092,1,8,0:0:0:0:
191,152,158242,1,0,0:0:0:0:
191,152,158392,1,12,0:0:0:0:
191,152,158542,1,0,0:0:0:0:
206,153,158692,1,8,0:0:0:0:
206,152,158842,1,0,0:0:0:0:
206,152,158992,1,8,0:0:0:0:
206,152,159142,1,8,0:0:0:0:
206,152,159292,1,0,0:0:0:0:
206,152,159442,1,0,0:0:0:0:
206,153,159592,1,8,0:0:0:0:
206,153,159667,5,0,0:0:0:0:
206,152,159742,1,8,0:0:0:0:
206,152,159817,1,8,0:0:0:0:
206,152,159892,1,8,0:0:0:0:
206,152,159967,1,0,0:0:0:0:
206,152,160042,1,0,0:0:0:0:
206,152,160117,1,8,0:0:0:0:
206,152,160192,1,0,0:0:0:0:
206,152,160267,1,0,0:0:0:0:
206,152,160342,1,0,0:0:0:0:
206,152,160417,1,0,0:0:0:0:
206,153,160492,1,8,0:0:0:0:
206,153,160567,1,8,0:0:0:0:
206,153,160642,1,0,0:0:0:0:
206,152,160717,1,0,0:0:0:0:
244,145,160792,5,8,0:0:0:0:
244,145,160842,1,8,0:0:0:0:
244,145,160892,1,8,0:0:0:0:
244,145,160942,1,0,0:0:0:0:
244,145,161017,1,0,0:0:0:0:
244,145,161092,1,8,0:0:0:0:
244,145,161142,1,8,0:0:0:0:
244,145,161192,1,8,0:0:0:0:
244,145,161242,1,0,0:0:0:0:
244,145,161317,1,0,0:0:0:0:
244,145,161392,1,8,0:0:0:0:
244,145,161442,1,0,0:0:0:0:
244,145,161492,1,0,0:0:0:0:
244,145,161542,1,8,0:0:0:0:
244,145,161617,1,0,0:0:0:0:
244,145,161692,1,8,0:0:0:0:
244,145,161742,1,8,0:0:0:0:
244,145,161792,1,8,0:0:0:0:
244,145,161842,1,0,0:0:0:0:
244,145,161917,1,0,0:0:0:0:
244,145,161992,1,8,0:0:0:0:
244,145,162292,1,0,0:0:0:0:
244,145,162442,1,0,0:0:0:0:
244,145,162592,1,8,0:0:0:0:
244,145,162742,1,8,0:0:0:0:
244,145,162892,1,0,0:0:0:0:
244,145,163042,1,0,0:0:0:0:
244,145,163192,1,12,0:0:0:0:
212,156,163342,1,8,0:0:0:0:
212,156,163417,1,0,0:0:0:0:
244,145,163492,1,0,0:0:0:0:
212,156,163642,1,0,0:0:0:0:
244,145,163792,1,0,0:0:0:0:
195,140,163942,1,0,0:0:0:0:
244,145,164092,1,12,0:0:0:0:
244,145,164392,1,0,0:0:0:0:
244,145,165592,1,0,0:0:0:0:
262,149,166792,1,8,0:0:0:0:
262,149,167992,1,0,0:0:0:0:
262,149,169192,1,8,0:0:0:0:
262,149,170392,1,0,0:0:0:0:
260,149,171592,1,8,0:0:0:0:
261,149,172792,5,8,0:0:0:0:
261,149,172867,1,8,0:0:0:0:
261,149,172942,1,8,0:0:0:0:
261,149,173017,1,8,0:0:0:0:
261,149,173092,1,0,0:0:0:0:
261,149,173167,1,0,0:0:0:0:
261,149,173242,1,8,0:0:0:0:
261,149,173317,1,0,0:0:0:0:
261,149,173392,1,8,0:0:0:0:
149,117,173442,1,8,0:0:0:0:
149,117,173492,1,8,0:0:0:0:
149,117,173542,1,0,0:0:0:0:
149,117,173592,1,0,0:0:0:0:
149,117,173642,1,0,0:0:0:0:
261,149,173692,1,8,0:0:0:0:
173,127,173767,1,0,0:0:0:0:
173,127,173842,1,0,0:0:0:0:
173,127,173917,1,0,0:0:0:0:
257,147,173992,1,8,0:0:0:0:
211,119,174067,1,8,0:0:0:0:
252,156,174142,1,8,0:0:0:0:
211,119,174217,1,8,0:0:0:0:
257,147,174292,1,0,0:0:0:0:
211,119,174367,1,0,0:0:0:0:
252,156,174442,1,8,0:0:0:0:
252,156,174517,1,0,0:0:0:0:
257,147,174592,1,8,0:0:0:0:
211,119,174667,1,8,0:0:0:0:
211,119,174742,1,8,0:0:0:0:
211,119,174817,1,0,0:0:0:0:
257,147,174892,1,0,0:0:0:0:
211,119,174967,1,8,0:0:0:0:
252,156,175042,1,8,0:0:0:0:
252,156,175117,1,8,0:0:0:0:
257,147,175192,1,8,0:0:0:0:
211,119,175267,1,0,0:0:0:0:
252,156,175342,1,0,0:0:0:0:
211,119,175417,1,8,0:0:0:0:
211,119,175492,1,8,0:0:0:0:
211,119,175567,1,0,0:0:0:0:
252,156,175642,1,0,0:0:0:0:
252,156,175717,1,0,0:0:0:0:
257,147,175792,1,8,0:0:0:0:
211,119,175867,1,0,0:0:0:0:
252,156,175942,1,8,0:0:0:0:
211,119,176017,1,8,0:0:0:0:
257,147,176092,1,8,0:0:0:0:
211,119,176167,1,0,0:0:0:0:
252,156,176242,1,0,0:0:0:0:
211,119,176317,1,0,0:0:0:0:
252,156,176392,1,8,0:0:0:0:
211,119,176467,1,0,0:0:0:0:
257,147,176542,1,0,0:0:0:0:
211,119,176617,1,0,0:0:0:0:
257,147,176692,1,0,0:0:0:0:
211,119,176767,1,8,0:0:0:0:
252,156,176842,1,8,0:0:0:0:
252,156,176917,1,0,0:0:0:0:
252,156,176992,1,8,0:0:0:0:
211,119,177067,1,8,0:0:0:0:
252,156,177142,1,0,0:0:0:0:
211,119,177217,1,0,0:0:0:0:
252,156,177292,1,8,0:0:0:0:
222,129,177442,1,0,0:0:0:0:
252,156,177592,1,12,0:0:0:0:
252,156,177742,1,0,0:0:0:0:
252,156,177892,1,12,0:0:0:0:
252,156,178042,1,0,0:0:0:0:
252,156,178192,1,12,0:0:0:0:
252,156,178342,1,0,0:0:0:0:
252,156,178492,1,12,0:0:0:0:
252,156,178642,1,0,0:0:0:0:
252,156,178792,1,8,0:0:0:0:
241,129,178867,1,0,0:0:0:0:
252,156,178942,1,8,0:0:0:0:
247,126,179017,1,8,0:0:0:0:
252,156,179092,1,0,0:0:0:0:
247,126,179167,1,0,0:0:0:0:
252,156,179242,1,0,0:0:0:0:
252,156,179317,1,0,0:0:0:0:
252,156,179392,1,8,0:0:0:0:
247,126,179467,1,8,0:0:0:0:
252,156,179542,1,0,0:0:0:0:
247,126,179617,1,0,0:0:0:0:
252,156,179692,1,8,0:0:0:0:
247,126,179767,1,0,0:0:0:0:
252,156,179842,1,0,0:0:0:0:
252,156,179917,1,0,0:0:0:0:
252,156,179992,1,8,0:0:0:0:
247,126,180067,1,8,0:0:0:0:
252,156,180142,1,8,0:0:0:0:
247,126,180217,1,8,0:0:0:0:
247,126,180292,1,0,0:0:0:0:
247,126,180367,1,0,0:0:0:0:
247,126,180442,1,8,0:0:0:0:
252,156,180517,1,8,0:0:0:0:
252,156,180592,1,0,0:0:0:0:
247,126,180667,1,0,0:0:0:0:
252,156,180742,1,0,0:0:0:0:
247,126,180817,1,0,0:0:0:0:
252,156,180892,1,8,0:0:0:0:
247,126,180967,1,8,0:0:0:0:
252,156,181042,1,8,0:0:0:0:
252,156,181117,1,0,0:0:0:0:
252,156,181192,1,8,0:0:0:0:
247,126,181267,1,8,0:0:0:0:
252,156,181342,1,0,0:0:0:0:
247,126,181417,1,0,0:0:0:0:
252,156,181492,1,8,0:0:0:0:
247,126,181567,1,0,0:0:0:0:
252,156,181642,1,8,0:0:0:0:
252,156,181717,1,8,0:0:0:0:
252,156,181792,1,8,0:0:0:0:
247,126,181867,1,8,0:0:0:0:
252,156,181942,1,0,0:0:0:0:
247,126,182017,1,0,0:0:0:0:
252,156,182092,1,8,0:0:0:0:
247,126,182167,1,8,0:0:0:0:
252,156,182242,1,0,0:0:0:0:
252,156,182317,1,8,0:0:0:0:
252,156,182392,1,0,0:0:0:0:
252,156,182542,1,12,0:0:0:0:
252,156,182692,1,12,0:0:0:0:
252,156,182992,1,0,0:0:0:0:
202,159,183067,1,0,0:0:0:0:
252,156,183142,1,8,0:0:0:0:
202,159,183217,1,0,0:0:0:0:
252,156,183292,1,8,0:0:0:0:
194,160,183342,1,8,0:0:0:0:
203,160,183392,1,8,0:0:0:0:
252,156,183442,1,0,0:0:0:0:
203,160,183492,1,0,0:0:0:0:
203,160,183542,1,0,0:0:0:0:
226,123,183592,1,8,0:0:0:0:
256,140,183667,1,8,0:0:0:0:
252,156,183742,1,8,0:0:0:0:
256,140,183817,1,8,0:0:0:0:
252,156,183892,1,0,0:0:0:0:
252,156,183967,1,0,0:0:0:0:
252,156,184042,1,8,0:0:0:0:
252,156,184117,1,0,0:0:0:0:
252,156,184192,1,8,0:0:0:0:
250,138,184267,1,8,0:0:0:0:
252,156,184342,1,8,0:0:0:0:
250,138,184417,1,0,0:0:0:0:
252,156,184492,1,8,0:0:0:0:
250,138,184567,1,8,0:0:0:0:
252,156,184642,1,0,0:0:0:0:
250,138,184717,1,0,0:0:0:0:
252,156,184792,1,0,0:0:0:0:
250,138,184867,1,0,0:0:0:0:
252,156,184942,1,8,0:0:0:0:
250,138,185017,1,0,0:0:0:0:
252,156,185092,1,8,0:0:0:0:
250,138,185167,1,0,0:0:0:0:
252,156,185242,1,8,0:0:0:0:
252,156,185317,1,8,0:0:0:0:
252,156,185392,1,0,0:0:0:0:
252,156,185467,1,0,0:0:0:0:
252,156,185542,1,8,0:0:0:0:
252,156,185617,1,8,0:0:0:0:
252,156,185692,1,0,0:0:0:0:
250,138,185767,1,0,0:0:0:0:
252,156,185842,1,8,0:0:0:0:
250,138,185917,1,0,0:0:0:0:
252,156,185992,1,8,0:0:0:0:
250,138,186067,1,8,0:0:0:0:
250,138,186142,1,0,0:0:0:0:
252,156,186217,1,0,0:0:0:0:
252,156,186292,1,0,0:0:0:0:
250,138,186367,1,0,0:0:0:0:
252,156,186442,1,8,0:0:0:0:
250,138,186517,1,0,0:0:0:0:
252,156,186592,1,0,0:0:0:0:
250,138,186667,1,0,0:0:0:0:
252,156,186742,1,8,0:0:0:0:
250,138,186817,1,0,0:0:0:0:
252,156,186892,1,8,0:0:0:0:
252,156,187042,1,0,0:0:0:0:
252,156,187192,1,12,0:0:0:0:
245,154,187342,1,0,0:0:0:0:
252,156,187492,1,12,0:0:0:0:
252,156,187642,1,0,0:0:0:0:
252,156,187792,1,12,0:0:0:0:
252,156,187942,1,0,0:0:0:0:
252,156,188092,1,12,0:0:0:0:
252,156,188242,1,0,0:0:0:0:
252,156,188392,1,8,0:0:0:0:
237,132,188467,1,8,0:0:0:0:
252,156,188542,1,0,0:0:0:0:
237,132,188617,1,0,0:0:0:0:
252,156,188692,1,8,0:0:0:0:
237,132,188767,1,0,0:0:0:0:
252,156,188842,1,0,0:0:0:0:
252,156,188917,1,0,0:0:0:0:
252,156,188992,1,8,0:0:0:0:
237,132,189067,1,8,0:0:0:0:
252,156,189142,1,8,0:0:0:0:
237,132,189217,1,8,0:0:0:0:
237,132,189292,1,0,0:0:0:0:
237,132,189367,1,0,0:0:0:0:
237,132,189442,1,8,0:0:0:0:
252,156,189517,1,0,0:0:0:0:
237,132,189592,1,8,0:0:0:0:
237,132,189667,1,8,0:0:0:0:
252,156,189742,1,8,0:0:0:0:
237,132,189817,1,8,0:0:0:0:
252,156,189892,1,0,0:0:0:0:
237,132,189967,1,0,0:0:0:0:
252,156,190042,1,8,0:0:0:0:
237,132,190117,1,8,0:0:0:0:
237,132,190192,1,0,0:0:0:0:
237,132,190267,1,0,0:0:0:0:
237,132,190342,1,0,0:0:0:0:
237,132,190417,1,0,0:0:0:0:
237,132,190492,1,8,0:0:0:0:
252,156,190567,1,8,0:0:0:0:
237,132,190642,1,0,0:0:0:0:
252,156,190717,1,0,0:0:0:0:
237,132,190792,1,8,0:0:0:0:
237,132,190867,1,0,0:0:0:0:
237,132,190942,1,8,0:0:0:0:
237,132,191017,1,0,0:0:0:0:
237,132,191092,1,8,0:0:0:0:
237,132,191167,1,8,0:0:0:0:
252,156,191242,1,0,0:0:0:0:
252,156,191317,1,0,0:0:0:0:
237,132,191392,1,8,0:0:0:0:
237,132,191467,1,0,0:0:0:0:
237,132,191542,1,0,0:0:0:0:
237,132,191617,1,0,0:0:0:0:
237,132,191692,1,8,0:0:0:0:
237,132,191767,1,8,0:0:0:0:
237,132,191842,1,8,0:0:0:0:
237,132,191917,1,8,0:0:0:0:
252,156,191992,1,0,0:0:0:0:
209,123,192142,1,12,0:0:0:0:
209,123,192292,1,12,0:0:0:0:
209,123,192592,1,12,0:0:0:0:
209,123,192742,1,0,0:0:0:0:
209,123,192892,1,12,0:0:0:0:
229,124,193042,1,0,0:0:0:0:
252,156,193192,1,8,0:0:0:0:
241,129,193267,1,0,0:0:0:0:
252,156,193342,1,0,0:0:0:0:
247,126,193417,1,0,0:0:0:0:
252,156,193492,1,8,0:0:0:0:
247,126,193567,1,0,0:0:0:0:
252,156,193642,1,8,0:0:0:0:
252,156,193717,1,8,0:0:0:0:
252,156,193792,1,0,0:0:0:0:
247,126,193867,1,0,0:0:0:0:
252,156,193942,1,0,0:0:0:0:
247,126,194017,1,0,0:0:0:0:
252,156,194092,1,8,0:0:0:0:
247,126,194167,1,0,0:0:0:0:
252,156,194242,1,8,0:0:0:0:
252,156,194317,1,8,0:0:0:0:
252,156,194392,1,8,0:0:0:0:
247,126,194467,1,8,0:0:0:0:
252,156,194542,1,0,0:0:0:0:
247,126,194617,1,0,0:0:0:0:
247,126,194692,1,8,0:0:0:0:
247,126,194767,1,0,0:0:0:0:
247,126,194842,1,8,0:0:0:0:
252,156,194917,1,8,0:0:0:0:
252,156,194992,1,8,0:0:0:0:
247,126,195067,1,0,0:0:0:0:
252,156,195142,1,0,0:0:0:0:
247,126,195217,1,8,0:0:0:0:
252,156,195292,1,8,0:0:0:0:
247,126,195367,1,8,0:0:0:0:
252,156,195442,1,8,0:0:0:0:
252,156,195517,1,0,0:0:0:0:
252,156,195592,1,8,0:0:0:0:
247,126,195667,1,8,0:0:0:0:
252,156,195742,1,0,0:0:0:0:
247,126,195817,1,8,0:0:0:0:
252,156,195892,1,0,0:0:0:0:
247,126,195967,1,0,0:0:0:0:
252,156,196042,1,0,0:0:0:0:
252,156,196117,1,0,0:0:0:0:
252,156,196192,1,8,0:0:0:0:
247,126,196267,1,8,0:0:0:0:
252,156,196342,1,0,0:0:0:0:
247,126,196417,1,0,0:0:0:0:
252,156,196492,1,8,0:0:0:0:
247,126,196567,1,8,0:0:0:0:
252,156,196642,1,8,0:0:0:0:
252,156,196717,1,0,0:0:0:0:
252,156,196792,1,12,0:0:0:0:
252,156,196942,1,0,0:0:0:0:
252,156,197092,1,12,0:0:0:0:
252,156,197242,1,0,0:0:0:0:
252,156,197392,1,12,0:0:0:0:
252,156,197542,1,0,0:0:0:0:
252,156,197692,1,12,0:0:0:0:
252,156,197842,1,0,0:0:0:0:
252,156,197992,1,8,0:0:0:0:
241,129,198067,1,0,0:0:0:0:
252,156,198142,1,0,0:0:0:0:
247,126,198217,1,0,0:0:0:0:
252,156,198292,1,8,0:0:0:0:
247,126,198367,1,8,0:0:0:0:
252,156,198442,1,0,0:0:0:0:
252,156,198517,1,0,0:0:0:0:
252,156,198592,1,8,0:0:0:0:
247,126,198667,1,8,0:0:0:0:
252,156,198742,1,8,0:0:0:0:
247,126,198817,1,0,0:0:0:0:
252,156,198892,1,8,0:0:0:0:
247,126,198967,1,0,0:0:0:0:
252,156,199042,1,0,0:0:0:0:
252,156,199117,1,0,0:0:0:0:
252,156,199192,1,8,0:0:0:0:
247,126,199267,1,8,0:0:0:0:
252,156,199342,1,8,0:0:0:0:
247,126,199417,1,8,0:0:0:0:
247,126,199492,1,0,0:0:0:0:
247,126,199567,1,0,0:0:0:0:
247,126,199642,1,8,0:0:0:0:
252,156,199717,1,0,0:0:0:0:
252,156,199792,1,8,0:0:0:0:
247,126,199867,1,0,0:0:0:0:
252,156,199942,1,0,0:0:0:0:
247,126,200017,1,0,0:0:0:0:
252,156,200092,1,8,0:0:0:0:
247,126,200167,1,8,0:0:0:0:
252,156,200242,1,0,0:0:0:0:
252,156,200317,1,0,0:0:0:0:
252,156,200392,1,8,0:0:0:0:
247,126,200467,1,8,0:0:0:0:
252,156,200542,1,8,0:0:0:0:
247,126,200617,1,8,0:0:0:0:
252,156,200692,1,0,0:0:0:0:
247,126,200767,1,8,0:0:0:0:
252,156,200842,1,8,0:0:0:0:
252,156,200917,1,8,0:0:0:0:
252,156,200992,1,0,0:0:0:0:
247,126,201067,1,0,0:0:0:0:
252,156,201142,1,8,0:0:0:0:
247,126,201217,1,0,0:0:0:0:
252,156,201292,1,8,0:0:0:0:
247,126,201367,1,8,0:0:0:0:
252,156,201442,1,8,0:0:0:0:
252,156,201517,1,8,0:0:0:0:
252,156,201592,5,0,0:0:0:0:
239,136,201892,1,0,0:0:0:0:
252,156,202192,1,0,0:0:0:0:
252,156,202342,1,0,0:0:0:0:
252,156,202492,1,8,0:0:0:0:
244,131,202792,1,8,0:0:0:0:
248,191,202942,1,0,0:0:0:0:
244,131,203092,1,12,0:0:0:0:
248,191,203242,1,8,0:0:0:0:
248,191,203392,1,0,0:0:0:0:
248,191,203542,1,0,0:0:0:0:
244,131,203692,1,12,0:0:0:0:
248,191,203842,1,0,0:0:0:0:
320,192,203992,1,8,0:0:0:0:
244,131,204292,1,12,0:0:0:0:
320,192,204442,1,0,0:0:0:0:
320,192,204742,1,0,0:0:0:0:
244,131,204892,1,12,0:0:0:0:
228,136,205192,1,8,0:0:0:0:
228,136,205342,1,0,0:0:0:0:
244,131,205492,1,12,0:0:0:0:
228,136,205642,1,0,0:0:0:0:
228,136,205792,1,0,0:0:0:0:
228,136,205942,1,0,0:0:0:0:
244,131,206092,1,12,0:0:0:0:
195,143,206242,1,8,0:0:0:0:
195,143,206392,1,0,0:0:0:0:
244,131,206692,1,8,0:0:0:0:
195,143,206842,1,0,0:0:0:0:
244,131,206992,1,8,0:0:0:0:
195,143,207142,1,8,0:0:0:0:
195,143,207292,1,8,0:0:0:0:
195,143,207442,1,0,0:0:0:0:
228,142,207592,1,8,0:0:0:0:
244,131,207892,1,12,0:0:0:0:
228,142,208042,1,0,0:0:0:0:
228,142,208192,1,0,0:0:0:0:
228,142,208342,1,0,0:0:0:0:
244,131,208492,1,12,0:0:0:0:
228,142,208642,1,8,0:0:0:0:
228,142,208792,1,0,0:0:0:0:
228,142,208942,1,0,0:0:0:0:
244,131,209092,1,12,0:0:0:0:
228,142,209242,1,0,0:0:0:0:
228,142,209392,1,0,0:0:0:0:
228,142,209542,1,0,0:0:0:0:
244,131,209692,1,12,0:0:0:0:
228,142,209842,1,8,0:0:0:0:
228,142,209992,1,0,0:0:0:0:
244,131,210292,1,12,0:0:0:0:
227,144,210592,1,0,0:0:0:0:
228,142,210742,1,0,0:0:0:0:
244,131,210892,1,12,0:0:0:0:
180,147,211192,5,0,0:0:0:0:
180,147,211342,1,12,0:0:0:0:
180,147,211492,1,12,0:0:0:0:
180,147,211792,1,4,0:0:0:0:
164,143,212092,1,12,0:0:0:0:
164,143,212242,1,4,0:0:0:0:
256,192,212392,12,0,214792,0:0:0:0:
