osu file format v14

[General]
AudioFilename: audio.mp3
AudioLeadIn: 0
PreviewTime: 139264
Countdown: 0
SampleSet: Normal
StackLeniency: 0.2
Mode: 1
LetterboxInBreaks: 0
WidescreenStoryboard: 1

[Editor]
Bookmarks: 44319,65418,86517,89319,107616,139264,160363,181462,223660,244759,265858,286957
DistanceSpacing: 0.7
BeatDivisor: 4
GridSize: 32
TimelineZoom: 3.099999

[Metadata]
Title:Clarity (feat. Foxes) (kamome sano remix)
TitleUnicode:Clarity (feat. Foxes) (kamome sano remix)
Artist:Zedd
ArtistUnicode:Zedd
Creator:Jaye
Version:Ambivalence
Source:
Tags:Niko-nyan frans_niko anton zaslavski zaslavsky dnb d&b drum n and bass
BeatmapID:1135706
BeatmapSetID:536252

[Difficulty]
HPDrainRate:5
CircleSize:2
OverallDifficulty:6
ApproachRate:10
SliderMultiplier:1.4
SliderTickRate:1

[Events]
//Background and Video events
0,0,"guardian_by_erisiar-da47mes.jpg",0,0
//Break Periods
//Storyboard Layer 0 (Background)
//Storyboard Layer 1 (Fail)
//Storyboard Layer 2 (Pass)
//Storyboard Layer 3 (Foreground)
//Storyboard Sound Samples

[TimingPoints]
2122,329.67032967033,4,1,0,40,1,0
64100,-100,4,1,0,70,0,0
139264,-100,4,1,0,70,0,1
160363,-100,4,1,0,70,0,0
244759,-100,4,1,0,70,0,1
265858,-100,4,1,0,70,0,0

[HitObjects]
256,192,2122,5,0,0:0:0:0:
256,192,2781,1,0,0:0:0:0:
256,192,3440,1,8,0:0:0:0:
256,192,4100,1,0,0:0:0:0:
256,192,4759,1,0,0:0:0:0:
256,192,5418,1,0,0:0:0:0:
256,192,6078,1,8,0:0:0:0:
256,192,6737,1,0,0:0:0:0:
256,192,7396,1,0,0:0:0:0:
256,192,7726,1,8,0:0:0:0:
256,192,8056,1,8,0:0:0:0:
256,192,8385,1,0,0:0:0:0:
256,192,8550,1,0,0:0:0:0:
256,192,8715,1,8,0:0:0:0:
256,192,9045,1,8,0:0:0:0:
256,192,9374,1,0,0:0:0:0:
256,192,10034,1,0,0:0:0:0:
256,192,10363,1,0,0:0:0:0:
256,192,10693,1,8,0:0:0:0:
256,192,11023,1,8,0:0:0:0:
256,192,11187,1,0,0:0:0:0:
256,192,12012,1,0,0:0:0:0:
256,192,12671,1,0,0:0:0:0:
256,192,13001,1,8,0:0:0:0:
256,192,13330,1,8,0:0:0:0:
256,192,13660,1,8,0:0:0:0:
256,192,13825,1,0,0:0:0:0:
256,192,13990,1,8,0:0:0:0:
256,192,14319,1,8,0:0:0:0:
256,192,14649,1,0,0:0:0:0:
256,192,15308,1,8,0:0:0:0:
256,192,15638,1,0,0:0:0:0:
256,192,15968,1,8,0:0:0:0:
256,192,16297,1,0,0:0:0:0:
256,192,16462,1,0,0:0:0:0:
256,192,17286,1,0,0:0:0:0:
256,192,17946,1,0,0:0:0:0:
256,192,18111,1,0,0:0:0:0:
256,192,18275,1,8,0:0:0:0:
256,192,18605,1,8,0:0:0:0:
256,192,18935,1,8,0:0:0:0:
256,192,19100,1,8,0:0:0:0:
256,192,19264,1,8,0:0:0:0:
256,192,19594,1,0,0:0:0:0:
256,192,19924,1,0,0:0:0:0:
256,192,20583,1,0,0:0:0:0:
256,192,20913,1,8,0:0:0:0:
256,192,21242,1,0,0:0:0:0:
256,192,21572,1,8,0:0:0:0:
256,192,21737,1,0,0:0:0:0:
256,192,22561,1,0,0:0:0:0:
256,192,23220,1,0,0:0:0:0:
256,192,23385,1,0,0:0:0:0:
256,192,23550,1,8,0:0:0:0:
256,192,23880,1,8,0:0:0:0:
256,192,24374,1,0,0:0:0:0:
256,192,24539,1,8,0:0:0:0:
256,192,24869,1,8,0:0:0:0:
256,192,25198,1,8,0:0:0:0:
256,192,25858,1,0,0:0:0:0:
256,192,26187,1,8,0:0:0:0:
256,192,26352,1,0,0:0:0:0:
256,192,26517,1,8,0:0:0:0:
256,192,26847,1,0,0:0:0:0:
256,192,27012,1,0,0:0:0:0:
256,192,27176,1,0,0:0:0:0:
256,192,27506,1,0,0:0:0:0:
256,192,27836,1,8,0:0:0:0:
256,192,28165,1,8,0:0:0:0:
256,192,28825,1,8,0:0:0:0:
256,192,29154,1,8,0:0:0:0:
256,192,29649,1,0,0:0:0:0:
256,192,29814,1,8,0:0:0:0:
256,192,30143,1,8,0:0:0:0:
256,192,30473,1,0,0:0:0:0:
256,192,31132,1,0,0:0:0:0:
256,192,31462,1,8,0:0:0:0:
256,192,31792,1,8,0:0:0:0:
256,192,32122,1,8,0:0:0:0:
256,192,32286,1,0,0:0:0:0:
256,192,32451,1,0,0:0:0:0:
256,192,32781,1,0,0:0:0:0:
256,192,33111,1,8,0:0:0:0:
256,192,33440,1,8,0:0:0:0:
256,192,34100,1,0,0:0:0:0:
256,192,34429,1,8,0:0:0:0:
256,192,34759,1,0,0:0:0:0:
256,192,34924,1,8,0:0:0:0:
256,192,35089,1,0,0:0:0:0:
256,192,35253,1,8,0:0:0:0:
256,192,35418,1,8,0:0:0:0:
256,192,35748,1,0,0:0:0:0:
256,192,36078,1,0,0:0:0:0:
256,192,36407,1,8,0:0:0:0:
256,192,36572,1,0,0:0:0:0:
256,192,36737,1,8,0:0:0:0:
256,192,37067,1,8,0:0:0:0:
256,192,37396,1,8,0:0:0:0:
256,192,37726,1,0,0:0:0:0:
256,192,38056,1,8,0:0:0:0:
256,192,38385,1,0,0:0:0:0:
256,192,38550,1,0,0:0:0:0:
256,192,38715,1,0,0:0:0:0:
256,192,39374,1,8,0:0:0:0:
256,192,39704,1,8,0:0:0:0:
256,192,40034,1,0,0:0:0:0:
256,192,40198,1,8,0:0:0:0:
256,192,40363,1,8,0:0:0:0:
256,192,40528,1,0,0:0:0:0:
256,192,40693,1,8,0:0:0:0:
256,192,41023,1,0,0:0:0:0:
256,192,41352,1,0,0:0:0:0:
256,192,41682,1,8,0:0:0:0:
256,192,41847,1,0,0:0:0:0:
256,192,42012,1,0,0:0:0:0:
256,192,42341,1,8,0:0:0:0:
256,192,42671,1,8,0:0:0:0:
256,192,43001,1,0,0:0:0:0:
256,192,43330,1,0,0:0:0:0:
256,192,43660,1,8,0:0:0:0:
256,192,43825,1,0,0:0:0:0:
256,192,43990,1,8,0:0:0:0:
192,128,44319,2,0,L|352:128,4,140
256,192,46462,1,8,0:0:0:0:
256,192,46627,1,0,0:0:0:0:
256,192,46792,1,0,0:0:0:0:
192,128,46957,2,0,L|352:128,4,140
256,192,48935,1,8,0:0:0:0:
192,128,49594,2,0,L|352:128,4,140
256,192,51572,1,0,0:0:0:0:
192,128,52231,2,0,L|352:128,3,140
256,192,53550,1,0,0:0:0:0:
256,192,53880,1,8,0:0:0:0:
256,192,54209,1,8,0:0:0:0:
256,192,54374,1,8,0:0:0:0:
256,192,54457,1,8,0:0:0:0:
256,192,54539,1,0,0:0:0:0:
192,128,54869,2,0,L|352:128,4,140
256,192,57012,1,8,0:0:0:0:
256,192,57176,1,0,0:0:0:0:
256,192,57341,1,0,0:0:0:0:
192,128,57506,2,0,L|352:128,4,140
256,192,59484,1,8,0:0:0:0:
192,128,60143,2,0,L|352:128,4,140
256,192,62781,12,0,63770,0:0:0:0:
256,192,64100,5,0,0:0:0:0:
256,192,64264,1,0,0:0:0:0:
256,192,64429,1,0,0:0:0:0:
256,192,64594,1,8,0:0:0:0:
256,192,64759,1,8,0:0:0:0:
256,192,64924,1,0,0:0:0:0:
256,192,65006,1,8,0:0:0:0:
256,192,65088,1,8,0:0:0:0:
256,192,65143,1,8,0:0:0:0:
256,192,65198,1,8,0:0:0:0:
256,192,65253,1,0,0:0:0:0:
248,300,65418,5,0,0:0:0:0:
248,300,65583,1,0,0:0:0:0:
248,300,65665,1,0,0:0:0:0:
248,300,65748,1,8,0:0:0:0:
256,300,65913,1,0,0:0:0:0:
256,300,66078,1,0,0:0:0:0:
256,296,66242,1,0,0:0:0:0:
256,296,66325,1,0,0:0:0:0:
256,296,66407,1,8,0:0:0:0:
256,296,66572,1,8,0:0:0:0:
256,296,66654,1,8,0:0:0:0:
256,296,66737,1,0,0:0:0:0:
260,300,66902,1,8,0:0:0:0:
256,296,67067,1,8,0:0:0:0:
256,296,67231,1,0,0:0:0:0:
256,296,67314,1,0,0:0:0:0:
256,300,67396,1,0,0:0:0:0:
256,300,67561,1,0,0:0:0:0:
256,296,67726,1,8,0:0:0:0:
256,296,67891,1,8,0:0:0:0:
256,296,67973,1,8,0:0:0:0:
256,296,68056,1,0,0:0:0:0:
256,296,68220,1,0,0:0:0:0:
260,300,68385,1,8,0:0:0:0:
256,296,68550,1,0,0:0:0:0:
256,296,68632,1,0,0:0:0:0:
256,296,68715,1,0,0:0:0:0:
248,300,68880,1,0,0:0:0:0:
248,300,69045,1,8,0:0:0:0:
248,300,69209,1,0,0:0:0:0:
248,300,69292,1,8,0:0:0:0:
248,300,69374,1,0,0:0:0:0:
248,300,69539,1,8,0:0:0:0:
248,300,69704,1,0,0:0:0:0:
248,300,69869,1,8,0:0:0:0:
248,300,69951,1,0,0:0:0:0:
248,300,70034,1,0,0:0:0:0:
248,300,70116,1,0,0:0:0:0:
248,300,70198,1,8,0:0:0:0:
244,304,70281,1,8,0:0:0:0:
248,300,70363,1,0,0:0:0:0:
248,300,70528,1,8,0:0:0:0:
248,300,70693,1,8,0:0:0:0:
248,300,70858,1,0,0:0:0:0:
248,300,70940,1,8,0:0:0:0:
248,300,71023,1,8,0:0:0:0:
248,300,71187,1,8,0:0:0:0:
248,300,71352,1,0,0:0:0:0:
248,300,71517,1,8,0:0:0:0:
248,300,71600,1,8,0:0:0:0:
248,300,71682,1,8,0:0:0:0:
244,304,71847,1,8,0:0:0:0:
248,300,71929,1,8,0:0:0:0:
248,300,72012,1,0,0:0:0:0:
248,300,72176,1,0,0:0:0:0:
248,300,72341,1,8,0:0:0:0:
248,300,72506,1,0,0:0:0:0:
248,300,72589,1,0,0:0:0:0:
248,300,72671,1,0,0:0:0:0:
248,300,72836,1,0,0:0:0:0:
248,300,73001,1,8,0:0:0:0:
256,292,73165,1,0,0:0:0:0:
256,292,73330,1,0,0:0:0:0:
256,292,73495,1,0,0:0:0:0:
256,292,73578,1,0,0:0:0:0:
256,292,73660,1,8,0:0:0:0:
256,292,73825,1,0,0:0:0:0:
256,292,73990,1,0,0:0:0:0:
256,292,74154,1,0,0:0:0:0:
256,292,74237,1,0,0:0:0:0:
256,292,74319,1,8,0:0:0:0:
256,292,74402,1,8,0:0:0:0:
256,292,74484,1,8,0:0:0:0:
256,292,74567,1,0,0:0:0:0:
256,292,74649,1,0,0:0:0:0:
256,292,74814,1,0,0:0:0:0:
256,292,74979,1,8,0:0:0:0:
256,292,75061,1,0,0:0:0:0:
256,292,75143,1,0,0:0:0:0:
256,292,75308,1,0,0:0:0:0:
256,292,75473,1,0,0:0:0:0:
256,292,75638,1,8,0:0:0:0:
256,292,75720,1,0,0:0:0:0:
264,288,75803,1,0,0:0:0:0:
256,292,75968,1,0,0:0:0:0:
264,288,76050,1,0,0:0:0:0:
264,288,76132,1,8,0:0:0:0:
264,288,76215,1,0,0:0:0:0:
264,288,76297,1,8,0:0:0:0:
264,288,76462,1,0,0:0:0:0:
240,288,76545,1,0,0:0:0:0:
264,288,76627,1,8,0:0:0:0:
256,292,76792,1,0,0:0:0:0:
256,292,76957,1,8,0:0:0:0:
256,292,77122,1,0,0:0:0:0:
256,292,77204,1,0,0:0:0:0:
256,292,77286,1,0,0:0:0:0:
256,292,77451,1,0,0:0:0:0:
264,288,77616,1,8,0:0:0:0:
256,292,77781,1,0,0:0:0:0:
256,292,77946,1,0,0:0:0:0:
256,292,78111,1,0,0:0:0:0:
256,292,78275,1,8,0:0:0:0:
248,296,78440,1,0,0:0:0:0:
248,296,78523,1,0,0:0:0:0:
248,296,78605,1,0,0:0:0:0:
248,296,78770,1,0,0:0:0:0:
248,296,78935,1,8,0:0:0:0:
248,296,79100,1,0,0:0:0:0:
248,296,79264,1,0,0:0:0:0:
248,296,79429,1,0,0:0:0:0:
248,296,79594,1,8,0:0:0:0:
248,296,79759,1,0,0:0:0:0:
228,272,79841,1,0,0:0:0:0:
248,296,79924,1,8,0:0:0:0:
252,288,79979,1,8,0:0:0:0:
248,296,80034,1,8,0:0:0:0:
252,288,80089,1,0,0:0:0:0:
236,272,80171,1,0,0:0:0:0:
248,296,80253,1,8,0:0:0:0:
248,296,80418,1,0,0:0:0:0:
248,296,80583,1,0,0:0:0:0:
248,296,80748,1,0,0:0:0:0:
248,296,80913,1,8,0:0:0:0:
248,296,81078,1,0,0:0:0:0:
228,272,81160,1,0,0:0:0:0:
248,296,81242,1,0,0:0:0:0:
248,296,81407,1,0,0:0:0:0:
248,296,81572,1,8,0:0:0:0:
248,296,81737,1,0,0:0:0:0:
240,280,81819,1,8,0:0:0:0:
248,296,81902,1,0,0:0:0:0:
248,296,82067,1,0,0:0:0:0:
248,296,82231,1,8,0:0:0:0:
248,296,82314,1,8,0:0:0:0:
248,296,82396,1,0,0:0:0:0:
248,296,82561,1,8,0:0:0:0:
256,296,82616,1,8,0:0:0:0:
256,296,82671,1,8,0:0:0:0:
248,296,82726,1,0,0:0:0:0:
228,272,82808,1,0,0:0:0:0:
248,296,82891,1,8,0:0:0:0:
248,296,83056,1,8,0:0:0:0:
228,272,83138,1,8,0:0:0:0:
248,296,83220,1,0,0:0:0:0:
248,296,83385,1,0,0:0:0:0:
248,296,83550,1,8,0:0:0:0:
248,296,83715,1,0,0:0:0:0:
228,272,83797,1,0,0:0:0:0:
248,296,83880,1,8,0:0:0:0:
248,296,84045,1,0,0:0:0:0:
248,296,84209,1,8,0:0:0:0:
248,296,84374,1,8,0:0:0:0:
240,292,84429,1,8,0:0:0:0:
248,296,84484,1,8,0:0:0:0:
248,296,84539,1,0,0:0:0:0:
248,296,84704,1,0,0:0:0:0:
248,296,84786,1,0,0:0:0:0:
248,296,84869,1,8,0:0:0:0:
248,284,84951,1,8,0:0:0:0:
248,296,85034,1,8,0:0:0:0:
248,284,85116,1,8,0:0:0:0:
248,296,85198,1,0,0:0:0:0:
248,296,86023,5,0,0:0:0:0:
256,192,86517,1,0,0:0:0:0:
256,192,86682,1,8,0:0:0:0:
256,192,86847,1,0,0:0:0:0:
256,192,86929,1,0,0:0:0:0:
256,192,87012,1,8,0:0:0:0:
256,192,87176,1,8,0:0:0:0:
256,192,87341,1,8,0:0:0:0:
256,192,87424,1,0,0:0:0:0:
256,192,87506,1,8,0:0:0:0:
256,192,87671,1,8,0:0:0:0:
256,192,87836,1,8,0:0:0:0:
256,192,88165,1,0,0:0:0:0:
256,192,88330,1,8,0:0:0:0:
256,192,88495,1,8,0:0:0:0:
256,192,88660,1,0,0:0:0:0:
256,192,88825,1,0,0:0:0:0:
256,192,88990,1,8,0:0:0:0:
256,192,89072,1,8,0:0:0:0:
256,192,89154,1,0,0:0:0:0:
256,192,89319,1,8,0:0:0:0:
256,192,89484,1,0,0:0:0:0:
256,192,89649,1,8,0:0:0:0:
256,192,89814,1,8,0:0:0:0:
256,192,89896,1,0,0:0:0:0:
256,192,89979,1,0,0:0:0:0:
256,192,90143,1,8,0:0:0:0:
256,192,90308,1,8,0:0:0:0:
256,192,90391,1,0,0:0:0:0:
256,192,90473,1,8,0:0:0:0:
256,192,90803,1,8,0:0:0:0:
256,192,90968,1,0,0:0:0:0:
256,192,91132,1,8,0:0:0:0:
256,192,91297,1,0,0:0:0:0:
256,192,91462,1,0,0:0:0:0:
256,192,91627,1,8,0:0:0:0:
256,192,91792,1,0,0:0:0:0:
256,192,91957,1,8,0:0:0:0:
256,192,92122,1,0,0:0:0:0:
256,192,92286,1,8,0:0:0:0:
256,192,92451,1,8,0:0:0:0:
256,192,92534,1,0,0:0:0:0:
256,192,92616,1,0,0:0:0:0:
256,192,92781,1,8,0:0:0:0:
256,192,92863,1,8,0:0:0:0:
256,192,92946,1,0,0:0:0:0:
256,192,93028,1,8,0:0:0:0:
256,192,93111,1,8,0:0:0:0:
256,192,93440,1,0,0:0:0:0:
256,192,93605,1,8,0:0:0:0:
256,192,93770,1,8,0:0:0:0:
256,192,93935,1,0,0:0:0:0:
256,192,94100,1,8,0:0:0:0:
256,192,94182,1,0,0:0:0:0:
256,192,94264,1,8,0:0:0:0:
256,192,94429,1,8,0:0:0:0:
256,192,94512,1,8,0:0:0:0:
256,192,94594,1,0,0:0:0:0:
256,192,94759,1,0,0:0:0:0:
256,192,94924,1,8,0:0:0:0:
256,192,95089,1,8,0:0:0:0:
256,192,95253,1,0,0:0:0:0:
256,192,95336,1,0,0:0:0:0:
256,192,95418,1,8,0:0:0:0:
256,192,95583,1,8,0:0:0:0:
256,192,95665,1,8,0:0:0:0:
256,192,95748,1,8,0:0:0:0:
256,192,96078,1,8,0:0:0:0:
256,192,96242,1,0,0:0:0:0:
256,192,96325,1,0,0:0:0:0:
256,192,96407,1,8,0:0:0:0:
256,192,96572,1,0,0:0:0:0:
256,192,96737,1,8,0:0:0:0:
256,192,96902,1,8,0:0:0:0:
256,192,96984,1,8,0:0:0:0:
256,192,97067,1,0,0:0:0:0:
256,192,97231,1,8,0:0:0:0:
256,192,97314,1,0,0:0:0:0:
256,192,97396,1,0,0:0:0:0:
256,192,97479,1,0,0:0:0:0:
256,192,97561,1,8,0:0:0:0:
256,192,97725,1,8,0:0:0:0:
256,192,97891,1,8,0:0:0:0:
256,192,97973,1,0,0:0:0:0:
256,192,98055,1,8,0:0:0:0:
256,192,98220,1,8,0:0:0:0:
256,192,98385,1,0,0:0:0:0:
256,192,98715,1,8,0:0:0:0:
256,192,98879,1,8,0:0:0:0:
256,192,99044,1,8,0:0:0:0:
256,192,99127,1,0,0:0:0:0:
256,192,99209,1,0,0:0:0:0:
256,192,99292,1,0,0:0:0:0:
256,192,99374,1,8,0:0:0:0:
256,192,99539,1,8,0:0:0:0:
256,192,99704,1,0,0:0:0:0:
256,192,99868,1,8,0:0:0:0:
256,192,100034,1,0,0:0:0:0:
256,192,100198,1,8,0:0:0:0:
256,192,100363,1,8,0:0:0:0:
256,192,100446,1,0,0:0:0:0:
256,192,100528,1,0,0:0:0:0:
256,192,100692,1,8,0:0:0:0:
256,192,100857,1,8,0:0:0:0:
256,192,100941,1,0,0:0:0:0:
256,192,101023,1,8,0:0:0:0:
256,192,101352,1,8,0:0:0:0:
256,192,101517,1,0,0:0:0:0:
256,192,101600,1,0,0:0:0:0:
256,192,101681,1,8,0:0:0:0:
256,192,101847,1,0,0:0:0:0:
256,192,102012,1,8,0:0:0:0:
256,192,102094,1,0,0:0:0:0:
256,192,102176,1,0,0:0:0:0:
256,192,102341,1,0,0:0:0:0:
256,192,102506,1,8,0:0:0:0:
256,192,102671,1,0,0:0:0:0:
256,192,102753,1,0,0:0:0:0:
256,192,102835,1,8,0:0:0:0:
256,192,103000,1,8,0:0:0:0:
256,192,103165,1,0,0:0:0:0:
256,192,103330,1,8,0:0:0:0:
256,192,103412,1,8,0:0:0:0:
256,192,103495,1,0,0:0:0:0:
256,192,103577,1,8,0:0:0:0:
256,192,103660,1,8,0:0:0:0:
256,192,103990,1,0,0:0:0:0:
256,192,104154,1,8,0:0:0:0:
256,192,104319,1,8,0:0:0:0:
256,192,104484,1,0,0:0:0:0:
256,192,104567,1,0,0:0:0:0:
256,192,104649,1,8,0:0:0:0:
256,192,104731,1,0,0:0:0:0:
256,192,104813,1,8,0:0:0:0:
256,192,104978,1,8,0:0:0:0:
256,192,105061,1,8,0:0:0:0:
256,192,105143,1,0,0:0:0:0:
256,192,105308,1,0,0:0:0:0:
256,192,105473,1,8,0:0:0:0:
256,192,105638,1,8,0:0:0:0:
256,192,105803,1,0,0:0:0:0:
256,192,105967,1,8,0:0:0:0:
256,192,106132,1,8,0:0:0:0:
256,192,106214,1,8,0:0:0:0:
256,192,106297,1,8,0:0:0:0:
256,192,106380,1,0,0:0:0:0:
256,192,106462,1,0,0:0:0:0:
256,192,106545,1,0,0:0:0:0:
256,192,106627,1,8,0:0:0:0:
256,192,106792,1,0,0:0:0:0:
256,192,106956,1,8,0:0:0:0:
256,192,107039,1,0,0:0:0:0:
256,192,107122,1,0,0:0:0:0:
256,192,107204,1,8,0:0:0:0:
256,192,107286,5,8,0:0:0:0:
256,192,107451,1,8,0:0:0:0:
256,192,107533,1,8,0:0:0:0:
256,192,107616,1,0,0:0:0:0:
256,192,107946,1,8,0:0:0:0:
256,192,108275,1,0,0:0:0:0:
248,192,108440,1,0,0:0:0:0:
248,192,108523,1,0,0:0:0:0:
244,192,108605,1,8,0:0:0:0:
244,192,108770,1,0,0:0:0:0:
244,192,108935,1,0,0:0:0:0:
244,192,109264,1,8,0:0:0:0:
244,192,109594,1,0,0:0:0:0:
248,192,109759,1,0,0:0:0:0:
248,192,109841,1,0,0:0:0:0:
244,192,109924,1,8,0:0:0:0:
244,192,110089,1,8,0:0:0:0:
244,192,110253,1,0,0:0:0:0:
244,192,110583,1,8,0:0:0:0:
244,192,110913,1,0,0:0:0:0:
244,192,111242,1,8,0:0:0:0:
244,192,111407,1,0,0:0:0:0:
244,192,111737,1,0,0:0:0:0:
244,192,111902,1,8,0:0:0:0:
244,192,112067,1,0,0:0:0:0:
244,192,112396,1,0,0:0:0:0:
244,192,112561,1,8,0:0:0:0:
244,192,112891,1,4,0:0:0:0:
244,192,113220,1,8,0:0:0:0:
244,192,113550,1,0,0:0:0:0:
244,192,113880,1,8,0:0:0:0:
244,192,114045,1,8,0:0:0:0:
248,200,114127,1,0,0:0:0:0:
244,192,114209,1,0,0:0:0:0:
248,200,114374,1,0,0:0:0:0:
244,192,114539,1,8,0:0:0:0:
244,192,114869,1,0,0:0:0:0:
244,192,115198,1,8,0:0:0:0:
244,192,115363,1,0,0:0:0:0:
248,200,115446,1,0,0:0:0:0:
244,192,115528,1,8,0:0:0:0:
244,192,115858,1,8,0:0:0:0:
244,192,116187,1,0,0:0:0:0:
244,192,116517,1,8,0:0:0:0:
244,192,116682,1,0,0:0:0:0:
244,192,117012,1,0,0:0:0:0:
244,192,117176,1,8,0:0:0:0:
244,192,117341,1,0,0:0:0:0:
244,192,117671,1,0,0:0:0:0:
244,192,117836,1,8,0:0:0:0:
248,200,117918,1,8,0:0:0:0:
244,192,118001,1,0,0:0:0:0:
244,192,118165,1,4,0:0:0:0:
248,200,118330,1,0,0:0:0:0:
244,192,118495,1,8,0:0:0:0:
244,192,118825,1,0,0:0:0:0:
244,192,119154,1,8,0:0:0:0:
244,192,119319,1,0,0:0:0:0:
248,200,119402,1,0,0:0:0:0:
244,192,119484,1,8,0:0:0:0:
248,200,119649,1,8,0:0:0:0:
244,192,119814,1,8,0:0:0:0:
244,192,120143,1,0,0:0:0:0:
244,192,120473,1,8,0:0:0:0:
244,192,120638,1,8,0:0:0:0:
248,200,120720,1,8,0:0:0:0:
244,192,120803,1,0,0:0:0:0:
248,200,120968,1,0,0:0:0:0:
244,192,121132,1,8,0:0:0:0:
244,192,121462,1,0,0:0:0:0:
244,192,121792,1,8,0:0:0:0:
244,192,121957,1,0,0:0:0:0:
244,192,122286,1,0,0:0:0:0:
244,192,122616,1,0,0:0:0:0:
244,192,122946,1,0,0:0:0:0:
244,192,123111,1,8,0:0:0:0:
248,200,123193,1,8,0:0:0:0:
244,192,123275,1,0,0:0:0:0:
244,192,123440,1,4,0:0:0:0:
244,192,123770,1,8,0:0:0:0:
244,192,124100,1,0,0:0:0:0:
244,192,124429,1,8,0:0:0:0:
244,192,124594,1,0,0:0:0:0:
244,192,124759,1,8,0:0:0:0:
248,200,124841,1,8,0:0:0:0:
244,192,124924,1,0,0:0:0:0:
244,192,125089,1,8,0:0:0:0:
244,192,125418,1,0,0:0:0:0:
244,192,125748,1,8,0:0:0:0:
244,192,125913,1,8,0:0:0:0:
248,200,125995,1,8,0:0:0:0:
244,192,126078,1,0,0:0:0:0:
248,200,126242,1,0,0:0:0:0:
244,192,126407,1,8,0:0:0:0:
244,192,126737,1,0,0:0:0:0:
244,192,127067,1,8,0:0:0:0:
244,192,127231,1,0,0:0:0:0:
244,192,127561,1,0,0:0:0:0:
244,192,127726,1,8,0:0:0:0:
244,192,127891,1,0,0:0:0:0:
244,192,128220,1,0,0:0:0:0:
244,192,128385,1,8,0:0:0:0:
244,192,128550,1,8,0:0:0:0:
244,192,128715,1,4,0:0:0:0:
244,192,129045,1,8,0:0:0:0:
244,192,129374,1,0,0:0:0:0:
244,192,129869,1,0,0:0:0:0:
244,192,130034,1,8,0:0:0:0:
244,192,130363,1,8,0:0:0:0:
244,192,130693,1,0,0:0:0:0:
252,200,130858,1,0,0:0:0:0:
252,200,130940,1,0,0:0:0:0:
244,192,131023,1,8,0:0:0:0:
244,192,131187,1,8,0:0:0:0:
244,192,131352,1,0,0:0:0:0:
244,192,131682,1,8,0:0:0:0:
244,192,132012,1,0,0:0:0:0:
244,192,132506,1,0,0:0:0:0:
244,192,132671,1,8,0:0:0:0:
244,192,133001,1,8,0:0:0:0:
252,200,133165,1,0,0:0:0:0:
252,200,133248,1,0,0:0:0:0:
244,192,133330,1,8,0:0:0:0:
244,192,133495,1,8,0:0:0:0:
244,192,133660,1,8,0:0:0:0:
252,200,133742,1,8,0:0:0:0:
244,192,133825,1,0,0:0:0:0:
244,192,133990,1,0,0:0:0:0:
244,192,134319,1,8,0:0:0:0:
244,192,134649,1,0,0:0:0:0:
244,192,135143,1,0,0:0:0:0:
244,192,135308,1,8,0:0:0:0:
244,192,135638,1,0,0:0:0:0:
244,192,135968,1,8,0:0:0:0:
244,192,136132,1,0,0:0:0:0:
252,200,136215,1,0,0:0:0:0:
252,200,136297,1,8,0:0:0:0:
244,192,136462,1,8,0:0:0:0:
244,192,136627,1,0,0:0:0:0:
244,192,136957,1,8,0:0:0:0:
244,192,137286,1,0,0:0:0:0:
244,192,137616,1,8,0:0:0:0:
244,192,137781,1,0,0:0:0:0:
244,192,137946,1,8,0:0:0:0:
244,192,138275,1,0,0:0:0:0:
252,200,138440,1,0,0:0:0:0:
244,192,138605,1,8,0:0:0:0:
252,200,138687,1,8,0:0:0:0:
244,192,138770,1,0,0:0:0:0:
252,200,138852,1,0,0:0:0:0:
244,192,138935,1,8,0:0:0:0:
244,192,139100,1,8,0:0:0:0:
244,192,139264,1,0,0:0:0:0:
256,192,139429,1,0,0:0:0:0:
256,192,139512,1,0,0:0:0:0:
256,192,139594,1,8,0:0:0:0:
256,192,139759,1,8,0:0:0:0:
256,192,139924,1,8,0:0:0:0:
256,192,140006,1,8,0:0:0:0:
256,192,140089,1,8,0:0:0:0:
256,192,140171,1,8,0:0:0:0:
256,192,140253,1,0,0:0:0:0:
256,192,140418,1,8,0:0:0:0:
256,192,140583,1,0,0:0:0:0:
256,192,140665,1,8,0:0:0:0:
256,192,140748,1,8,0:0:0:0:
256,192,140913,1,0,0:0:0:0:
256,192,141078,1,0,0:0:0:0:
256,192,141242,1,8,0:0:0:0:
256,192,141407,1,8,0:0:0:0:
256,192,141490,1,0,0:0:0:0:
256,192,141572,1,0,0:0:0:0:
256,192,141737,1,8,0:0:0:0:
256,192,141902,1,0,0:0:0:0:
256,192,141984,1,0,0:0:0:0:
256,192,142066,1,8,0:0:0:0:
256,192,142149,1,8,0:0:0:0:
256,192,142231,1,0,0:0:0:0:
256,192,142396,1,8,0:0:0:0:
256,192,142561,1,8,0:0:0:0:
256,192,142643,1,8,0:0:0:0:
256,192,142726,1,0,0:0:0:0:
256,192,142891,1,8,0:0:0:0:
256,192,143056,1,0,0:0:0:0:
256,192,143138,1,8,0:0:0:0:
256,192,143220,1,8,0:0:0:0:
256,192,143385,1,0,0:0:0:0:
256,192,143550,1,8,0:0:0:0:
256,192,143715,1,0,0:0:0:0:
256,192,143880,1,8,0:0:0:0:
256,192,143962,1,8,0:0:0:0:
256,192,144045,1,0,0:0:0:0:
256,192,144127,1,8,0:0:0:0:
256,192,144209,1,0,0:0:0:0:
256,192,144374,1,8,0:0:0:0:
256,192,144539,1,0,0:0:0:0:
256,192,144704,1,8,0:0:0:0:
256,192,144786,1,8,0:0:0:0:
256,192,144869,1,0,0:0:0:0:
256,192,144951,1,0,0:0:0:0:
256,192,145034,1,8,0:0:0:0:
256,192,145198,1,8,0:0:0:0:
256,192,145281,1,8,0:0:0:0:
256,192,145363,1,8,0:0:0:0:
256,192,145446,1,0,0:0:0:0:
256,192,145528,1,8,0:0:0:0:
256,192,145693,1,8,0:0:0:0:
256,192,145775,1,8,0:0:0:0:
256,192,145858,1,8,0:0:0:0:
256,192,145940,1,8,0:0:0:0:
256,192,146023,1,8,0:0:0:0:
256,192,146105,1,8,0:0:0:0:
256,192,146187,1,0,0:0:0:0:
256,192,146352,1,8,0:0:0:0:
256,192,146517,1,8,0:0:0:0:
256,192,146682,1,0,0:0:0:0:
256,192,146764,1,0,0:0:0:0:
256,192,146847,1,0,0:0:0:0:
256,192,147012,1,8,0:0:0:0:
256,192,147094,1,0,0:0:0:0:
256,192,147176,1,8,0:0:0:0:
256,192,147341,1,8,0:0:0:0:
256,192,147506,1,0,0:0:0:0:
256,192,147671,1,8,0:0:0:0:
256,192,147836,1,8,0:0:0:0:
256,192,147918,1,0,0:0:0:0:
256,192,148001,1,0,0:0:0:0:
256,192,148083,1,0,0:0:0:0:
256,192,148165,1,8,0:0:0:0:
256,192,148330,1,0,0:0:0:0:
256,192,148413,1,8,0:0:0:0:
256,192,148495,1,8,0:0:0:0:
256,192,148660,1,0,0:0:0:0:
256,192,148825,1,8,0:0:0:0:
256,192,148990,1,0,0:0:0:0:
256,192,149154,1,8,0:0:0:0:
256,192,149319,1,8,0:0:0:0:
256,192,149402,1,0,0:0:0:0:
256,192,149484,1,0,0:0:0:0:
256,192,149649,1,8,0:0:0:0:
256,192,149814,1,0,0:0:0:0:
256,192,149979,1,8,0:0:0:0:
256,192,150143,1,0,0:0:0:0:
256,192,150226,1,0,0:0:0:0:
256,192,150308,1,8,0:0:0:0:
256,192,150391,1,0,0:0:0:0:
256,192,150473,1,8,0:0:0:0:
256,192,150638,1,0,0:0:0:0:
256,192,150803,1,0,0:0:0:0:
256,192,150967,1,8,0:0:0:0:
256,192,151132,1,0,0:0:0:0:
256,192,151214,1,8,0:0:0:0:
256,192,151297,1,8,0:0:0:0:
256,192,151462,1,0,0:0:0:0:
256,192,151627,1,8,0:0:0:0:
256,192,151791,1,8,0:0:0:0:
256,192,151874,1,8,0:0:0:0:
256,192,151956,1,8,0:0:0:0:
256,192,152039,1,8,0:0:0:0:
256,192,152122,1,0,0:0:0:0:
256,192,152286,1,8,0:0:0:0:
256,192,152451,1,0,0:0:0:0:
256,192,152616,1,8,0:0:0:0:
256,192,152781,1,8,0:0:0:0:
256,192,152863,1,0,0:0:0:0:
256,192,152945,1,8,0:0:0:0:
256,192,153028,1,0,0:0:0:0:
256,192,153110,1,8,0:0:0:0:
256,192,153275,1,0,0:0:0:0:
256,192,153440,1,8,0:0:0:0:
256,192,153605,1,0,0:0:0:0:
256,192,153687,1,8,0:0:0:0:
256,192,153769,1,8,0:0:0:0:
256,192,153852,1,0,0:0:0:0:
256,192,153935,1,8,0:0:0:0:
256,192,154099,1,8,0:0:0:0:
256,192,154264,1,0,0:0:0:0:
256,192,154429,1,8,0:0:0:0:
256,192,154512,1,8,0:0:0:0:
256,192,154594,1,8,0:0:0:0:
256,192,154676,1,0,0:0:0:0:
256,192,154759,1,8,0:0:0:0:
256,192,154923,1,8,0:0:0:0:
256,192,155089,1,0,0:0:0:0:
256,192,155253,1,8,0:0:0:0:
256,192,155418,1,8,0:0:0:0:
256,192,155501,1,0,0:0:0:0:
256,192,155583,1,8,0:0:0:0:
256,192,155747,1,8,0:0:0:0:
256,192,155913,1,0,0:0:0:0:
256,192,156078,1,0,0:0:0:0:
256,192,156242,1,8,0:0:0:0:
256,192,156407,1,8,0:0:0:0:
256,192,156572,1,0,0:0:0:0:
256,192,156654,1,0,0:0:0:0:
256,192,156737,1,8,0:0:0:0:
256,192,156901,1,8,0:0:0:0:
256,192,157066,1,8,0:0:0:0:
256,192,157149,1,8,0:0:0:0:
256,192,157231,1,8,0:0:0:0:
256,192,157314,1,8,0:0:0:0:
256,192,157396,1,0,0:0:0:0:
256,192,157561,1,8,0:0:0:0:
256,192,157726,1,0,0:0:0:0:
256,192,157890,1,8,0:0:0:0:
256,192,158056,1,8,0:0:0:0:
256,192,158220,1,0,0:0:0:0:
256,192,158303,1,8,0:0:0:0:
256,192,158385,1,8,0:0:0:0:
256,192,158550,1,0,0:0:0:0:
256,192,158632,1,0,0:0:0:0:
256,192,158714,1,8,0:0:0:0:
256,192,158797,1,0,0:0:0:0:
256,192,158880,1,0,0:0:0:0:
256,192,158962,1,8,0:0:0:0:
256,192,159044,1,8,0:0:0:0:
256,192,159209,1,0,0:0:0:0:
256,192,159374,1,8,0:0:0:0:
256,192,159539,1,0,0:0:0:0:
256,192,159703,1,8,0:0:0:0:
256,192,159786,1,8,0:0:0:0:
256,192,159869,1,8,0:0:0:0:
256,192,159951,1,0,0:0:0:0:
256,192,160034,1,8,0:0:0:0:
256,192,160198,5,8,0:0:0:0:
256,200,160363,5,4,0:0:0:0:
256,200,160528,1,0,0:0:0:0:
256,200,160611,1,0,0:0:0:0:
256,200,160693,1,8,0:0:0:0:
256,200,160858,1,8,0:0:0:0:
256,200,161023,1,0,0:0:0:0:
256,200,161187,1,8,0:0:0:0:
256,200,161270,1,8,0:0:0:0:
256,200,161352,1,0,0:0:0:0:
256,200,161517,1,8,0:0:0:0:
260,192,161600,1,8,0:0:0:0:
256,200,161682,1,0,0:0:0:0:
256,200,161847,5,0,0:0:0:0:
256,200,161929,1,8,0:0:0:0:
256,200,162012,1,0,0:0:0:0:
256,200,162176,1,8,0:0:0:0:
256,200,162341,1,8,0:0:0:0:
256,200,162424,1,0,0:0:0:0:
256,200,162506,1,0,0:0:0:0:
256,200,162671,1,0,0:0:0:0:
256,200,162753,1,0,0:0:0:0:
256,200,162836,1,8,0:0:0:0:
256,200,163001,1,8,0:0:0:0:
248,196,163165,1,8,0:0:0:0:
248,196,163248,1,0,0:0:0:0:
248,196,163330,1,0,0:0:0:0:
256,200,163495,1,0,0:0:0:0:
256,200,163578,1,0,0:0:0:0:
256,200,163660,1,8,0:0:0:0:
256,200,163825,1,0,0:0:0:0:
256,200,163907,1,8,0:0:0:0:
256,200,163990,1,0,0:0:0:0:
256,200,164154,1,8,0:0:0:0:
256,200,164319,1,0,0:0:0:0:
256,200,164484,1,8,0:0:0:0:
256,200,164649,1,0,0:0:0:0:
264,200,164814,1,8,0:0:0:0:
264,200,164979,1,0,0:0:0:0:
256,200,165061,1,8,0:0:0:0:
256,200,165143,1,8,0:0:0:0:
256,200,165226,1,8,0:0:0:0:
256,200,165308,1,0,0:0:0:0:
256,200,165391,1,8,0:0:0:0:
256,200,165473,1,0,0:0:0:0:
256,200,165638,1,8,0:0:0:0:
256,200,165803,1,0,0:0:0:0:
256,200,165885,1,0,0:0:0:0:
256,200,165968,1,8,0:0:0:0:
256,200,166132,1,8,0:0:0:0:
264,200,166297,1,0,0:0:0:0:
264,200,166462,1,0,0:0:0:0:
264,200,166545,1,0,0:0:0:0:
256,200,166627,1,8,0:0:0:0:
256,200,166792,1,8,0:0:0:0:
256,200,166874,1,8,0:0:0:0:
256,200,166957,1,0,0:0:0:0:
256,200,167122,1,0,0:0:0:0:
256,200,167286,1,8,0:0:0:0:
272,208,167369,1,0,0:0:0:0:
256,200,167451,1,0,0:0:0:0:
256,200,167616,1,8,0:0:0:0:
264,200,167781,1,0,0:0:0:0:
276,208,167863,1,0,0:0:0:0:
264,200,167946,1,8,0:0:0:0:
276,208,168028,1,0,0:0:0:0:
256,200,168111,1,8,0:0:0:0:
256,200,168275,1,8,0:0:0:0:
276,208,168358,1,0,0:0:0:0:
256,200,168440,1,0,0:0:0:0:
256,200,168523,1,0,0:0:0:0:
256,200,168605,1,8,0:0:0:0:
276,208,168687,1,0,0:0:0:0:
256,200,168770,1,8,0:0:0:0:
256,200,168935,1,8,0:0:0:0:
256,200,169100,1,0,0:0:0:0:
264,200,169264,1,8,0:0:0:0:
264,200,169429,1,8,0:0:0:0:
276,208,169512,1,8,0:0:0:0:
264,200,169594,1,8,0:0:0:0:
256,200,169759,1,0,0:0:0:0:
256,200,169924,1,8,0:0:0:0:
256,200,170089,1,0,0:0:0:0:
256,200,170253,1,8,0:0:0:0:
280,212,170336,1,8,0:0:0:0:
256,200,170418,1,8,0:0:0:0:
280,212,170501,1,0,0:0:0:0:
256,200,170583,1,8,0:0:0:0:
264,200,170748,1,0,0:0:0:0:
264,200,170913,1,12,0:0:0:0:
264,200,171078,1,0,0:0:0:0:
280,212,171160,1,0,0:0:0:0:
256,200,171242,1,8,0:0:0:0:
256,200,171407,1,8,0:0:0:0:
280,212,171490,1,8,0:0:0:0:
256,200,171572,1,0,0:0:0:0:
256,200,171737,1,8,0:0:0:0:
280,212,171819,1,8,0:0:0:0:
256,200,171902,1,8,0:0:0:0:
256,200,172067,1,8,0:0:0:0:
280,212,172149,1,8,0:0:0:0:
264,200,172231,1,0,0:0:0:0:
264,200,172396,1,8,0:0:0:0:
264,200,172561,1,0,0:0:0:0:
256,200,172726,1,8,0:0:0:0:
280,216,172808,1,0,0:0:0:0:
256,200,172891,1,0,0:0:0:0:
256,200,173056,1,8,0:0:0:0:
256,200,173138,1,8,0:0:0:0:
256,200,173220,1,0,0:0:0:0:
280,216,173303,1,8,0:0:0:0:
256,200,173385,1,0,0:0:0:0:
256,200,173550,1,8,0:0:0:0:
264,200,173715,1,0,0:0:0:0:
264,200,173880,1,8,0:0:0:0:
264,200,174045,1,0,0:0:0:0:
280,216,174127,1,0,0:0:0:0:
256,200,174209,1,8,0:0:0:0:
256,200,174374,1,0,0:0:0:0:
256,200,174539,1,0,0:0:0:0:
280,216,174622,1,8,0:0:0:0:
256,200,174704,1,8,0:0:0:0:
280,216,174786,1,0,0:0:0:0:
256,200,174869,1,8,0:0:0:0:
256,200,175034,1,0,0:0:0:0:
264,200,175198,1,8,0:0:0:0:
280,216,175281,1,0,0:0:0:0:
264,200,175363,1,0,0:0:0:0:
264,200,175528,1,0,0:0:0:0:
256,200,175693,1,8,0:0:0:0:
280,216,175775,1,0,0:0:0:0:
256,200,175858,1,0,0:0:0:0:
256,200,176023,1,8,0:0:0:0:
256,200,176187,1,4,0:0:0:0:
256,200,176352,1,0,0:0:0:0:
288,216,176435,1,0,0:0:0:0:
256,200,176517,1,8,0:0:0:0:
264,200,176682,1,8,0:0:0:0:
264,200,176847,1,0,0:0:0:0:
264,200,177012,1,0,0:0:0:0:
288,216,177094,1,0,0:0:0:0:
264,200,177176,1,8,0:0:0:0:
256,200,177341,1,8,0:0:0:0:
288,216,177424,1,8,0:0:0:0:
256,200,177506,1,0,0:0:0:0:
256,200,177671,1,8,0:0:0:0:
256,200,177836,1,0,0:0:0:0:
288,216,177918,1,0,0:0:0:0:
288,216,178001,1,8,0:0:0:0:
256,200,178165,1,0,0:0:0:0:
264,200,178330,1,8,0:0:0:0:
264,200,178495,1,0,0:0:0:0:
288,216,178578,1,0,0:0:0:0:
264,200,178660,1,8,0:0:0:0:
256,200,178825,1,0,0:0:0:0:
256,200,178990,1,8,0:0:0:0:
288,216,179072,1,8,0:0:0:0:
256,200,179154,1,0,0:0:0:0:
256,200,179319,1,8,0:0:0:0:
256,200,179484,1,0,0:0:0:0:
256,200,179649,1,8,0:0:0:0:
288,216,179814,1,0,0:0:0:0:
288,216,179896,1,8,0:0:0:0:
264,200,179979,1,0,0:0:0:0:
288,216,180061,1,8,0:0:0:0:
264,200,180143,1,8,0:0:0:0:
288,216,180308,1,8,0:0:0:0:
256,200,180473,1,0,0:0:0:0:
288,216,180556,1,8,0:0:0:0:
256,200,180638,1,0,0:0:0:0:
288,216,180720,1,0,0:0:0:0:
256,200,180803,1,8,0:0:0:0:
256,200,180968,1,0,0:0:0:0:
256,200,181132,1,8,0:0:0:0:
256,200,181215,1,0,0:0:0:0:
256,192,181297,1,8,0:0:0:0:
256,192,181380,1,8,0:0:0:0:
256,192,181462,1,0,0:0:0:0:
256,192,181627,1,0,0:0:0:0:
256,192,181709,1,0,0:0:0:0:
256,192,181792,1,8,0:0:0:0:
192,192,181957,2,0,L|288:192,5,70
256,192,183605,1,8,0:0:0:0:
256,192,183770,1,0,0:0:0:0:
256,192,183935,1,0,0:0:0:0:
192,128,184100,2,0,L|352:128,4,140
256,192,186078,1,8,0:0:0:0:
192,128,186737,2,0,L|352:128,4,140
256,192,188715,1,0,0:0:0:0:
192,128,189374,2,0,L|352:128,3,140
256,192,190693,1,0,0:0:0:0:
256,192,191023,1,8,0:0:0:0:
256,192,191352,1,8,0:0:0:0:
256,192,191517,1,8,0:0:0:0:
256,192,191600,1,8,0:0:0:0:
256,192,191682,1,0,0:0:0:0:
192,128,192012,2,0,L|352:128,4,140
256,192,194155,1,8,0:0:0:0:
256,192,194319,1,0,0:0:0:0:
256,192,194484,1,0,0:0:0:0:
192,128,194649,2,0,L|352:128,4,140
256,192,196627,1,8,0:0:0:0:
192,128,197286,2,0,L|352:128,4,140
192,128,199924,2,0,L|352:128,4,140
256,192,201407,1,0,0:0:0:0:
256,192,201902,1,0,0:0:0:0:
256,192,202561,1,0,0:0:0:0:
256,192,202891,1,0,0:0:0:0:
256,192,203220,1,8,0:0:0:0:
256,192,203550,1,0,0:0:0:0:
256,192,203715,1,8,0:0:0:0:
256,192,203797,1,8,0:0:0:0:
256,192,203880,1,0,0:0:0:0:
256,192,204044,1,8,0:0:0:0:
256,192,204209,1,8,0:0:0:0:
256,192,204539,1,8,0:0:0:0:
256,192,204869,1,0,0:0:0:0:
256,192,205198,1,8,0:0:0:0:
256,192,205281,1,8,0:0:0:0:
256,192,205363,1,0,0:0:0:0:
256,192,205528,1,8,0:0:0:0:
256,192,205858,1,8,0:0:0:0:
256,192,206187,1,8,0:0:0:0:
256,192,206517,1,0,0:0:0:0:
256,192,206847,1,8,0:0:0:0:
256,192,207176,1,0,0:0:0:0:
256,192,207341,1,0,0:0:0:0:
256,192,207424,1,0,0:0:0:0:
256,192,207506,1,0,0:0:0:0:
256,192,207836,1,0,0:0:0:0:
256,192,208165,1,8,0:0:0:0:
256,192,208495,1,8,0:0:0:0:
256,192,208825,1,0,0:0:0:0:
256,192,208989,1,8,0:0:0:0:
256,192,209072,1,8,0:0:0:0:
256,192,209154,1,8,0:0:0:0:
256,192,209319,1,0,0:0:0:0:
256,192,209484,1,8,0:0:0:0:
256,192,209814,1,0,0:0:0:0:
256,192,210143,1,0,0:0:0:0:
256,192,210473,1,8,0:0:0:0:
256,192,210638,1,0,0:0:0:0:
256,192,210720,1,0,0:0:0:0:
256,192,210803,1,0,0:0:0:0:
256,192,211132,1,8,0:0:0:0:
256,192,211462,1,8,0:0:0:0:
256,192,211792,1,0,0:0:0:0:
256,192,212121,1,0,0:0:0:0:
256,192,212451,1,8,0:0:0:0:
256,192,212616,1,0,0:0:0:0:
256,192,212698,1,0,0:0:0:0:
256,192,212781,1,8,0:0:0:0:
256,192,213111,1,0,0:0:0:0:
256,192,213440,1,0,0:0:0:0:
256,192,213605,1,8,0:0:0:0:
256,192,213935,1,8,0:0:0:0:
256,192,214100,1,0,0:0:0:0:
256,192,214429,1,8,0:0:0:0:
256,192,214594,1,0,0:0:0:0:
256,192,215089,1,0,0:0:0:0:
256,192,215748,1,0,0:0:0:0:
256,192,216078,1,0,0:0:0:0:
256,192,216243,1,8,0:0:0:0:
256,192,216407,1,8,0:0:0:0:
256,192,216573,1,8,0:0:0:0:
256,192,216738,1,0,0:0:0:0:
256,192,217067,1,8,0:0:0:0:
256,192,217232,1,0,0:0:0:0:
256,192,217396,1,0,0:0:0:0:
256,192,217727,1,0,0:0:0:0:
256,192,217891,1,8,0:0:0:0:
256,192,218056,1,8,0:0:0:0:
256,192,218385,1,8,0:0:0:0:
256,192,218550,1,0,0:0:0:0:
256,192,218715,1,0,0:0:0:0:
256,192,218880,1,8,0:0:0:0:
256,192,219210,1,8,0:0:0:0:
256,192,219375,1,0,0:0:0:0:
256,192,219539,1,0,0:0:0:0:
256,192,219704,1,8,0:0:0:0:
256,192,219869,1,0,0:0:0:0:
256,192,220034,1,0,0:0:0:0:
256,192,220364,1,0,0:0:0:0:
256,192,220528,1,8,0:0:0:0:
256,192,220693,1,0,0:0:0:0:
256,192,221023,1,0,0:0:0:0:
256,192,221187,1,8,0:0:0:0:
256,192,221352,1,0,0:0:0:0:
256,192,221517,1,8,0:0:0:0:
256,192,221682,1,8,0:0:0:0:
256,192,221764,1,8,0:0:0:0:
256,192,221847,1,0,0:0:0:0:
256,192,221930,1,0,0:0:0:0:
256,192,222012,1,8,0:0:0:0:
256,192,222176,1,0,0:0:0:0:
256,192,222341,1,8,0:0:0:0:
256,192,222506,1,0,0:0:0:0:
256,192,222671,1,8,0:0:0:0:
256,192,223001,1,0,0:0:0:0:
256,192,223165,1,0,0:0:0:0:
256,192,223248,1,0,0:0:0:0:
256,192,223330,1,8,0:0:0:0:
272,208,223660,5,0,0:0:0:0:
264,200,223825,1,8,0:0:0:0:
280,204,223907,1,8,0:0:0:0:
264,200,223990,1,8,0:0:0:0:
264,200,224154,1,0,0:0:0:0:
264,200,224319,1,8,0:0:0:0:
264,200,224484,1,8,0:0:0:0:
276,200,224567,1,8,0:0:0:0:
264,200,224649,1,0,0:0:0:0:
264,200,224814,1,8,0:0:0:0:
276,200,224896,1,0,0:0:0:0:
264,200,224979,1,0,0:0:0:0:
264,200,225143,1,8,0:0:0:0:
264,200,225308,1,8,0:0:0:0:
276,200,225391,1,0,0:0:0:0:
264,200,225473,1,0,0:0:0:0:
264,200,225638,1,8,0:0:0:0:
264,200,225803,1,0,0:0:0:0:
264,200,225885,1,0,0:0:0:0:
264,200,225968,1,8,0:0:0:0:
264,200,226050,1,0,0:0:0:0:
264,200,226132,1,8,0:0:0:0:
264,200,226297,1,0,0:0:0:0:
264,200,226462,1,8,0:0:0:0:
264,200,226545,1,8,0:0:0:0:
264,200,226627,1,0,0:0:0:0:
264,200,226792,1,8,0:0:0:0:
264,200,226957,1,0,0:0:0:0:
264,200,227039,1,8,0:0:0:0:
264,200,227122,1,0,0:0:0:0:
264,200,227286,1,8,0:0:0:0:
264,200,227369,1,8,0:0:0:0:
264,200,227451,1,0,0:0:0:0:
264,216,227616,1,12,0:0:0:0:
264,216,227781,1,0,0:0:0:0:
264,216,227946,1,12,0:0:0:0:
264,216,228111,1,0,0:0:0:0:
264,216,228275,1,8,0:0:0:0:
264,200,228358,1,8,0:0:0:0:
264,216,228440,1,0,0:0:0:0:
264,200,228523,1,0,0:0:0:0:
264,216,228605,1,8,0:0:0:0:
264,216,228770,1,0,0:0:0:0:
264,216,228935,1,12,0:0:0:0:
264,216,229100,1,0,0:0:0:0:
264,200,229182,1,0,0:0:0:0:
264,216,229264,1,8,0:0:0:0:
264,216,229429,1,8,0:0:0:0:
264,216,229594,1,0,0:0:0:0:
264,200,229676,1,0,0:0:0:0:
264,216,229759,1,8,0:0:0:0:
264,216,229924,1,8,0:0:0:0:
264,208,230006,1,0,0:0:0:0:
264,216,230089,1,8,0:0:0:0:
264,216,230253,1,8,0:0:0:0:
264,216,230418,1,0,0:0:0:0:
264,200,230501,1,0,0:0:0:0:
264,216,230583,1,8,0:0:0:0:
264,216,230748,1,8,0:0:0:0:
264,200,230830,1,0,0:0:0:0:
264,216,230913,1,0,0:0:0:0:
264,200,230995,1,8,0:0:0:0:
264,216,231078,1,8,0:0:0:0:
264,200,231160,1,0,0:0:0:0:
264,216,231242,1,8,0:0:0:0:
264,216,231407,1,8,0:0:0:0:
264,216,231572,1,0,0:0:0:0:
264,216,231737,1,8,0:0:0:0:
256,204,231819,1,0,0:0:0:0:
264,216,231902,1,0,0:0:0:0:
256,204,231984,1,0,0:0:0:0:
264,216,232067,1,8,0:0:0:0:
264,216,232231,1,8,0:0:0:0:
256,204,232314,1,0,0:0:0:0:
264,216,232396,1,8,0:0:0:0:
264,216,232561,1,0,0:0:0:0:
256,204,232643,1,0,0:0:0:0:
264,216,232726,1,8,0:0:0:0:
264,216,232891,1,12,0:0:0:0:
264,216,233056,1,0,0:0:0:0:
264,216,233220,1,12,0:0:0:0:
264,216,233385,1,0,0:0:0:0:
264,216,233550,1,12,0:0:0:0:
264,216,233715,1,0,0:0:0:0:
256,204,233797,1,0,0:0:0:0:
264,216,233880,1,8,0:0:0:0:
264,216,234045,1,0,0:0:0:0:
264,216,234209,1,8,0:0:0:0:
260,204,234292,1,8,0:0:0:0:
264,216,234374,1,0,0:0:0:0:
260,204,234457,1,0,0:0:0:0:
264,216,234539,1,8,0:0:0:0:
264,216,234704,1,0,0:0:0:0:
264,216,234869,1,8,0:0:0:0:
260,204,234951,1,0,0:0:0:0:
264,216,235034,1,8,0:0:0:0:
264,216,235198,1,8,0:0:0:0:
264,216,235363,1,0,0:0:0:0:
264,216,235528,1,8,0:0:0:0:
268,208,235611,1,0,0:0:0:0:
264,216,235693,1,0,0:0:0:0:
268,208,235775,1,8,0:0:0:0:
264,216,235858,1,8,0:0:0:0:
264,216,236023,1,8,0:0:0:0:
264,216,236187,1,0,0:0:0:0:
268,208,236270,1,0,0:0:0:0:
264,216,236352,1,0,0:0:0:0:
264,216,236517,1,8,0:0:0:0:
268,208,236600,1,0,0:0:0:0:
264,216,236682,1,0,0:0:0:0:
264,216,236847,1,8,0:0:0:0:
264,216,237012,1,0,0:0:0:0:
268,208,237094,1,0,0:0:0:0:
268,208,237176,1,8,0:0:0:0:
264,216,237259,1,0,0:0:0:0:
264,216,237341,1,8,0:0:0:0:
264,216,237506,1,8,0:0:0:0:
264,216,237671,1,0,0:0:0:0:
264,216,237753,1,0,0:0:0:0:
264,216,237836,1,8,0:0:0:0:
264,216,238001,1,0,0:0:0:0:
264,216,238083,1,0,0:0:0:0:
260,220,238165,1,8,0:0:0:0:
264,216,238248,1,8,0:0:0:0:
264,216,238330,1,0,0:0:0:0:
264,216,238495,1,8,0:0:0:0:
264,216,238660,1,0,0:0:0:0:
260,220,238742,1,0,0:0:0:0:
264,216,238825,1,8,0:0:0:0:
264,216,238907,1,0,0:0:0:0:
264,216,238990,1,8,0:0:0:0:
264,216,239154,1,8,0:0:0:0:
264,216,239319,1,0,0:0:0:0:
264,216,239484,1,8,0:0:0:0:
264,216,239567,1,0,0:0:0:0:
264,216,239649,1,0,0:0:0:0:
260,220,239731,1,0,0:0:0:0:
264,216,239814,1,8,0:0:0:0:
264,216,239979,1,0,0:0:0:0:
264,216,240061,1,0,0:0:0:0:
264,216,240143,1,8,0:0:0:0:
264,216,240308,1,8,0:0:0:0:
264,216,240473,1,8,0:0:0:0:
264,216,240556,1,8,0:0:0:0:
264,216,240638,1,0,0:0:0:0:
264,216,240803,1,8,0:0:0:0:
264,216,240968,1,0,0:0:0:0:
264,216,241050,1,0,0:0:0:0:
264,216,241132,1,8,0:0:0:0:
264,216,241297,1,0,0:0:0:0:
264,216,241462,1,8,0:0:0:0:
264,216,241545,1,0,0:0:0:0:
264,216,241627,1,8,0:0:0:0:
264,216,241709,1,8,0:0:0:0:
264,216,241792,1,0,0:0:0:0:
264,216,241957,1,8,0:0:0:0:
264,216,242122,1,8,0:0:0:0:
264,216,242286,1,0,0:0:0:0:
264,216,242369,1,8,0:0:0:0:
264,216,242451,1,8,0:0:0:0:
264,216,242616,1,8,0:0:0:0:
264,216,242781,1,0,0:0:0:0:
264,216,242946,1,0,0:0:0:0:
264,216,243028,1,8,0:0:0:0:
264,216,243111,1,8,0:0:0:0:
264,216,243275,1,8,0:0:0:0:
264,216,243440,1,8,0:0:0:0:
264,216,243523,1,0,0:0:0:0:
264,216,243605,1,0,0:0:0:0:
264,216,243687,1,8,0:0:0:0:
264,216,243770,1,8,0:0:0:0:
264,216,243852,1,0,0:0:0:0:
264,216,243935,1,0,0:0:0:0:
264,216,244017,1,8,0:0:0:0:
264,216,244100,1,8,0:0:0:0:
264,216,244182,1,8,0:0:0:0:
264,216,244264,1,0,0:0:0:0:
264,216,244347,1,0,0:0:0:0:
264,216,244429,1,8,0:0:0:0:
264,216,244512,1,8,0:0:0:0:
264,216,244594,1,0,0:0:0:0:
264,216,244676,1,8,0:0:0:0:
244,192,244759,1,8,0:0:0:0:
256,192,244924,1,0,0:0:0:0:
256,192,245007,1,0,0:0:0:0:
256,192,245089,1,8,0:0:0:0:
256,192,245253,1,8,0:0:0:0:
256,192,245418,1,8,0:0:0:0:
256,192,245501,1,8,0:0:0:0:
256,192,245583,1,8,0:0:0:0:
256,192,245665,1,8,0:0:0:0:
256,192,245748,1,0,0:0:0:0:
256,192,245913,1,8,0:0:0:0:
256,192,246078,1,8,0:0:0:0:
256,192,246160,1,8,0:0:0:0:
256,192,246242,1,0,0:0:0:0:
256,192,246407,1,8,0:0:0:0:
256,192,246490,1,0,0:0:0:0:
256,192,246572,1,0,0:0:0:0:
256,192,246654,1,0,0:0:0:0:
256,192,246737,1,8,0:0:0:0:
256,192,246902,1,8,0:0:0:0:
256,192,246985,1,0,0:0:0:0:
256,192,247067,1,0,0:0:0:0:
256,192,247232,1,8,0:0:0:0:
256,192,247397,1,0,0:0:0:0:
256,192,247479,1,0,0:0:0:0:
256,192,247561,1,8,0:0:0:0:
256,192,247644,1,8,0:0:0:0:
256,192,247726,1,0,0:0:0:0:
256,192,247891,1,8,0:0:0:0:
256,192,248056,1,8,0:0:0:0:
256,192,248138,1,8,0:0:0:0:
256,192,248221,1,0,0:0:0:0:
256,192,248303,1,0,0:0:0:0:
256,192,248386,1,8,0:0:0:0:
256,192,248551,1,0,0:0:0:0:
256,192,248633,1,8,0:0:0:0:
256,192,248715,1,8,0:0:0:0:
256,192,248880,1,0,0:0:0:0:
256,192,249045,1,8,0:0:0:0:
256,192,249210,1,0,0:0:0:0:
256,192,249292,1,0,0:0:0:0:
256,192,249375,1,8,0:0:0:0:
256,192,249457,1,8,0:0:0:0:
256,192,249540,1,0,0:0:0:0:
256,192,249622,1,8,0:0:0:0:
256,192,249704,1,0,0:0:0:0:
256,192,249869,1,8,0:0:0:0:
256,192,250034,1,0,0:0:0:0:
256,192,250199,1,8,0:0:0:0:
256,192,250281,1,8,0:0:0:0:
256,192,250364,1,0,0:0:0:0:
256,192,250446,1,0,0:0:0:0:
256,192,250529,1,8,0:0:0:0:
256,192,250693,1,8,0:0:0:0:
256,192,250776,1,8,0:0:0:0:
256,192,250858,1,8,0:0:0:0:
256,192,250941,1,0,0:0:0:0:
256,192,251023,1,8,0:0:0:0:
256,192,251188,1,8,0:0:0:0:
256,192,251270,1,8,0:0:0:0:
256,192,251353,1,8,0:0:0:0:
256,192,251435,1,8,0:0:0:0:
256,192,251518,1,8,0:0:0:0:
256,192,251600,1,8,0:0:0:0:
256,192,251682,1,0,0:0:0:0:
256,192,251847,1,8,0:0:0:0:
256,192,252012,1,8,0:0:0:0:
256,192,252177,1,0,0:0:0:0:
256,192,252259,1,0,0:0:0:0:
256,192,252342,1,8,0:0:0:0:
256,192,252424,1,8,0:0:0:0:
256,192,252507,1,8,0:0:0:0:
256,192,252589,1,0,0:0:0:0:
256,192,252671,1,8,0:0:0:0:
256,192,252836,1,8,0:0:0:0:
256,192,252919,1,0,0:0:0:0:
256,192,253001,1,8,0:0:0:0:
256,192,253166,1,8,0:0:0:0:
256,192,253331,1,8,0:0:0:0:
256,192,253413,1,0,0:0:0:0:
256,192,253496,1,0,0:0:0:0:
256,192,253578,1,0,0:0:0:0:
256,192,253660,1,8,0:0:0:0:
256,192,253825,1,0,0:0:0:0:
256,192,253990,1,8,0:0:0:0:
256,192,254072,1,8,0:0:0:0:
256,192,254155,1,0,0:0:0:0:
256,192,254237,1,0,0:0:0:0:
256,192,254320,1,8,0:0:0:0:
256,192,254485,1,0,0:0:0:0:
256,192,254649,1,8,0:0:0:0:
256,192,254731,1,0,0:0:0:0:
256,192,254814,1,8,0:0:0:0:
256,192,254897,1,0,0:0:0:0:
256,192,254979,1,0,0:0:0:0:
256,192,255144,1,8,0:0:0:0:
256,192,255309,1,0,0:0:0:0:
256,192,255474,1,8,0:0:0:0:
256,192,255638,1,0,0:0:0:0:
256,192,255721,1,0,0:0:0:0:
256,192,255803,1,8,0:0:0:0:
256,192,255886,1,0,0:0:0:0:
256,192,255968,1,8,0:0:0:0:
256,192,256133,1,0,0:0:0:0:
256,192,256298,1,0,0:0:0:0:
256,192,256462,1,8,0:0:0:0:
256,192,256627,1,0,0:0:0:0:
256,192,256709,1,8,0:0:0:0:
256,192,256792,1,8,0:0:0:0:
256,192,256874,1,0,0:0:0:0:
256,192,256957,1,0,0:0:0:0:
256,192,257122,1,8,0:0:0:0:
256,192,257286,1,8,0:0:0:0:
256,192,257369,1,8,0:0:0:0:
256,192,257451,1,8,0:0:0:0:
256,192,257534,1,8,0:0:0:0:
256,192,257617,1,0,0:0:0:0:
256,192,257781,1,8,0:0:0:0:
256,192,257946,1,0,0:0:0:0:
256,192,258111,1,8,0:0:0:0:
256,192,258276,1,8,0:0:0:0:
256,192,258358,1,0,0:0:0:0:
256,192,258440,1,8,0:0:0:0:
256,192,258523,1,0,0:0:0:0:
256,192,258605,1,8,0:0:0:0:
256,192,258770,1,0,0:0:0:0:
256,192,258935,1,8,0:0:0:0:
256,192,259100,1,0,0:0:0:0:
256,192,259182,1,8,0:0:0:0:
256,192,259264,1,8,0:0:0:0:
256,192,259347,1,0,0:0:0:0:
256,192,259430,1,8,0:0:0:0:
256,192,259512,1,0,0:0:0:0:
256,192,259594,1,8,0:0:0:0:
256,192,259759,1,0,0:0:0:0:
256,192,259924,1,8,0:0:0:0:
256,192,260007,1,8,0:0:0:0:
256,192,260089,1,8,0:0:0:0:
256,192,260171,1,0,0:0:0:0:
256,192,260254,1,8,0:0:0:0:
256,192,260418,1,8,0:0:0:0:
256,192,260584,1,0,0:0:0:0:
256,192,260748,1,8,0:0:0:0:
256,192,260913,1,8,0:0:0:0:
256,192,260996,1,0,0:0:0:0:
256,192,261078,1,8,0:0:0:0:
256,192,261160,1,0,0:0:0:0:
256,192,261242,1,8,0:0:0:0:
256,192,261408,1,0,0:0:0:0:
256,192,261573,1,0,0:0:0:0:
256,192,261737,1,8,0:0:0:0:
256,192,261819,1,0,0:0:0:0:
256,192,261902,1,8,0:0:0:0:
256,192,261984,1,8,0:0:0:0:
256,192,262067,1,0,0:0:0:0:
256,192,262149,1,0,0:0:0:0:
256,192,262232,1,8,0:0:0:0:
256,192,262396,1,8,0:0:0:0:
256,192,262561,1,8,0:0:0:0:
256,192,262644,1,8,0:0:0:0:
256,192,262726,1,8,0:0:0:0:
256,192,262809,1,8,0:0:0:0:
256,192,262891,1,0,0:0:0:0:
256,192,263056,1,8,0:0:0:0:
256,192,263221,1,0,0:0:0:0:
256,192,263385,1,8,0:0:0:0:
256,192,263551,1,8,0:0:0:0:
256,192,263632,1,0,0:0:0:0:
256,192,263715,1,0,0:0:0:0:
256,192,263798,1,8,0:0:0:0:
256,192,263880,1,8,0:0:0:0:
256,192,264045,1,0,0:0:0:0:
256,192,264127,1,0,0:0:0:0:
256,192,264209,1,8,0:0:0:0:
256,192,264292,1,0,0:0:0:0:
256,192,264375,1,0,0:0:0:0:
256,192,264457,1,8,0:0:0:0:
256,192,264539,1,8,0:0:0:0:
256,192,264704,1,0,0:0:0:0:
256,192,264869,1,8,0:0:0:0:
256,192,264924,1,8,0:0:0:0:
256,192,264979,1,8,0:0:0:0:
256,192,265034,1,0,0:0:0:0:
256,192,265198,1,8,0:0:0:0:
256,192,265281,1,8,0:0:0:0:
256,192,265364,1,8,0:0:0:0:
256,192,265446,5,0,0:0:0:0:
256,192,265611,1,8,0:0:0:0:
256,192,265693,5,8,0:0:0:0:
256,196,265858,5,0,0:0:0:0:
256,196,266023,1,0,0:0:0:0:
256,196,266105,1,0,0:0:0:0:
256,196,266187,1,8,0:0:0:0:
256,196,266352,1,8,0:0:0:0:
256,196,266517,1,0,0:0:0:0:
256,196,266682,1,8,0:0:0:0:
256,196,266764,1,8,0:0:0:0:
256,196,266847,1,0,0:0:0:0:
256,196,267012,1,0,0:0:0:0:
256,196,267094,1,0,0:0:0:0:
256,196,267176,1,8,0:0:0:0:
256,196,267259,1,0,0:0:0:0:
256,196,267341,1,0,0:0:0:0:
256,196,267506,1,8,0:0:0:0:
256,196,267671,1,0,0:0:0:0:
256,196,267753,1,0,0:0:0:0:
256,196,267836,1,8,0:0:0:0:
256,196,268001,1,8,0:0:0:0:
256,196,268083,1,0,0:0:0:0:
256,196,268165,1,8,0:0:0:0:
256,196,268330,1,8,0:0:0:0:
256,196,268495,1,0,0:0:0:0:
256,196,268660,1,0,0:0:0:0:
256,196,268742,1,8,0:0:0:0:
256,196,268825,1,8,0:0:0:0:
256,196,268990,1,8,0:0:0:0:
256,196,269154,1,0,0:0:0:0:
256,196,269319,1,8,0:0:0:0:
256,196,269402,1,8,0:0:0:0:
256,196,269484,1,0,0:0:0:0:
256,196,269649,1,8,0:0:0:0:
256,196,269814,1,0,0:0:0:0:
256,196,269896,1,8,0:0:0:0:
256,196,269979,1,0,0:0:0:0:
256,196,270143,1,8,0:0:0:0:
256,196,270226,1,0,0:0:0:0:
256,196,270308,1,0,0:0:0:0:
256,196,270473,1,0,0:0:0:0:
256,196,270556,1,8,0:0:0:0:
256,196,270638,1,8,0:0:0:0:
256,196,270720,1,0,0:0:0:0:
256,196,270803,1,8,0:0:0:0:
256,196,270968,1,0,0:0:0:0:
256,196,271132,1,8,0:0:0:0:
256,196,271297,1,0,0:0:0:0:
256,196,271380,1,0,0:0:0:0:
256,196,271462,1,8,0:0:0:0:
256,196,271627,1,8,0:0:0:0:
256,196,271792,1,0,0:0:0:0:
256,196,271957,1,0,0:0:0:0:
256,196,272039,1,0,0:0:0:0:
256,196,272122,1,8,0:0:0:0:
256,196,272286,1,8,0:0:0:0:
256,196,272451,1,0,0:0:0:0:
256,196,272616,1,8,0:0:0:0:
256,196,272698,1,8,0:0:0:0:
256,196,272781,1,0,0:0:0:0:
256,196,272946,1,0,0:0:0:0:
256,196,273111,1,8,0:0:0:0:
256,196,273193,1,8,0:0:0:0:
256,196,273275,1,0,0:0:0:0:
256,196,273358,1,0,0:0:0:0:
256,196,273440,1,8,0:0:0:0:
256,196,273605,1,8,0:0:0:0:
256,196,273770,1,0,0:0:0:0:
256,196,273935,1,8,0:0:0:0:
256,196,274017,1,8,0:0:0:0:
256,196,274100,1,0,0:0:0:0:
256,196,274264,1,8,0:0:0:0:
256,196,274429,1,0,0:0:0:0:
256,196,274594,1,0,0:0:0:0:
256,196,274676,1,8,0:0:0:0:
256,196,274759,1,8,0:0:0:0:
256,196,274924,1,8,0:0:0:0:
256,196,275089,1,0,0:0:0:0:
256,196,275171,1,0,0:0:0:0:
256,196,275253,1,8,0:0:0:0:
256,196,275336,1,0,0:0:0:0:
256,196,275418,1,8,0:0:0:0:
256,196,275583,1,0,0:0:0:0:
256,196,275748,1,8,0:0:0:0:
256,196,275830,1,8,0:0:0:0:
256,196,275913,1,8,0:0:0:0:
256,196,275995,1,0,0:0:0:0:
256,196,276078,1,8,0:0:0:0:
256,196,276242,1,8,0:0:0:0:
256,196,276407,1,4,0:0:0:0:
256,196,276572,1,0,0:0:0:0:
256,196,276654,1,0,0:0:0:0:
256,196,276737,1,8,0:0:0:0:
256,196,276902,1,8,0:0:0:0:
256,196,277067,1,0,0:0:0:0:
256,196,277231,1,8,0:0:0:0:
256,196,277314,1,8,0:0:0:0:
256,196,277396,1,0,0:0:0:0:
256,196,277561,1,8,0:0:0:0:
256,196,277643,1,8,0:0:0:0:
256,196,277726,1,0,0:0:0:0:
256,196,277891,1,8,0:0:0:0:
256,196,278056,1,0,0:0:0:0:
256,196,278138,1,0,0:0:0:0:
256,196,278220,1,8,0:0:0:0:
256,196,278385,1,0,0:0:0:0:
256,196,278550,1,8,0:0:0:0:
256,196,278632,1,0,0:0:0:0:
256,196,278715,1,0,0:0:0:0:
256,196,278797,1,0,0:0:0:0:
256,196,278880,1,8,0:0:0:0:
256,196,279045,1,0,0:0:0:0:
256,196,279209,1,8,0:0:0:0:
256,196,279292,1,0,0:0:0:0:
256,196,279374,1,0,0:0:0:0:
256,196,279539,1,8,0:0:0:0:
256,196,279704,1,0,0:0:0:0:
256,196,279869,1,8,0:0:0:0:
256,196,279951,1,8,0:0:0:0:
256,196,280034,1,0,0:0:0:0:
256,196,280198,1,8,0:0:0:0:
256,196,280363,1,0,0:0:0:0:
256,196,280446,1,0,0:0:0:0:
256,196,280528,1,8,0:0:0:0:
256,196,280693,1,0,0:0:0:0:
256,196,280775,1,8,0:0:0:0:
256,196,280858,1,0,0:0:0:0:
256,196,281023,1,0,0:0:0:0:
256,196,281187,1,8,0:0:0:0:
256,196,281352,1,0,0:0:0:0:
256,196,281435,1,0,0:0:0:0:
256,196,281517,1,8,0:0:0:0:
256,196,281682,1,0,0:0:0:0:
256,196,281847,1,8,0:0:0:0:
256,196,281929,1,8,0:0:0:0:
256,196,282012,1,0,0:0:0:0:
256,196,282176,1,8,0:0:0:0:
256,196,282341,1,0,0:0:0:0:
256,196,282506,1,8,0:0:0:0:
256,196,282589,1,8,0:0:0:0:
256,196,282671,1,0,0:0:0:0:
256,196,282836,1,8,0:0:0:0:
256,196,283001,1,8,0:0:0:0:
256,196,283083,1,0,0:0:0:0:
256,196,283165,1,0,0:0:0:0:
256,196,283248,1,0,0:0:0:0:
256,196,283330,1,8,0:0:0:0:
256,196,283495,1,8,0:0:0:0:
256,196,283660,1,0,0:0:0:0:
256,196,283742,1,0,0:0:0:0:
256,196,283825,1,8,0:0:0:0:
256,196,283907,1,0,0:0:0:0:
256,196,283990,1,8,0:0:0:0:
256,196,284154,1,8,0:0:0:0:
256,196,284237,1,0,0:0:0:0:
256,196,284319,1,0,0:0:0:0:
256,196,284402,1,0,0:0:0:0:
256,196,284484,1,8,0:0:0:0:
256,196,284649,1,8,0:0:0:0:
256,196,284731,1,0,0:0:0:0:
256,196,284814,1,8,0:0:0:0:
256,196,284979,1,0,0:0:0:0:
256,196,285143,1,8,0:0:0:0:
256,196,285226,1,8,0:0:0:0:
256,196,285308,1,8,0:0:0:0:
256,196,285473,1,8,0:0:0:0:
256,196,285638,1,8,0:0:0:0:
256,196,285720,1,8,0:0:0:0:
256,196,285803,1,0,0:0:0:0:
256,196,285885,1,0,0:0:0:0:
256,196,285968,1,8,0:0:0:0:
256,196,286050,1,0,0:0:0:0:
256,196,286132,1,8,0:0:0:0:
256,196,286215,1,0,0:0:0:0:
256,196,286297,1,0,0:0:0:0:
256,196,286380,1,0,0:0:0:0:
256,196,286462,1,8,0:0:0:0:
256,196,286545,1,0,0:0:0:0:
256,196,286627,1,8,0:0:0:0:
256,196,286709,1,0,0:0:0:0:
256,196,286792,1,8,0:0:0:0:
256,196,286874,1,8,0:0:0:0:
256,196,286957,1,8,0:0:0:0:
256,196,287122,1,0,0:0:0:0:
256,196,287286,1,0,0:0:0:0:
256,196,287451,1,8,0:0:0:0:
256,196,287781,1,8,0:0:0:0:
256,196,287946,1,0,0:0:0:0:
256,196,288111,1,8,0:0:0:0:
256,196,288275,1,0,0:0:0:0:
256,196,288440,1,0,0:0:0:0:
256,196,288770,1,0,0:0:0:0:
256,196,288935,1,8,0:0:0:0:
256,196,289100,1,0,0:0:0:0:
256,196,289264,1,0,0:0:0:0:
256,196,289429,1,8,0:0:0:0:
256,196,289594,1,0,0:0:0:0:
256,196,289924,1,0,0:0:0:0:
256,196,290089,1,8,0:0:0:0:
256,192,290418,1,8,0:0:0:0:
256,192,290583,1,0,0:0:0:0:
256,192,290913,1,8,0:0:0:0:
256,192,291078,1,0,0:0:0:0:
256,192,291572,1,0,0:0:0:0:
256,192,291737,1,8,0:0:0:0:
256,192,291902,1,0,0:0:0:0:
256,192,292067,1,8,0:0:0:0:
256,192,292231,1,0,0:0:0:0:
256,192,292396,1,0,0:0:0:0:
256,192,292561,1,0,0:0:0:0:
256,192,292726,1,8,0:0:0:0:
256,192,293056,1,8,0:0:0:0:
256,192,293220,1,0,0:0:0:0:
256,192,293385,1,8,0:0:0:0:
256,192,293550,1,8,0:0:0:0:
256,192,293715,1,0,0:0:0:0:
256,192,294045,1,8,0:0:0:0:
256,192,294374,1,0,0:0:0:0:
256,192,294539,1,8,0:0:0:0:
256,192,294704,1,0,0:0:0:0:
256,192,294869,1,0,0:0:0:0:
256,192,295198,1,0,0:0:0:0:
256,192,295363,1,8,0:0:0:0:
256,192,295693,1,8,0:0:0:0:
256,192,295858,1,0,0:0:0:0:
256,192,296187,1,8,0:0:0:0:
256,192,296352,1,0,0:0:0:0:
256,192,296847,1,8,0:0:0:0:
256,192,297506,1,0,0:0:0:0:
256,192,297835,1,0,0:0:0:0:
256,192,298000,1,8,0:0:0:0:
256,192,298330,1,8,0:0:0:0:
256,192,298495,1,0,0:0:0:0:
256,192,298824,1,8,0:0:0:0:
256,192,298989,1,0,0:0:0:0:
256,192,299484,1,0,0:0:0:0:
256,192,300143,1,0,0:0:0:0:
256,192,300472,1,0,0:0:0:0:
256,192,300637,1,8,0:0:0:0:
256,192,300967,1,8,0:0:0:0:
256,192,301132,1,0,0:0:0:0:
256,192,301461,1,8,0:0:0:0:
256,192,301626,1,0,0:0:0:0:
256,192,302122,1,0,0:0:0:0:
256,192,302286,1,8,0:0:0:0:
256,192,302781,1,0,0:0:0:0:
256,192,303110,1,0,0:0:0:0:
256,192,303275,1,8,0:0:0:0:
256,192,303605,1,8,0:0:0:0:
256,192,303770,1,0,0:0:0:0:
256,192,304099,1,8,0:0:0:0:
256,192,304264,1,0,0:0:0:0:
256,192,304594,1,0,0:0:0:0:
256,192,304759,1,0,0:0:0:0:
256,192,305418,1,0,0:0:0:0:
256,192,305747,1,0,0:0:0:0:
256,192,305912,1,8,0:0:0:0:
256,192,306242,1,8,0:0:0:0:
256,192,306407,1,0,0:0:0:0:
256,192,306736,1,8,0:0:0:0:
256,192,306901,1,0,0:0:0:0:
256,192,307067,12,0,308056,0:0:0:0:
