osu file format v14

[General]
AudioFilename: audio.mp3
AudioLeadIn: 0
PreviewTime: 98416
Countdown: 0
SampleSet: Normal
StackLeniency: 0.7
Mode: 1
LetterboxInBreaks: 0
WidescreenStoryboard: 1

[Editor]
Bookmarks: 9398,39398,54398,61898,84413,106913
DistanceSpacing: 1.4
BeatDivisor: 4
GridSize: 4
TimelineZoom: 1.2

[Metadata]
Title:Clarity (feat. Foxes) (Cut Ver.)
TitleUnicode:Clarity (feat. Foxes) (Cut Ver.)
Artist:Zedd
ArtistUnicode:Zedd
Creator:[-E S I A-]
Version:Oni
Source:
Tags:Антон Заславский anton zaslavski zaslavsky matthew koma porter robinson skylar grey holly brook hafermann electronic dance music edm progressive electro house interscope records ft. featuring short version pop english electropop E_S_I_A [-E_S_I_A-] ESIA [-ESIA-]
BeatmapID:4009009
BeatmapSetID:1630081

[Difficulty]
HPDrainRate:6
CircleSize:2
OverallDifficulty:5.5
ApproachRate:10
SliderMultiplier:1.4
SliderTickRate:1

[Events]
//Background and Video events
Video,-100,"if our love is tragedy.mp4"
0,0,"why are you my remedy.jpg",0,0
//Break Periods
//Storyboard Layer 0 (Background)
//Storyboard Layer 1 (Fail)
//Storyboard Layer 2 (Pass)
//Storyboard Layer 3 (Foreground)
//Storyboard Layer 4 (Overlay)
//Storyboard Sound Samples

[TimingPoints]
1913,468.75,4,1,0,70,1,0
39305,-100,4,1,0,80,0,0
61805,-100,4,1,0,85,0,0
69413,-95.2380952380952,4,1,0,90,0,1
98475,-90.9090909090909,4,1,0,90,0,0
99413,-90.9090909090909,4,1,0,90,0,1
99647,-95.2380952380952,4,1,0,90,0,1
113944,-95.2380952380952,4,1,0,90,0,0
114413,-100,4,1,0,70,0,0
114881,-100,4,1,0,60,0,0
115350,-100,4,1,0,50,0,0
115819,-100,4,1,0,40,0,0
116288,-100,4,1,0,30,0,0
116756,-100,4,1,0,20,0,0

[Colours]
Combo1 : 255,185,151
Combo2 : 0,155,39
Combo3 : 212,212,212
Combo4 : 230,74,0

[HitObjects]
185,247,9413,5,0,0:0:0:0:
268,218,9881,1,8,0:0:0:0:
264,293,10350,1,8,0:0:0:0:
199,300,10819,1,0,0:0:0:0:
199,300,11053,1,0,0:0:0:0:
323,251,11288,1,8,0:0:0:0:
342,194,11756,1,0,0:0:0:0:
323,251,12225,1,8,0:0:0:0:
311,232,12694,1,8,0:0:0:0:
262,195,12928,1,0,0:0:0:0:
311,232,13163,1,8,0:0:0:0:
262,195,13631,1,0,0:0:0:0:
311,232,13866,1,0,0:0:0:0:
310,176,14100,1,8,0:0:0:0:
233,190,14569,1,0,0:0:0:0:
310,176,14803,1,8,0:0:0:0:
333,207,16913,1,8,0:0:0:0:
307,210,17381,1,0,0:0:0:0:
294,251,17850,1,0,0:0:0:0:
294,251,18319,1,8,0:0:0:0:
294,251,18553,1,8,0:0:0:0:
263,226,18788,1,0,0:0:0:0:
204,199,19256,1,8,0:0:0:0:
192,230,19725,1,0,0:0:0:0:
238,276,20194,1,0,0:0:0:0:
305,265,20428,1,8,0:0:0:0:
286,250,20663,1,0,0:0:0:0:
283,270,21131,1,8,0:0:0:0:
212,246,21366,1,8,0:0:0:0:
305,246,21600,1,0,0:0:0:0:
281,240,22069,1,8,0:0:0:0:
212,273,22303,1,0,0:0:0:0:
224,237,24413,1,0,0:0:0:0:
251,263,24881,1,0,0:0:0:0:
283,183,25350,1,8,0:0:0:0:
283,183,25819,1,8,0:0:0:0:
336,181,26053,1,0,0:0:0:0:
283,183,26288,1,8,0:0:0:0:
266,182,26756,1,0,0:0:0:0:
226,173,27225,1,8,0:0:0:0:
226,173,27694,1,8,0:0:0:0:
226,173,27928,1,8,0:0:0:0:
144,168,28163,1,0,0:0:0:0:
125,168,28631,1,0,0:0:0:0:
197,191,28866,1,0,0:0:0:0:
118,148,29100,1,8,0:0:0:0:
215,151,29569,1,0,0:0:0:0:
209,162,29803,1,8,0:0:0:0:
153,227,31913,1,8,0:0:0:0:
153,227,32381,1,8,0:0:0:0:
164,186,32850,1,0,0:0:0:0:
205,225,33319,1,0,0:0:0:0:
309,213,33553,1,8,0:0:0:0:
205,225,33788,1,0,0:0:0:0:
268,193,34256,1,8,0:0:0:0:
271,235,34725,1,0,0:0:0:0:
215,278,35194,1,0,0:0:0:0:
215,278,35428,1,0,0:0:0:0:
375,202,35663,1,8,0:0:0:0:
375,202,36131,1,8,0:0:0:0:
234,183,36366,1,8,0:0:0:0:
234,183,36600,1,0,0:0:0:0:
375,202,37069,1,8,0:0:0:0:
249,183,37303,1,0,0:0:0:0:
276,216,39413,1,4,0:0:0:0:
180,181,39647,1,8,0:0:0:0:
152,255,39881,1,0,0:0:0:0:
329,194,40350,1,8,0:0:0:0:
257,371,40819,1,0,0:0:0:0:
297,220,41053,1,0,0:0:0:0:
294,220,41288,1,8,0:0:0:0:
207,184,41756,1,8,0:0:0:0:
297,220,42225,1,0,0:0:0:0:
297,219,42694,1,8,0:0:0:0:
393,202,42928,1,8,0:0:0:0:
393,202,43163,1,0,0:0:0:0:
271,270,43631,1,8,0:0:0:0:
213,206,43866,1,0,0:0:0:0:
310,207,44100,1,8,0:0:0:0:
310,207,44569,1,0,0:0:0:0:
240,244,44803,1,8,0:0:0:0:
240,244,45038,1,8,0:0:0:0:
232,198,45506,1,0,0:0:0:0:
254,219,45975,1,8,0:0:0:0:
368,77,46444,1,8,0:0:0:0:
249,214,46913,1,0,0:0:0:0:
310,214,47381,1,8,0:0:0:0:
221,210,47850,1,0,0:0:0:0:
310,214,48319,1,0,0:0:0:0:
244,213,48553,1,0,0:0:0:0:
295,206,48788,1,8,0:0:0:0:
267,213,49256,1,8,0:0:0:0:
255,214,49725,1,0,0:0:0:0:
92,145,50194,1,8,0:0:0:0:
188,159,50428,1,0,0:0:0:0:
284,179,50663,1,8,0:0:0:0:
238,173,51131,1,0,0:0:0:0:
263,252,51366,1,0,0:0:0:0:
209,228,51600,1,8,0:0:0:0:
177,214,52069,1,8,0:0:0:0:
177,214,52303,1,8,0:0:0:0:
194,226,52538,1,0,0:0:0:0:
194,226,53006,1,0,0:0:0:0:
190,127,53241,1,0,0:0:0:0:
263,188,53475,1,8,0:0:0:0:
451,241,53944,1,8,0:0:0:0:
255,190,54413,1,0,0:0:0:0:
396,159,54881,1,0,0:0:0:0:
215,201,55350,1,8,0:0:0:0:
215,201,55819,1,8,0:0:0:0:
243,221,56053,1,0,0:0:0:0:
134,176,56522,1,0,0:0:0:0:
224,209,56756,1,8,0:0:0:0:
224,209,57225,1,0,0:0:0:0:
312,179,57694,1,8,0:0:0:0:
224,214,57928,1,0,0:0:0:0:
164,188,58163,1,8,0:0:0:0:
164,188,58397,1,8,0:0:0:0:
123,202,58631,1,0,0:0:0:0:
317,186,59100,1,8,0:0:0:0:
183,329,59569,1,0,0:0:0:0:
317,186,59803,1,8,0:0:0:0:
219,215,60038,1,0,0:0:0:0:
299,191,60506,1,8,0:0:0:0:
208,198,60975,1,0,0:0:0:0:
208,198,61209,1,0,0:0:0:0:
268,173,61444,1,8,0:0:0:0:
207,205,61913,1,0,0:0:0:0:
304,205,62381,1,8,0:0:0:0:
241,216,62616,1,0,0:0:0:0:
207,205,62733,1,0,0:0:0:0:
207,205,62850,1,8,0:0:0:0:
294,249,63084,1,0,0:0:0:0:
207,205,63319,1,8,0:0:0:0:
207,205,63553,1,0,0:0:0:0:
207,205,64022,1,0,0:0:0:0:
207,205,64256,1,8,0:0:0:0:
207,205,64491,1,8,0:0:0:0:
304,193,64608,1,8,0:0:0:0:
304,193,64725,1,0,0:0:0:0:
265,199,64959,1,0,0:0:0:0:
265,199,65194,1,8,0:0:0:0:
304,193,65428,1,8,0:0:0:0:
214,234,65663,1,0,0:0:0:0:
258,214,65897,1,8,0:0:0:0:
258,214,66014,1,0,0:0:0:0:
302,216,66131,1,8,0:0:0:0:
203,215,66366,1,0,0:0:0:0:
299,233,66600,1,8,0:0:0:0:
299,233,66717,1,8,0:0:0:0:
308,184,66834,1,0,0:0:0:0:
329,139,66952,1,0,0:0:0:0:
299,233,67069,1,8,0:0:0:0:
308,184,67303,1,0,0:0:0:0:
308,184,67538,1,8,0:0:0:0:
298,281,67772,1,0,0:0:0:0:
298,281,67889,1,0,0:0:0:0:
338,253,68006,1,8,0:0:0:0:
308,184,68241,1,8,0:0:0:0:
248,286,68475,5,0,0:0:0:0:
283,215,68592,1,0,0:0:0:0:
248,286,68709,1,0,0:0:0:0:
283,215,68944,1,8,0:0:0:0:
286,223,69061,1,8,0:0:0:0:
265,224,69178,1,0,0:0:0:0:
197,273,69413,1,12,0:0:0:0:
250,253,69881,1,0,0:0:0:0:
299,282,70350,1,0,0:0:0:0:
287,188,70584,1,0,0:0:0:0:
212,151,70819,1,8,0:0:0:0:
214,208,71053,1,8,0:0:0:0:
137,203,71170,1,8,0:0:0:0:
301,204,71288,1,0,0:0:0:0:
242,230,71522,1,0,0:0:0:0:
347,252,71756,1,8,0:0:0:0:
146,261,71991,1,0,0:0:0:0:
174,240,72108,1,8,0:0:0:0:
329,269,72225,1,0,0:0:0:0:
203,263,72459,1,8,0:0:0:0:
236,179,72694,1,0,0:0:0:0:
284,173,72811,1,0,0:0:0:0:
258,218,72928,1,8,0:0:0:0:
274,214,73163,1,0,0:0:0:0:
229,290,73631,1,0,0:0:0:0:
287,251,73866,1,8,0:0:0:0:
146,261,73983,1,8,0:0:0:0:
322,263,74100,1,0,0:0:0:0:
251,223,74334,1,0,0:0:0:0:
146,261,74569,1,8,0:0:0:0:
190,239,74686,1,0,0:0:0:0:
236,223,74803,1,8,0:0:0:0:
251,223,75038,1,0,0:0:0:0:
177,310,75272,1,0,0:0:0:0:
360,210,75506,1,8,0:0:0:0:
267,284,75741,1,0,0:0:0:0:
276,199,75858,1,0,0:0:0:0:
197,276,75975,1,8,0:0:0:0:
264,251,76209,1,0,0:0:0:0:
197,276,76444,1,8,0:0:0:0:
326,212,76561,1,8,0:0:0:0:
358,223,76678,1,8,0:0:0:0:
346,167,76913,1,0,0:0:0:0:
471,206,77381,1,8,0:0:0:0:
281,213,77850,1,8,0:0:0:0:
249,254,78084,1,8,0:0:0:0:
212,151,78319,1,0,0:0:0:0:
214,208,78553,1,0,0:0:0:0:
137,203,78670,1,0,0:0:0:0:
301,204,78788,1,8,0:0:0:0:
347,252,79022,1,8,0:0:0:0:
242,230,79256,1,0,0:0:0:0:
203,263,79491,1,8,0:0:0:0:
146,261,79608,1,0,0:0:0:0:
329,269,79725,1,8,0:0:0:0:
203,263,79959,1,0,0:0:0:0:
236,179,80194,1,8,0:0:0:0:
274,214,80311,1,8,0:0:0:0:
258,218,80428,1,0,0:0:0:0:
258,218,80663,1,8,0:0:0:0:
229,290,81131,1,8,0:0:0:0:
287,251,81366,1,0,0:0:0:0:
146,261,81483,1,0,0:0:0:0:
322,263,81600,1,8,0:0:0:0:
146,261,81834,1,8,0:0:0:0:
251,223,82069,1,0,0:0:0:0:
281,224,82186,1,8,0:0:0:0:
287,251,82303,1,0,0:0:0:0:
251,223,82538,1,8,0:0:0:0:
360,210,82772,1,8,0:0:0:0:
177,310,83006,1,0,0:0:0:0:
267,284,83241,1,8,0:0:0:0:
276,199,83358,1,8,0:0:0:0:
197,276,83475,1,0,0:0:0:0:
197,276,83709,1,8,0:0:0:0:
326,212,83944,1,0,0:0:0:0:
264,251,84061,1,0,0:0:0:0:
346,167,84178,1,0,0:0:0:0:
237,256,84413,1,12,0:0:0:0:
258,223,84881,1,0,0:0:0:0:
258,223,85350,1,8,0:0:0:0:
283,220,85584,1,0,0:0:0:0:
248,185,85702,1,0,0:0:0:0:
212,151,85819,1,8,0:0:0:0:
283,220,86053,1,8,0:0:0:0:
137,203,86170,1,8,0:0:0:0:
301,204,86288,1,0,0:0:0:0:
242,230,86522,1,0,0:0:0:0:
347,252,86756,1,8,0:0:0:0:
282,210,86991,1,0,0:0:0:0:
203,263,87108,1,8,0:0:0:0:
329,269,87225,1,0,0:0:0:0:
236,179,87459,1,8,0:0:0:0:
235,271,87694,1,0,0:0:0:0:
274,214,87811,1,0,0:0:0:0:
258,218,87928,1,8,0:0:0:0:
258,218,88045,1,8,0:0:0:0:
203,263,88163,1,0,0:0:0:0:
229,290,88631,1,0,0:0:0:0:
287,251,88866,1,8,0:0:0:0:
146,261,88983,1,8,0:0:0:0:
322,263,89100,1,0,0:0:0:0:
251,223,89334,1,0,0:0:0:0:
146,261,89569,1,8,0:0:0:0:
251,223,89686,1,0,0:0:0:0:
235,162,89803,1,8,0:0:0:0:
258,213,89920,1,8,0:0:0:0:
251,223,90038,1,0,0:0:0:0:
177,310,90272,1,0,0:0:0:0:
360,210,90506,1,8,0:0:0:0:
267,284,90741,1,0,0:0:0:0:
276,199,90858,1,0,0:0:0:0:
197,276,90975,1,8,0:0:0:0:
197,276,91209,1,0,0:0:0:0:
264,251,91444,1,8,0:0:0:0:
237,196,91561,1,8,0:0:0:0:
237,256,91678,1,0,0:0:0:0:
326,212,91795,1,0,0:0:0:0:
346,167,91913,1,8,0:0:0:0:
307,171,92381,1,8,0:0:0:0:
199,325,92850,1,0,0:0:0:0:
212,151,93084,1,8,0:0:0:0:
307,171,93202,1,8,0:0:0:0:
249,254,93319,1,0,0:0:0:0:
323,274,93553,1,0,0:0:0:0:
301,204,93670,1,0,0:0:0:0:
137,203,93788,1,8,0:0:0:0:
347,252,94022,1,8,0:0:0:0:
242,230,94256,1,0,0:0:0:0:
146,261,94491,1,8,0:0:0:0:
329,269,94608,1,0,0:0:0:0:
203,263,94725,1,8,0:0:0:0:
203,263,94959,1,0,0:0:0:0:
203,263,95194,1,8,0:0:0:0:
258,218,95311,1,8,0:0:0:0:
274,214,95428,1,0,0:0:0:0:
258,218,95545,1,0,0:0:0:0:
236,179,95663,1,8,0:0:0:0:
229,290,96131,1,8,0:0:0:0:
287,251,96366,1,0,0:0:0:0:
146,261,96483,1,0,0:0:0:0:
322,263,96600,1,8,0:0:0:0:
146,261,96834,1,8,0:0:0:0:
258,213,96952,1,8,0:0:0:0:
251,223,97069,1,0,0:0:0:0:
251,223,97303,1,8,0:0:0:0:
238,222,97538,1,0,0:0:0:0:
238,222,97655,1,0,0:0:0:0:
360,210,97772,1,8,0:0:0:0:
304,198,97889,1,8,0:0:0:0:
177,310,98006,1,0,0:0:0:0:
267,284,98241,5,8,0:0:0:0:
197,276,98475,1,4,0:0:0:0:
197,276,98944,1,4,0:0:0:0:
346,167,99413,1,12,0:0:0:0:
288,210,99881,1,8,0:0:0:0:
229,259,100116,1,0,0:0:0:0:
266,223,100233,1,0,0:0:0:0:
286,221,100350,1,8,0:0:0:0:
168,288,100584,1,0,0:0:0:0:
310,233,100819,1,8,0:0:0:0:
329,260,100936,1,0,0:0:0:0:
310,233,101053,1,8,0:0:0:0:
318,233,101170,1,8,0:0:0:0:
329,260,101288,1,0,0:0:0:0:
302,218,101522,1,0,0:0:0:0:
257,255,101756,1,8,0:0:0:0:
250,234,101991,1,0,0:0:0:0:
246,228,102108,1,8,0:0:0:0:
250,234,102225,1,0,0:0:0:0:
302,218,102459,1,8,0:0:0:0:
287,191,102694,1,0,0:0:0:0:
287,191,102811,1,0,0:0:0:0:
336,196,102928,1,8,0:0:0:0:
336,196,103163,1,0,0:0:0:0:
336,196,103397,1,8,0:0:0:0:
179,286,103514,1,0,0:0:0:0:
179,286,103631,1,8,0:0:0:0:
179,286,103866,1,0,0:0:0:0:
207,249,104100,1,8,0:0:0:0:
304,235,104217,1,8,0:0:0:0:
282,210,104334,1,0,0:0:0:0:
318,199,104452,1,0,0:0:0:0:
207,249,104569,1,8,0:0:0:0:
288,220,104803,1,0,0:0:0:0:
261,212,105038,1,8,0:0:0:0:
240,210,105272,1,0,0:0:0:0:
240,210,105389,1,0,0:0:0:0:
258,213,105506,1,8,0:0:0:0:
355,223,105741,1,8,0:0:0:0:
283,205,105975,1,0,0:0:0:0:
307,210,106092,1,8,0:0:0:0:
307,210,106209,1,0,0:0:0:0:
307,210,106327,1,0,0:0:0:0:
307,210,106444,1,8,0:0:0:0:
306,203,106678,1,0,0:0:0:0:
264,241,106913,1,12,0:0:0:0:
300,184,107381,1,8,0:0:0:0:
201,200,107616,1,0,0:0:0:0:
234,150,107733,1,0,0:0:0:0:
201,200,107850,1,8,0:0:0:0:
278,267,108084,1,0,0:0:0:0:
300,184,108319,1,8,0:0:0:0:
264,197,108436,1,0,0:0:0:0:
201,200,108553,1,8,0:0:0:0:
237,235,108670,1,8,0:0:0:0:
201,200,108788,1,0,0:0:0:0:
298,232,109022,1,0,0:0:0:0:
300,195,109256,1,8,0:0:0:0:
201,200,109491,1,0,0:0:0:0:
251,208,109608,1,8,0:0:0:0:
244,249,109725,1,0,0:0:0:0:
306,179,109959,1,8,0:0:0:0:
245,205,110194,1,0,0:0:0:0:
201,200,110663,1,8,0:0:0:0:
201,200,110897,1,8,0:0:0:0:
201,200,111131,1,0,0:0:0:0:
201,200,111366,1,0,0:0:0:0:
201,200,111600,1,8,0:0:0:0:
201,200,111834,1,0,0:0:0:0:
201,200,112069,1,8,0:0:0:0:
208,201,112303,1,8,0:0:0:0:
201,200,112538,1,0,0:0:0:0:
209,201,112772,1,0,0:0:0:0:
210,201,113006,1,8,0:0:0:0:
215,201,113241,1,8,0:0:0:0:
215,201,113475,1,0,0:0:0:0:
239,213,113592,1,0,0:0:0:0:
215,201,113709,1,0,0:0:0:0:
326,224,113944,1,12,0:0:0:0:
256,192,114413,12,0,116756,0:0:0:0:
