osu file format v14

[General]
AudioFilename: audio.mp3
AudioLeadIn: 0
PreviewTime: 65733
Countdown: 0
SampleSet: None
StackLeniency: 0.4
Mode: 0
LetterboxInBreaks: 0
WidescreenStoryboard: 0

[Editor]
Bookmarks: 9998,28821,47645,57056,66468,87645,106468,125292,134703,144115,162939,172350,181762,200586,209997
DistanceSpacing: 2.5
BeatDivisor: 16
GridSize: 4
TimelineZoom: 1.3

[Metadata]
Title:Stay
TitleUnicode:Stay
Artist:Zedd & Alessia Cara
ArtistUnicode:Zedd & Alessia Cara
Creator:RyoKazuka
Version:Special
Source:
Tags:
BeatmapID:1345216
BeatmapSetID:633901

[Difficulty]
HPDrainRate:6
CircleSize:4
OverallDifficulty:8
ApproachRate:9
SliderMultiplier:2.1
SliderTickRate:2

[Events]
//Background and Video events
0,0,"abstract_polygonal_colorful_background-wallpaper-1920x1080.jpg",0,0
//Break Periods
2,85492,87045
//Storyboard Layer 0 (Background)
//Storyboard Layer 1 (Fail)
//Storyboard Layer 2 (Pass)
//Storyboard Layer 3 (Foreground)
//Storyboard Sound Samples

[TimingPoints]
9998,588.235294117647,4,2,0,80,1,0
9998,-200,4,2,0,80,0,0
28233,-142.857142857143,4,2,0,80,0,0
28821,-105.263157894737,4,2,0,80,0,0
47645,-153.846153846154,4,2,0,80,0,0
48821,-142.857142857143,4,2,0,80,0,0
49997,-153.846153846154,4,2,0,80,0,0
51174,-142.857142857143,4,2,0,80,0,0
52350,-153.846153846154,4,2,0,80,0,0
53527,-142.857142857143,4,2,0,80,0,0
54703,-153.846153846154,4,2,0,80,0,0
57056,-117.64705882353,4,2,0,80,0,0
65880,-90.9090909090909,4,2,0,80,0,0
66468,-125,4,2,0,80,0,1
67350,-83.3333333333333,4,2,0,80,0,1
67645,-41.6,4,2,0,80,0,1
67939,-37,4,2,0,80,0,1
68233,-100,4,2,0,80,0,1
68527,-83.3333333333333,4,2,0,80,0,1
68821,-125,4,2,0,80,0,1
69703,-83.3333333333333,4,2,0,80,0,1
69997,-41.6,4,2,0,80,0,1
70291,-37,4,2,0,80,0,1
70586,-100,4,2,0,80,0,1
70880,-83.3333333333333,4,2,0,80,0,1
71174,-125,4,2,0,80,0,1
72056,-83.3333333333333,4,2,0,80,0,1
72350,-41.6,4,2,0,80,0,1
72644,-37,4,2,0,80,0,1
72939,-100,4,2,0,80,0,1
73233,-83.3333333333333,4,2,0,80,0,1
73527,-125,4,2,0,80,0,1
74115,-100,4,2,0,80,0,1
75292,-111.111111111111,4,2,0,80,0,1
75586,-83.3333333333333,4,2,0,80,0,1
75880,-100,4,2,0,80,0,1
76174,-125,4,2,0,80,0,1
76762,-83.3333333333333,4,2,0,80,0,1
77056,-41.6,4,2,0,80,0,1
77350,-37,4,2,0,80,0,1
77645,-100,4,2,0,80,0,1
77939,-83.3333333333333,4,2,0,80,0,1
78233,-125,4,2,0,80,0,1
79115,-83.3333333333333,4,2,0,80,0,1
79409,-41.6,4,2,0,80,0,1
79703,-37,4,2,0,80,0,1
79998,-100,4,2,0,80,0,1
80292,-83.3333333333333,4,2,0,80,0,1
80586,-125,4,2,0,80,0,1
81468,-83.3333333333333,4,2,0,80,0,1
81762,-41.6,4,2,0,80,0,1
82056,-37,4,2,0,80,0,1
82351,-100,4,2,0,80,0,1
82645,-83.3333333333333,4,2,0,80,0,1
82939,-125,4,2,0,80,0,1
83527,-100,4,2,0,80,0,1
84703,-111.111111111111,4,2,0,80,0,1
84997,-83.3333333333333,4,2,0,80,0,1
85292,-100,4,2,0,80,0,0
87645,588.235294117647,4,2,0,100,1,0
87645,-166.666666666667,4,2,0,80,0,0
105880,-125,4,2,0,80,0,0
106468,-95.2380952380952,4,2,0,80,0,0
125292,-153.846153846154,4,2,0,80,0,0
134703,-117.64705882353,4,2,0,80,0,0
143527,-90.9090909090909,4,2,0,80,0,0
144115,-125,4,2,0,80,0,1
144997,-83.3333333333333,4,2,0,80,0,1
145292,-41.6,4,2,0,80,0,1
145586,-37,4,2,0,80,0,1
145880,-100,4,2,0,80,0,1
146174,-83.3333333333333,4,2,0,80,0,1
146468,-125,4,2,0,80,0,1
147350,-83.3333333333333,4,2,0,80,0,1
147644,-41.6,4,2,0,80,0,1
147938,-37,4,2,0,80,0,1
148233,-100,4,2,0,80,0,1
148527,-83.3333333333333,4,2,0,80,0,1
148821,-125,4,2,0,80,0,1
149703,-83.3333333333333,4,2,0,80,0,1
149997,-41.6,4,2,0,80,0,1
150291,-37,4,2,0,80,0,1
150586,-100,4,2,0,80,0,1
150880,-83.3333333333333,4,2,0,80,0,1
151174,-125,4,2,0,80,0,1
151762,-100,4,2,0,80,0,1
152939,-111.111111111111,4,2,0,80,0,1
153233,-83.3333333333333,4,2,0,80,0,1
153527,-100,4,2,0,80,0,1
153821,-125,4,2,0,80,0,1
154409,-83.3333333333333,4,2,0,80,0,1
154703,-41.6,4,2,0,80,0,1
154997,-37,4,2,0,80,0,1
155292,-100,4,2,0,80,0,1
155586,-83.3333333333333,4,2,0,80,0,1
155880,-125,4,2,0,80,0,1
156762,-83.3333333333333,4,2,0,80,0,1
157056,-41.6,4,2,0,80,0,1
157350,-37,4,2,0,80,0,1
157645,-100,4,2,0,80,0,1
157939,-83.3333333333333,4,2,0,80,0,1
158233,-125,4,2,0,80,0,1
159115,-83.3333333333333,4,2,0,80,0,1
159409,-41.6,4,2,0,80,0,1
159703,-37,4,2,0,80,0,1
159998,-100,4,2,0,80,0,1
160292,-83.3333333333333,4,2,0,80,0,1
160586,-125,4,2,0,80,0,1
161174,-100,4,2,0,80,0,1
162350,-111.111111111111,4,2,0,80,0,1
162644,-83.3333333333333,4,2,0,80,0,1
162939,-100,4,2,0,80,0,0
172350,-200,4,2,0,80,0,0
174703,-166.666666666667,4,2,0,80,0,0
177056,-142.857142857143,4,2,0,80,0,0
179409,-125,4,2,0,80,0,0
181762,-200,4,2,0,80,0,0
182350,-90.9090909090909,4,2,0,80,0,0
182939,-100,4,2,0,80,0,1
200586,-100,4,2,0,80,0,0

[Colours]
Combo1 : 0,255,255
Combo2 : 255,177,140
Combo3 : 254,167,215
Combo4 : 183,255,255
Combo5 : 252,146,29
Combo6 : 255,34,233

[HitObjects]
191,124,27939,5,0,0:0:0:0:
195,141,28012,1,0,0:0:0:0:
199,158,28086,1,0,0:0:0:0:
203,175,28159,1,0,0:0:0:0:
207,192,28233,6,0,P|140:167|102:175,1,110.249996635437
56,245,28821,6,0,L|61:298,1,49.8749986681939
185,350,29115,2,0,L|189:300,1,49.8749986681939
309,190,29409,2,0,B|324:238|324:238|307:284,1,99.7499973363877
228,163,29850,1,0,0:0:0:0:
290,112,29998,54,0,L|363:105,1,49.8749986681939
171,73,30292,2,0,L|98:66,1,49.8749986681939
25,205,30586,2,0,P|74:209|116:184,1,99.7499973363877
116,184,31174,6,0,L|113:254,1,49.8749986681939
167,292,31468,1,0,0:0:0:0:
233,247,31615,1,0,0:0:0:0:
304,281,31762,2,0,P|341:308|398:310,1,99.7499973363877
371,234,32203,1,0,0:0:0:0:
341,159,32350,6,0,P|291:157|220:152,1,99.7499973363877
66,324,32939,2,0,P|116:326|187:331,1,99.7499973363877
249,357,33380,1,0,0:0:0:0:
249,357,33453,1,0,0:0:0:0:
249,357,33527,54,0,P|247:309|247:295,1,49.8749986681939
395,228,33821,2,0,P|354:253|342:260,1,49.8749986681939
211,167,34115,2,0,P|253:189|265:196,1,49.8749986681939
129,261,34409,1,0,0:0:0:0:
59,222,34556,1,0,0:0:0:0:
38,145,34703,6,0,P|41:97|49:77,1,49.8749986681939
166,24,34997,2,0,P|163:72|155:92,1,49.8749986681939
230,173,35292,2,0,P|280:151|340:163,1,99.7499973363877
323,155,35880,6,0,L|314:210,1,49.8749986681939
361,269,36174,1,0,0:0:0:0:
295,314,36321,1,0,0:0:0:0:
352,368,36468,2,0,L|462:362,1,99.7499973363877
481,221,36909,1,0,0:0:0:0:
499,299,37056,53,0,0:0:0:0:
364,157,37203,1,0,0:0:0:0:
382,235,37350,2,0,P|461:225|491:218,1,99.7499973363877
242,101,37939,5,0,0:0:0:0:
244,118,38012,1,0,0:0:0:0:
246,135,38086,1,0,0:0:0:0:
248,152,38159,1,0,0:0:0:0:
250,169,38233,6,0,P|171:159|141:152,1,99.7499973363877
76,126,38674,1,0,0:0:0:0:
32,192,38821,2,0,L|46:311,1,99.7499973363877
108,337,39262,1,0,0:0:0:0:
205,278,39409,54,0,L|155:273,1,49.8749986681939
256,338,39703,1,0,0:0:0:0:
256,46,39997,1,0,0:0:0:0:
402,192,40292,2,0,P|361:188|338:182,1,49.8749986681939
469,127,40586,6,0,P|492:175|489:225,1,99.7499973363877
445,286,41027,1,0,0:0:0:0:
369,311,41174,2,0,L|247:297,1,99.7499973363877
147,224,41615,1,0,0:0:0:0:
190,292,41762,6,0,L|195:341,1,49.8749986681939
70,244,42056,1,0,0:0:0:0:
442,140,42350,1,0,0:0:0:0:
175,121,42645,2,0,L|181:178,1,49.8749986681939
180,170,42865,1,0,0:0:0:0:
180,170,42939,54,0,P|240:165|295:155,1,99.7499973363877
357,147,43380,1,0,0:0:0:0:
412,203,43527,2,0,P|426:266|403:310,1,99.7499973363877
261,317,43968,1,0,0:0:0:0:
297,246,44115,6,0,L|347:251,1,49.8749986681939
213,207,44409,1,0,0:0:0:0:
383,92,44703,1,0,0:0:0:0:
29,118,44997,1,0,0:0:0:0:
213,207,45292,6,0,B|263:208|263:208|305:182,1,99.7499973363877
160,147,45733,1,0,0:0:0:0:
108,207,45880,2,0,L|120:323,1,99.7499973363877
186,347,46321,1,0,0:0:0:0:
344,262,46468,5,0,0:0:0:0:
213,207,46615,1,0,0:0:0:0:
296,361,46762,1,0,0:0:0:0:
450,278,46909,1,0,0:0:0:0:
367,124,47056,6,0,L|362:188,1,49.8749986681939
482,31,47350,2,0,L|418:26,1,49.8749986681939
206,64,47645,22,0,P|281:67|333:22,1,136.499993751526
222,197,48821,6,0,L|179:189,1,36.749998878479
149,184,49115,2,0,L|185:190,1,36.749998878479
383,350,49997,6,0,B|413:312|413:312|396:215,1,136.499993751526
186,328,51174,54,0,P|176:302|172:282,1,36.749998878479
161,258,51468,2,0,P|165:275|173:292,1,36.749998878479
422,107,52350,6,0,B|354:126|356:88|287:106,1,136.499993751526
81,281,53527,6,0,B|96:272|96:272|130:269,1,36.749998878479
149,260,53821,2,0,B|129:261|129:261|114:270,1,36.749998878479
53,68,54703,54,0,B|82:108|126:101|126:101|176:92,1,136.499993751526
426,196,55880,53,0,0:0:0:0:
320,69,56027,1,0,0:0:0:0:
332,235,56174,1,0,0:0:0:0:
419,94,56321,1,0,0:0:0:0:
266,156,56468,6,0,L|222:150,1,34.1249984378815
160,277,56762,2,0,L|193:272,1,34.1249984378815
86,84,57056,6,0,B|62:122|62:122|62:166,1,89.2500017023087
148,190,57497,1,0,0:0:0:0:
85,254,57645,2,0,L|24:245,1,44.6250008511543
163,330,57939,1,0,0:0:0:0:
163,330,58086,1,0,0:0:0:0:
242,290,58233,6,0,P|257:257|259:239,1,44.6250008511543
369,187,58527,2,0,P|374:208|385:228,1,44.6250008511543
470,94,58821,2,0,L|422:86,1,44.6250008511543
282,43,59115,2,0,L|304:40,5,14.8750002837181
259,65,59409,6,0,L|271:160,1,89.2500017023087
217,225,59850,1,0,0:0:0:0:
133,193,59997,2,0,P|103:184|78:186,1,44.6250008511543
41,308,60292,1,0,0:0:0:0:
41,308,60439,1,0,0:0:0:0:
120,347,60586,54,0,L|173:339,1,44.6250008511543
261,231,60880,2,0,L|208:223,1,44.6250008511543
324,323,61174,1,0,0:0:0:0:
338,310,61247,1,0,0:0:0:0:
350,295,61321,1,0,0:0:0:0:
360,277,61395,1,0,0:0:0:0:
366,259,61468,1,0,0:0:0:0:
338,155,61615,1,0,0:0:0:0:
216,224,61762,6,0,L|231:327,1,89.2500017023087
154,361,62203,1,0,0:0:0:0:
87,301,62350,2,0,P|51:293|33:294,1,44.6250008511543
136,185,62645,1,0,0:0:0:0:
136,185,62792,1,0,0:0:0:0:
216,224,62939,6,0,L|225:279,1,44.6250008511543
348,171,63233,2,0,L|295:151,1,44.6250008511543
327,311,63527,2,0,L|370:275,1,44.6250008511543
498,249,63821,2,0,L|519:254,5,14.8750002837181
473,232,64115,53,0,0:0:0:0:
448,215,64409,1,0,0:0:0:0:
423,198,64703,1,0,0:0:0:0:
398,181,64997,1,0,0:0:0:0:
373,164,65292,1,0,0:0:0:0:
373,164,65880,6,0,P|343:147|433:100,1,202.125006168366
472,210,66468,22,0,P|421:263|333:267,1,147
270,248,67056,1,0,0:0:0:0:
367,100,67350,6,0,L|372:163,1,62.9999980773926
173,274,67645,6,0,B|181:196|181:196|224:153|224:153|234:72,1,220.853373485469
250,65,67939,54,0,B|240:160|240:160|196:203|196:203|184:295,1,248.310810810811
86,230,68233,1,0,0:0:0:0:
308,313,68527,6,0,B|340:313|340:313|374:298,1,62.9999980773926
454,200,68821,6,0,L|302:189,1,147
244,133,69409,1,0,0:0:0:0:
86,230,69703,54,0,P|69:267|65:301,1,62.9999980773926
228,323,69997,6,0,B|247:193|188:229|219:96,1,220.853373485469
231,94,70292,6,0,B|196:220|266:185|236:351,1,248.310810810811
339,295,70586,1,0,0:0:0:0:
133,141,70880,54,0,P|90:130|64:131,1,62.9999980773926
165,240,71174,6,0,B|237:255|237:255|302:221,1,147
377,182,71762,1,0,0:0:0:0:
196,335,72056,6,0,L|124:321,1,62.9999980773926
267,107,72350,54,0,P|382:105|374:185,1,220.853373485469
388,185,72645,6,0,P|367:75|259:100,1,248.310810810811
210,201,72939,1,0,0:0:0:0:
58,104,73233,6,0,L|68:34,1,62.9999980773926
253,265,73527,54,0,P|184:245|125:237,1,126
130,237,74042,1,0,0:0:0:0:
130,237,74115,1,0,0:0:0:0:
194,340,74262,1,0,0:0:0:0:
331,179,74409,2,0,L|341:242,1,52.5
213,99,74703,5,0,0:0:0:0:
416,112,74850,1,0,0:0:0:0:
234,214,74997,1,0,0:0:0:0:
317,42,75145,1,0,0:0:0:0:
214,237,75292,6,0,P|220:277|224:287,1,47.2499985580445
427,173,75586,54,0,P|425:142|416:112,1,62.9999980773926
346,278,75880,6,0,L|408:282,1,52.5
258,137,76174,6,0,B|230:123|230:123|190:127,1,63
115,141,76468,1,0,0:0:0:0:
364,50,76762,54,0,L|368:114,1,62.9999980773926
240,352,77056,6,0,B|246:267|246:267|238:240|238:240|252:215|252:215|257:136,1,220.853373485469
272,127,77350,6,0,B|265:211|265:211|251:236|251:236|259:264|259:264|253:370,1,248.310810810811
366,322,77645,1,0,0:0:0:0:
134,283,77939,54,0,L|62:288,1,62.9999980773926
272,127,78233,6,0,P|347:131|397:178,1,147
428,257,78821,1,0,0:0:0:0:
257,314,79115,6,0,L|192:310,1,62.9999980773926
93,168,79409,54,0,B|180:164|180:164|258:156|270:80,1,220.853373485469
281,94,79703,6,0,B|268:169|190:177|190:177|64:185,1,248.310810810811
117,80,79997,1,0,0:0:0:0:
398,30,80292,6,0,L|394:105,1,62.9999980773926
387,328,80586,54,0,B|342:319|342:319|315:274|346:224,1,147
415,174,81174,1,0,0:0:0:0:
210,248,81468,6,0,P|174:243|137:240,1,62.9999980773926
241,102,81762,6,0,B|397:81|397:81|330:62,1,220.853373485469
346,49,82056,54,0,B|407:66|407:66|202:96,1,248.310810810811
120,55,82350,1,0,0:0:0:0:
328,187,82645,6,0,L|397:177,1,62.9999980773926
248,295,82939,6,0,B|206:293|180:272|180:272|149:285|106:277,1,147
25,254,83527,1,0,0:0:0:0:
138,167,83674,1,0,0:0:0:0:
11,60,83821,2,0,L|18:120,1,52.5
167,3,84115,53,0,0:0:0:0:
294,110,84262,1,0,0:0:0:0:
138,167,84409,1,0,0:0:0:0:
308,85,84556,1,0,0:0:0:0:
245,229,84703,6,0,P|240:260|242:285,1,47.2499985580445
421,203,84997,6,0,L|411:138,1,62.9999980773926
350,307,85292,5,0,0:0:0:0:
435,75,87645,6,0,L|427:171,1,94.499997116089
363,214,88233,2,0,P|325:211|300:200,1,62.9999980773926
228,174,88674,1,0,0:0:0:0:
228,174,88821,2,0,L|231:236,1,62.9999980773926
74,98,89409,2,0,L|71:160,1,62.9999980773926
200,37,89997,6,0,P|231:48|265:50,1,62.9999980773926
339,38,90439,1,0,0:0:0:0:
339,38,90586,2,0,P|370:27|404:25,1,62.9999980773926
475,46,91027,1,0,0:0:0:0:
475,46,91174,1,0,0:0:0:0:
321,148,91468,1,0,0:0:0:0:
441,287,91762,1,0,0:0:0:0:
