osu file format v14

[General]
AudioFilename: audio.mp3
AudioLeadIn: 0
PreviewTime: 30828
Countdown: 0
SampleSet: Soft
StackLeniency: 0.7
Mode: 0
LetterboxInBreaks: 0
WidescreenStoryboard: 0

[Editor]
DistanceSpacing: 1
BeatDivisor: 4
GridSize: 4
TimelineZoom: 2.999999

[Metadata]
Title:All For None And None For All
TitleUnicode:All For None And None For All
Artist:Zebrahead
ArtistUnicode:Zebrahead
Creator:Mazziv
Version:Hard
Source:
Tags:DTM9 Nowa ReFaller cut version Phoenix
BeatmapID:1232223
BeatmapSetID:582254

[Difficulty]
HPDrainRate:5
CircleSize:3.4
OverallDifficulty:6.5
ApproachRate:8
SliderMultiplier:1.5
SliderTickRate:1

[Events]
//Background and Video events
0,0,"anime mafia gone wrong.png",0,0
//Break Periods
//Storyboard Layer 0 (Background)
//Storyboard Layer 1 (Fail)
//Storyboard Layer 2 (Pass)
//Storyboard Layer 3 (Foreground)
//Storyboard Sound Samples

[TimingPoints]
2065,300,4,2,1,70,1,0
11665,-133.333333333333,4,2,1,70,0,0
21265,-100,4,2,1,70,0,0
30865,-100,4,2,1,70,0,0
35665,-100,4,2,1,70,0,1
52315,-100,4,2,1,70,0,0

[Colours]
Combo1 : 149,160,189
Combo2 : 84,73,129
Combo3 : 73,107,199
Combo4 : 116,5,22

[HitObjects]
131,173,11665,6,0,L|142:109,1,56.2500021457673,4|0,0:0|0:0,0:0:0:0:
202,67,11965,2,0,P|257:80|322:66,1,112.500004291535,2|0,0:0|0:0,0:0:0:0:
380,32,12415,1,0,0:0:0:0:
451,63,12565,2,0,L|443:132,1,56.2500021457673
384,169,12865,5,0,0:0:0:0:
435,228,13015,2,0,L|441:283,1,56.2500021457673
394,347,13315,2,0,P|330:334|279:351,1,112.500004291535,2|0,0:0|0:0,0:0:0:0:
212,374,13765,2,0,P|188:364|157:364,1,56.2500021457673
89,324,14065,6,0,L|80:268,1,56.2500021457673,2|0,0:0|0:0,0:0:0:0:
148,208,14365,2,0,L|157:263,1,56.2500021457673,2|0,0:0|0:0,0:0:0:0:
231,288,14665,1,0,0:0:0:0:
304,259,14815,1,0,0:0:0:0:
381,274,14965,2,0,P|406:291|424:316,1,56.2500021457673
481,363,15265,5,0,0:0:0:0:
501,287,15415,2,0,L|511:230,1,56.2500021457673
466,166,15715,2,0,P|405:148|364:94,1,112.500004291535,2|0,0:0|0:0,0:0:0:0:
324,51,16165,1,0,0:0:0:0:
252,84,16315,1,0,0:0:0:0:
173,92,16465,6,0,P|140:90|109:79,1,56.2500021457673,2|0,0:0|0:0,0:0:0:0:
71,160,16765,2,0,P|98:159|125:167,1,56.2500021457673,2|0,0:0|0:0,0:0:0:0:
144,246,17065,2,0,P|111:244|80:233,1,56.2500021457673
41,314,17365,2,0,P|68:313|95:321,1,56.2500021457673,0|0,0:0|0:0,0:0:0:0:
161,366,17665,6,0,P|199:330|267:328,1,112.500004291535,2|0,0:0|0:0,0:0:0:0:
329,356,18115,2,0,L|358:176,1,168.750006437302,2|0,0:0|0:0,0:0:0:0:
403,126,18715,1,0,0:0:0:0:
350,67,18865,6,0,P|296:83|231:67,1,112.500004291535,2|0,0:0|0:0,0:0:0:0:
176,28,19315,2,0,P|218:111|207:199,1,168.750006437302,2|0,0:0|0:0,0:0:0:0:
266,242,19915,1,0,0:0:0:0:
273,320,20065,6,0,L|231:329,3,28.1250010728836
215,347,20365,2,0,L|173:338,3,28.1250010728836
160,316,20665,2,0,L|118:325,3,28.1250010728836
98,344,20965,2,0,L|56:335,3,28.1250010728836,8|0|0|0,0:0|0:0|0:0|0:0,0:0:0:0:
35,298,21265,6,0,P|2:244|13:152,1,150,12|8,0:0|0:0,0:0:0:0:
86,94,21715,1,0,0:0:0:0:
170,144,21865,2,0,P|212:149|262:138,1,75
330,98,22165,1,8,0:0:0:0:
407,166,22315,1,0,0:0:0:0:
407,166,22465,6,0,L|423:253,1,75,2|0,0:0|0:0,0:0:0:0:
512,206,22765,1,8,0:0:0:0:
512,206,22915,2,0,L|479:382,1,150,2|0,0:0|0:0,0:0:0:0:
389,328,23365,1,8,0:0:0:0:
301,371,23515,1,0,0:0:0:0:
226,308,23665,6,0,P|214:267|186:236,1,75,4|0,0:0|0:0,0:0:0:0:
100,211,23965,1,8,0:0:0:0:
100,211,24115,1,8,0:0:0:0:
144,124,24265,2,0,L|139:38,1,75
233,21,24565,2,0,L|237:95,1,75,8|0,0:0|0:0,0:0:0:0:
299,170,24865,5,0,0:0:0:0:
382,119,25015,2,0,L|459:111,1,75,0|8,0:0|0:0,0:0:0:0:
503,197,25315,2,0,P|441:247|429:322,1,150,10|0,0:0|0:0,0:0:0:0:
338,273,25765,2,0,P|301:267|263:269,1,75,8|0,0:0|0:0,0:0:0:0:
178,317,26065,6,0,P|171:279|157:244,1,75,4|0,0:0|0:0,0:0:0:0:
85,179,26365,1,8,0:0:0:0:
85,179,26515,1,8,0:0:0:0:
145,102,26665,2,0,L|227:82,1,75
291,150,26965,2,0,L|218:167,1,75,8|0,0:0|0:0,0:0:0:0:
157,245,27265,6,0,P|193:262|218:299,1,75
278,362,27565,1,8,0:0:0:0:
278,362,27715,2,0,P|301:296|380:253,1,150,10|0,0:0|0:0,0:0:0:0:
453,301,28165,1,8,0:0:0:0:
503,217,28315,1,0,0:0:0:0:
503,217,28465,6,0,L|489:123,1,75,2|0,0:0|0:0,0:0:0:0:
400,176,28765,1,8,0:0:0:0:
400,176,28915,2,0,L|420:18,1,150,10|0,0:0|0:0,0:0:0:0:
322,11,29365,2,0,P|311:47|274:75,1,75,8|0,0:0|0:0,0:0:0:0:
205,130,29665,6,0,P|134:117|78:56,1,150,2|8,0:0|0:0,0:0:0:0:
0,117,30115,2,0,P|24:184|0:263,1,150,2|0,0:0|0:0,0:0:0:0:
84,313,30565,2,0,P|123:281|162:274,1,75,8|0,0:0|0:0,0:0:0:0:
237,307,30865,6,0,L|248:350,4,37.5,4|0|4|4|4,3:0|3:0|3:0|3:0|3:0,3:0:0:0:
256,290,31465,2,0,B|333:274|333:274|415:284,1,150
176,196,32065,6,0,L|165:239,4,37.5,4|0|4|4|4,3:0|3:0|3:0|3:0|3:0,3:0:0:0:
157,179,32665,2,0,B|80:163|80:163|-2:173,1,150
243,93,33265,6,0,L|254:136,4,37.5,4|0|4|4|4,3:0|3:0|3:0|3:0|3:0,3:0:0:0:
262,76,33865,2,0,B|339:60|339:60|421:70,1,150
488,261,34465,6,0,L|401:249,1,75,12|0,0:0|0:0,0:0:0:0:
308,238,34765,1,8,0:0:0:0:
369,177,34915,1,0,0:0:0:0:
352,311,35065,2,0,B|307:327|307:327|205:290,1,150,10|10,0:0|0:2,0:0:0:0:
308,238,35515,1,0,0:0:0:0:
308,238,35665,6,0,P|333:184|328:89,1,150,6|8,0:0|0:0,0:0:0:0:
137,10,36265,2,0,P|111:63|116:158,1,150,2|8,0:0|0:0,0:0:0:0:
323,242,36865,6,0,P|348:188|343:93,1,150,2|8,0:0|0:0,0:0:0:0:
152,14,37465,2,0,P|126:67|131:162,1,150,2|8,0:0|0:0,0:0:0:0:
78,248,37915,6,0,P|132:303|213:322,1,150
299,358,38365,2,0,P|305:318|333:281,1,75,10|0,0:0|0:0,0:0:0:0:
418,249,38665,1,0,0:0:0:0:
509,296,38815,1,0,0:0:0:0:
500,191,38965,2,0,L|504:100,1,75,10|0,0:0|0:0,0:0:0:0:
435,35,39265,6,0,P|404:66|354:83,1,75,10|0,0:0|0:0,0:0:0:0:
308,149,39565,2,0,P|259:93|182:74,1,150,10|8,0:0|0:0,0:0:0:0:
52,235,40165,2,0,P|50:198|62:163,1,75,8|8,0:0|0:0,0:0:0:0:
147,210,40465,6,0,L|171:381,1,150,2|10,0:0|0:0,0:0:0:0:
340,275,41065,2,0,L|316:104,1,150,0|10,0:0|0:0,0:0:0:0:
131,205,41665,6,0,L|155:376,1,150,0|10,0:0|0:0,0:0:0:0:
327,278,42265,2,0,L|315:192,1,75
222,190,42565,2,0,L|245:358,1,150,10|0,0:0|0:0,0:0:0:0:
464,339,43165,6,0,B|491:192|491:192|448:40,1,300,10|10,0:0|0:0,0:0:0:0:
255,38,44065,6,0,L|300:200,1,150,2|10,0:0|0:0,0:0:0:0:
469,270,44665,2,0,L|483:190,1,75,10|2,0:0|0:0,0:0:0:0:
386,214,44965,1,10,0:0:0:0:
372,310,45115,1,10,0:0:0:0:
279,278,45265,6,0,L|185:267,1,75,6|0,0:0|0:0,0:0:0:0:
114,323,45565,2,0,P|102:281|67:246,1,75,10|0,0:0|0:0,0:0:0:0:
0,193,45865,2,0,P|22:163|31:127,1,75,2|0,0:0|0:0,0:0:0:0:
82,36,46165,1,10,0:0:0:0:
180,73,46315,1,0,0:0:0:0:
271,20,46465,6,0,P|309:35|361:35,1,75,4|0,0:0|0:0,0:0:0:0:
408,120,46765,2,0,P|370:135|318:135,1,75,8|0,0:0|0:0,0:0:0:0:
242,185,47065,2,0,P|282:212|312:249,1,75
316,328,47365,1,8,0:0:0:0:
176,365,47515,6,0,P|114:327|69:245,1,150,4|0,0:0|0:0,0:0:0:0:
134,176,47965,2,0,P|161:202|175:236,1,75,10|0,0:0|0:0,0:0:0:0:
30,168,48265,1,0,0:0:0:0:
88,81,48415,1,0,0:0:0:0:
193,89,48565,2,0,P|235:90|277:76,1,75,10|0,0:0|0:0,0:0:0:0:
354,24,48865,6,0,L|368:117,1,75,6|0,0:0|0:0,0:0:0:0:
467,76,49165,2,0,L|453:169,1,75,10|0,0:0|0:0,0:0:0:0:
509,240,49465,1,0,0:0:0:0:
509,240,49615,1,8,0:0:0:0:
437,322,49765,1,8,0:0:0:0:
284,315,49915,6,0,L|125:307,1,150,14|0,0:0|0:0,0:0:0:0:
58,223,50365,2,0,L|137:219,1,75,10|0,0:0|0:0,0:0:0:0:
218,158,50665,1,2,0:0:0:0:
218,158,50815,1,10,0:0:0:0:
155,55,50965,1,8,0:0:0:0:
303,88,51115,6,0,B|382:100|382:100|458:84,1,150,14|0,0:0|0:0,0:0:0:0:
510,163,51565,2,0,L|420:183,1,75,10|2,0:0|0:0,0:0:0:0:
304,210,51865,2,0,P|331:234|349:267,1,75,2|2,0:0|0:0,0:0:0:0:
337,355,52165,1,10,0:0:0:0:
432,257,52315,1,12,0:0:0:0:
