osu file format v14

[General]
AudioFilename: audio.mp3
AudioLeadIn: 0
PreviewTime: 30828
Countdown: 0
SampleSet: Soft
StackLeniency: 0.7
Mode: 0
LetterboxInBreaks: 0
WidescreenStoryboard: 0

[Editor]
Bookmarks: 2065,11665,21265,30865,35665,52315
DistanceSpacing: 0.8
BeatDivisor: 2
GridSize: 4
TimelineZoom: 1

[Metadata]
Title:All For None And None For All
TitleUnicode:All For None And None For All
Artist:Zebrahead
ArtistUnicode:Zebrahead
Creator:Mazziv
Version:Normal
Source:
Tags:DTM9 Nowa ReFaller cut version Phoenix
BeatmapID:1270085
BeatmapSetID:582254

[Difficulty]
HPDrainRate:4
CircleSize:3
OverallDifficulty:4
ApproachRate:5.5
SliderMultiplier:1.2
SliderTickRate:1

[Events]
//Background and Video events
0,0,"anime mafia gone wrong.png",0,0
//Break Periods
//Storyboard Layer 0 (Background)
//Storyboard Layer 1 (Fail)
//Storyboard Layer 2 (Pass)
//Storyboard Layer 3 (Foreground)
//Storyboard Sound Samples

[TimingPoints]
2065,300,4,2,0,70,1,0
21265,-100,4,2,0,70,0,0
35665,-100,4,2,0,70,0,1
52315,-100,4,2,0,70,0,0

[Colours]
Combo1 : 149,160,189
Combo2 : 84,73,129
Combo3 : 73,107,199
Combo4 : 116,5,22

[HitObjects]
125,95,11665,6,0,L|66:90,2,60,0|0|0,3:0|0:0|3:0,0:0:0:0:
119,191,12265,1,0,3:0:0:0:
213,206,12565,1,0,3:0:0:0:
307,187,12865,2,0,P|385:175|493:180,2,180,0|2|0,3:0|0:0|3:0,0:0:0:0:
276,277,14065,6,0,L|299:344,2,60,0|0|0,3:0|0:0|3:0,0:0:0:0:
182,297,14665,2,0,L|115:320,2,60,0|0|0,3:0|0:0|3:0,0:0:0:0:
213,206,15265,1,0,3:0:0:0:
213,206,15415,2,0,P|229:145|224:89,1,120,0|2,0:0|0:0,0:0:0:0:
319,92,16015,1,0,0:0:0:0:
319,92,16165,1,4,0:0:0:0:
313,187,16465,5,0,3:0:0:0:
408,193,16765,1,0,3:0:0:0:
414,98,17065,1,0,3:0:0:0:
319,92,17365,1,0,3:0:0:0:
223,88,17665,2,0,P|218:147|233:205,1,120,0|0,3:0|3:0,0:0:0:0:
260,245,18115,2,0,P|343:215|431:230,1,180,2|0,0:0|3:0,0:0:0:0:
482,312,18865,6,0,P|439:354|386:380,1,120,0|0,3:0|3:0,0:0:0:0:
339,367,19315,2,0,B|279:351|252:367|229:380|153:364,1,180,2|0,0:0|3:0,0:0:0:0:
68,339,20065,2,0,P|45:282|59:224,1,120,0|0,3:0|3:0,0:0:0:0:
131,163,20665,2,0,P|153:219|139:277,1,120,0|2,3:0|3:2,0:0:0:0:
160,365,21265,5,4,1:0:0:0:
233,303,21565,2,0,L|304:294,2,60,0|0|4,1:0|1:0|3:0,0:0:0:0:
140,275,22165,1,0,1:0:0:0:
212,211,22465,2,0,L|331:195,1,120,4|0,3:0|1:0,0:0:0:0:
377,210,22915,2,0,P|407:159|405:100,1,120,2|0,0:0|0:0,0:0:0:0:
394,53,23365,1,0,1:0:0:0:
303,20,23665,6,0,L|183:35,1,120,4|0,3:0|1:0,0:0:0:0:
136,44,24115,1,0,1:0:0:0:
89,53,24265,2,0,P|57:104|60:163,1,120,4|0,3:0|1:0,0:0:0:0:
97,250,24865,1,4,3:0:0:0:
10,292,25165,1,0,1:0:0:0:
10,292,25315,2,0,P|98:288|165:354,1,180,0|0,1:0|1:0,0:0:0:0:
253,317,26065,5,4,3:0:0:0:
253,221,26365,1,0,1:0:0:0:
161,191,26665,2,0,L|199:145,2,60,4|0|0,3:0|0:0|1:0,0:0:0:0:
66,210,27265,2,0,P|33:159|24:96,1,120,4|0,3:0|1:0,0:0:0:0:
42,57,27715,2,0,L|172:50,1,120,2|0,0:0|0:0,0:0:0:0:
209,49,28165,1,0,1:0:0:0:
291,100,28465,6,0,P|299:159|278:215,1,120,4|0,3:0|1:0,0:0:0:0:
232,202,28915,2,0,P|178:192|111:198,1,120,2|0,0:0|0:0,0:0:0:0:
66,210,29365,1,0,1:0:0:0:
74,305,29665,5,4,3:0:0:0:
169,317,29965,1,0,1:0:0:0:
169,317,30115,2,0,B|229:301|256:317|279:330|355:314,1,180,2|0,0:0|1:0,0:0:0:0:
404,238,30865,6,0,L|414:171,2,60,4|0|0,1:0|3:0|3:0,0:0:0:0:
310,217,31465,2,0,P|250:206|189:208,1,120,2|2,3:2|3:2,0:0:0:0:
112,263,32065,6,0,L|45:273,2,60,4|0|0,1:0|3:0|3:0,0:0:0:0:
99,167,32665,2,0,P|88:107|90:46,1,120,2|2,3:2|3:2,0:0:0:0:
185,38,33265,6,0,L|244:30,2,60,4|0|0,1:0|3:0|3:0,0:0:0:0:
187,135,33865,2,0,P|246:124|308:126,1,120,2|2,3:2|3:2,0:0:0:0:
297,221,34465,5,0,1:0:0:0:
393,229,34765,1,0,1:0:0:0:
401,133,35065,1,0,1:0:0:0:
305,125,35365,1,4,1:2:0:0:
211,145,35665,6,0,L|87:135,1,120,4|2,1:0|1:2,0:0:0:0:
60,226,36265,2,0,L|179:235,1,120,4|2,3:0|1:2,0:0:0:0:
147,325,36865,2,0,L|28:316,2,120,4|2|4,3:0|1:2|3:0,0:0:0:0:
242,337,37765,1,2,1:2:0:0:
295,256,38065,6,0,P|310:199|305:139,1,120,4|2,3:0|1:2,0:0:0:0:
243,66,38665,2,0,L|180:60,2,60,4|4|2,3:0|3:0|1:2,0:0:0:0:
211,157,39265,2,0,P|214:190|205:218,2,60,4|4|2,3:0|3:0|1:2,0:0:0:0:
118,131,39865,1,4,3:0:0:0:
29,167,40165,1,4,1:2:0:0:
29,262,40465,6,0,P|88:289|150:287,1,120,4|2,1:0|1:2,0:0:0:0:
206,215,41065,2,0,L|184:91,1,120,4|2,3:0|1:2,0:0:0:0:
255,31,41665,2,0,P|314:32|368:57,2,120,4|2|4,3:0|1:2|3:0,0:0:0:0:
185,96,42565,1,2,1:2:0:0:
101,48,42865,6,0,L|41:58,2,60,4|4|2,3:0|3:0|1:2,0:0:0:0:
101,144,43465,2,0,L|111:203,2,60,4|4|2,3:0|3:0|1:2,0:0:0:0:
185,96,44065,2,0,L|309:74,1,120,4|2,3:0|1:2,0:0:0:0:
372,143,44665,1,0,1:0:0:0:
439,213,44965,1,0,1:0:0:0:
428,260,45115,1,0,1:0:0:0:
416,305,45265,6,0,B|372:329|372:329|302:322,1,120,4|2,1:0|1:2,0:0:0:0:
233,254,45865,2,0,B|277:230|277:230|347:237,1,120,4|2,3:0|1:2,0:0:0:0:
439,213,46465,2,0,P|466:158|457:99,2,120,4|2|4,3:0|1:2|3:0,0:0:0:0:
372,143,47365,1,2,1:2:0:0:
276,129,47665,6,0,B|136:115,1,120,4|2,3:0|1:2,0:0:0:0:
61,104,48265,2,0,L|68:39,2,60,4|4|2,3:0|3:0|1:2,0:0:0:0:
51,199,48865,1,4,3:0:0:0:
146,212,49165,1,2,1:2:0:0:
241,223,49465,2,0,L|234:282,2,60,4|0|0,3:0|1:0|1:0,0:0:0:0:
264,181,49915,6,0,B|332:153|351:181|371:202|439:181,1,180,4|2,1:0|1:2,0:0:0:0:
397,94,50665,2,0,P|366:82|340:78,2,60,4|0|0,3:0|1:0|1:0,0:0:0:0:
432,127,51115,2,0,B|441:201|441:201|438:226|438:226|451:308,1,180,4|2,1:0|1:2,0:0:0:0:
355,320,51865,1,4,3:0:0:0:
260,336,52165,1,2,1:2:0:0:
260,336,52315,1,4,0:0:0:0:
