osu file format v14

[General]
AudioFilename: audio.mp3
AudioLeadIn: 0
PreviewTime: 30828
Countdown: 0
SampleSet: Soft
StackLeniency: 0.7
Mode: 0
LetterboxInBreaks: 0
WidescreenStoryboard: 0

[Editor]
Bookmarks: 11628,21265,54065
DistanceSpacing: 1
BeatDivisor: 4
GridSize: 4
TimelineZoom: 1

[Metadata]
Title:All For None And None For All
TitleUnicode:All For None And None For All
Artist:Zebrahead
ArtistUnicode:Zebrahead
Creator:Mazziv
Version:Easy
Source:
Tags:DTM9 Nowa ReFaller cut version Phoenix
BeatmapID:1232222
BeatmapSetID:582254

[Difficulty]
HPDrainRate:2
CircleSize:3
OverallDifficulty:3
ApproachRate:3
SliderMultiplier:0.899999999999999
SliderTickRate:1

[Events]
//Background and Video events
0,0,"anime mafia gone wrong.png",0,0
//Break Periods
//Storyboard Layer 0 (Background)
//Storyboard Layer 1 (Fail)
//Storyboard Layer 2 (Pass)
//Storyboard Layer 3 (Foreground)
//Storyboard Sound Samples

[TimingPoints]
2065,300,4,2,1,70,1,0
21265,-100,4,2,1,70,0,0
30865,-100,4,2,1,70,0,0
35665,-100,4,2,1,70,0,1
51265,-100,4,2,1,70,0,1
52315,-100,4,2,1,70,0,0

[Colours]
Combo1 : 149,160,189
Combo2 : 84,73,129
Combo3 : 73,107,199
Combo4 : 116,5,22

[HitObjects]
168,88,11665,6,0,P|172:140|160:192,1,89.9999999999999,6|2,0:0|0:0,0:0:0:0:
148,264,12265,2,0,P|200:260|252:272,1,89.9999999999999,0|0,0:0|0:0,0:0:0:0:
324,292,12865,2,0,P|400:280|416:176,1,180
388,108,13765,1,0,0:0:0:0:
300,124,14065,6,0,P|244:132|200:120,1,89.9999999999999,4|2,0:0|0:0,0:0:0:0:
240,40,14665,2,0,P|296:32|340:44,1,89.9999999999999,0|0,0:0|0:0,0:0:0:0:
388,108,15265,2,0,P|420:204|392:288,1,180,0|0,0:0|0:0,0:0:0:0:
324,328,16165,1,0,0:0:0:0:
236,324,16465,6,0,P|184:308|168:268,1,89.9999999999999,4|2,0:0|0:0,0:0:0:0:
156,188,17065,2,0,P|164:144|201:120,1,89.9999999999999,0|0,0:0|0:0,0:0:0:0:
292,112,17665,2,0,B|368:156|380:72|476:132,1,180,2|0,0:0|0:0,0:0:0:0:
410,197,18565,1,0,0:0:0:0:
372,280,18865,6,0,B|312:284|284:312|284:312|252:284|188:280,1,180,6|0,0:0|0:0,0:0:0:0:
120,304,19765,1,0,0:0:0:0:
76,224,20065,2,0,L|60:120,2,89.9999999999999
152,176,20965,1,0,0:0:0:0:
132,80,21265,6,0,P|188:44|304:44,1,180,12|0,0:0|0:0,0:0:0:0:
384,72,22165,1,8,0:0:0:0:
320,136,22465,2,0,P|316:180|344:272,2,135,2|2|8,0:0|0:0|0:0,0:0:0:0:
384,72,23665,6,0,P|456:80|504:184,1,180,12|0,0:0|0:0,0:0:0:0:
484,256,24565,1,8,0:0:0:0:
408,300,24865,2,0,P|356:308|320:296,1,89.9999999999999,0|8,0:0|0:0,0:0:0:0:
232,296,25465,2,0,P|188:304|145:292,1,89.9999999999999,0|8,0:0|0:0,0:0:0:0:
60,268,26065,6,0,B|60:208|60:208|80:156|80:156|80:80,1,180,12|0,0:0|0:0,0:0:0:0:
156,44,26965,1,8,0:0:0:0:
208,116,27265,2,0,P|212:160|184:252,2,135,2|2|8,0:0|0:0|0:0,0:0:0:0:
304,116,28465,6,0,P|300:160|328:252,2,135,2|2|8,0:0|0:0|0:0,0:0:0:0:
372,56,29665,2,0,B|388:104|420:132|420:132|420:224|420:224|468:264|460:336,1,270,2|8,0:0|0:0,0:0:0:0:
368,300,30865,5,4,0:0:0:0:
144,300,32065,1,4,0:0:0:0:
256,88,33265,1,4,0:0:0:0:
420,208,34465,6,0,L|408:96,2,89.9999999999999,4|2|4,0:0|0:0|0:0,0:0:0:0:
332,184,35365,1,2,0:0:0:0:
248,152,35665,6,0,B|160:112|160:184|64:140,1,180,4|0,0:0|0:0,0:0:0:0:
124,68,36565,1,10,0:0:0:0:
212,52,36865,2,0,B|298:91|298:19|386:59,1,180,4|0,0:0|0:0,0:0:0:0:
460,108,37765,1,10,0:0:0:0:
408,180,38065,6,0,P|399:223|408:267,2,89.9999999999999,4|10|0,0:0|0:0|0:0,0:0:0:0:
332,132,38965,1,10,0:0:0:0:
260,188,39265,2,0,L|148:188,1,89.9999999999999,4|4,0:0|0:0,0:0:0:0:
152,276,39865,2,0,L|242:276,1,89.9999999999999,4|4,0:0|0:0,0:0:0:0:
332,276,40465,6,0,P|416:244|440:156,1,180,4|0,0:0|0:0,0:0:0:0:
444,72,41365,1,10,0:0:0:0:
356,68,41665,2,0,P|273:95|243:177,1,180,4|0,0:0|0:0,0:0:0:0:
236,268,42565,1,10,0:0:0:0:
156,224,42865,6,0,P|120:192|104:144,2,89.9999999999999,4|10|0,0:0|0:0|0:0,0:0:0:0:
236,268,43765,1,10,0:0:0:0:
316,224,44065,2,0,P|352:192|368:144,1,89.9999999999999,2|2,0:0|0:0,0:0:0:0:
288,108,44665,2,0,P|252:140|236:188,1,89.9999999999999,2|2,0:0|0:0,0:0:0:0:
236,268,45265,6,0,B|272:296|272:336|272:336|316:304|372:316,1,180,6|0,0:0|0:0,0:0:0:0:
456,316,46165,1,10,0:0:0:0:
424,232,46465,2,0,P|404:152|420:124,1,89.9999999999999,4|10,0:0|0:0,0:0:0:0:
400,56,47065,2,0,P|320:76|292:60,1,89.9999999999999,0|10,0:0|0:0,0:0:0:0:
232,48,47665,6,0,L|220:232,1,180,4|0,0:0|0:0,0:0:0:0:
208,316,48565,1,10,0:0:0:0:
136,260,48865,2,0,P|104:208|108:144,1,89.9999999999999,4|12,0:0|0:0,0:0:0:0:
100,88,49465,2,0,P|152:56|216:60,1,89.9999999999999,4|12,0:0|0:0,0:0:0:0:
268,48,50065,6,0,L|252:248,1,180,0|10,0:0|0:0,0:0:0:0:
246,317,50965,2,0,L|294:345,1,45,0|10,0:0|0:0,0:0:0:0:
404,276,51565,5,2,0:0:0:0:
432,192,51865,1,2,0:0:0:0:
460,108,52165,2,4,L|436:64,1,45,10|4,0:0|0:0,0:0:0:0:
