osu file format v14

[General]
AudioFilename: audio.mp3
AudioLeadIn: 0
PreviewTime: 52898
Countdown: 0
SampleSet: Soft
StackLeniency: 0.3
Mode: 0
LetterboxInBreaks: 0
WidescreenStoryboard: 1

[Editor]
Bookmarks: 160019,187018,199017
DistanceSpacing: 0.5
BeatDivisor: 4
GridSize: 16
TimelineZoom: 2.3

[Metadata]
Title:senpuu no mai
TitleUnicode:旋風ノ舞
Artist:Zeami feat. Ayane
ArtistUnicode:世阿弥 feat. 彩音
Creator:knowledgeking
Version:Cyclone AR8.4
Source:太鼓の達人
Tags:seven six five namco original vocal music street machine game tatsh red cloud cat fire day god ghost monster dance wind Tatsuya Shimizu
BeatmapID:2092168
BeatmapSetID:1000005

[Difficulty]
HPDrainRate:5
CircleSize:4.2
OverallDifficulty:8.5
ApproachRate:8.4
SliderMultiplier:1.7
SliderTickRate:1

[Events]
//Background and Video events
0,0,"75019838_p0_waifu2x_art_noise3_scale_tta_1.jpg",0,0
//Break Periods
//Storyboard Layer 0 (Background)
//Storyboard Layer 1 (Fail)
//Storyboard Layer 2 (Pass)
//Storyboard Layer 3 (Foreground)
//Storyboard Sound Samples

[TimingPoints]
1701,375,4,2,1,40,1,0
12211,375,6,2,1,40,1,0
12961,-166.666666666667,6,2,1,40,0,0
13898,-100,6,2,1,40,0,0
14461,375,4,2,1,60,1,0
14461,-83.3333333333333,4,2,1,60,0,0
28711,375,4,2,1,50,1,0
54211,-83.3333333333333,4,2,1,70,0,1
78211,-83.3333333333333,4,2,1,50,0,0
81211,-83.3333333333333,4,2,1,60,0,0
94768,375,4,2,1,50,1,0
107523,374.976563964752,4,2,1,50,1,0
133021,-83.3333333333333,4,2,1,70,0,1
160019,-76.9230769230769,4,2,1,80,0,0
187018,-71.4285714285714,4,2,1,90,0,0
199017,-71.4285714285714,4,2,1,90,0,1
211016,-71.4285714285714,4,2,1,90,0,0
220672,-100,4,2,1,20,0,0

[Colours]
Combo1 : 11,99,136
Combo2 : 96,181,251
Combo3 : 240,227,64
Combo4 : 192,192,192

[HitObjects]
198,29,1701,5,0,0:0:0:0:
224,134,1888,1,0,0:0:0:0:
304,58,2076,1,0,0:0:0:0:
330,163,2263,1,0,0:0:0:0:
410,87,2451,6,0,L|502:73,1,85
456,237,2826,1,0,0:0:0:0:
336,184,3013,1,0,0:0:0:0:
349,310,3201,6,0,L|252:334,1,85
138,365,3576,2,0,P|129:323|152:270,1,85
241,211,3951,6,0,P|232:164|192:129,1,85
93,176,4326,1,0,0:0:0:0:
114,49,4513,1,0,0:0:0:0:
207,137,4701,6,0,B|261:150|261:150|315:126|315:126|382:146,1,170
466,214,5263,1,0,0:0:0:0:
478,97,5451,6,0,L|467:3,1,85
368,141,5826,1,0,0:0:0:0:
466,214,6013,1,0,0:0:0:0:
352,253,6201,6,0,L|256:234,1,85
162,178,6576,2,0,P|141:216|159:272,1,85
226,352,6951,1,0,0:0:0:0:
268,236,7138,5,0,0:0:0:0:
270,215,7326,1,0,0:0:0:0:
272,194,7513,1,0,0:0:0:0:
274,172,7701,5,0,0:0:0:0:
238,63,7888,1,0,0:0:0:0:
163,141,8076,1,0,0:0:0:0:
127,32,8263,1,0,0:0:0:0:
52,110,8451,6,0,L|60:214,1,85
157,254,8826,1,0,0:0:0:0:
78,336,9013,1,0,0:0:0:0:
219,349,9201,6,0,P|263:332|308:351,1,85
423,355,9576,2,0,P|425:308|393:271,1,85
295,225,9951,6,0,P|304:177|336:149,1,85
445,175,10326,1,0,0:0:0:0:
410,45,10513,1,0,0:0:0:0:
328,152,10701,6,0,B|209:168,1,85
141,106,11076,1,0,0:0:0:0:
141,106,11263,2,0,P|123:152|143:210,1,85
193,332,11638,6,0,P|211:286|191:228,1,85
85,275,12013,1,0,0:0:0:0:
281,238,12211,6,0,L|368:250,1,85
512,149,12586,2,0,L|427:137,1,85
281,238,12961,6,0,B|260:181|260:181|291:110|291:110|268:44,1,203.999993774414
174,118,13898,6,0,L|137:112,3,28.3333333333333
174,118,14460,5,0,0:0:0:0:
211,154,14554,1,0,0:0:0:0:
224,203,14648,1,0,0:0:0:0:
211,253,14742,1,0,0:0:0:0:
175,289,14835,1,0,0:0:0:0:
126,302,14929,1,0,0:0:0:0:
77,289,15023,1,0,0:0:0:0:
41,252,15117,1,0,0:0:0:0:
28,203,15210,1,0,0:0:0:0:
77,190,15304,1,0,0:0:0:0:
126,203,15398,1,0,0:0:0:0:
162,240,15492,1,0,0:0:0:0:
175,289,15585,1,0,0:0:0:0:
211,325,15679,1,0,0:0:0:0:
260,339,15773,1,0,0:0:0:0:
309,325,15867,1,0,0:0:0:0:
346,290,15961,5,0,0:0:0:0:
361,236,16054,1,0,0:0:0:0:
346,182,16148,1,0,0:0:0:0:
303,145,16242,1,0,0:0:0:0:
248,137,16335,1,0,0:0:0:0:
197,160,16429,1,0,0:0:0:0:
166,207,16523,1,0,0:0:0:0:
166,263,16617,1,0,0:0:0:0:
197,310,16710,1,0,0:0:0:0:
248,287,16804,1,0,0:0:0:0:
279,240,16898,1,0,0:0:0:0:
279,184,16992,1,0,0:0:0:0:
248,137,17086,1,0,0:0:0:0:
244,81,17179,1,0,0:0:0:0:
272,32,17273,1,0,0:0:0:0:
323,7,17367,1,0,0:0:0:0:
379,13,17461,5,0,0:0:0:0:
416,48,17554,1,0,0:0:0:0:
429,97,17648,1,0,0:0:0:0:
416,147,17742,1,0,0:0:0:0:
380,183,17835,1,0,0:0:0:0:
331,196,17929,1,0,0:0:0:0:
282,183,18023,1,0,0:0:0:0:
246,146,18117,1,0,0:0:0:0:
233,97,18210,5,0,0:0:0:0:
190,60,18304,1,0,0:0:0:0:
135,52,18398,1,0,0:0:0:0:
84,75,18492,1,0,0:0:0:0:
54,122,18585,1,0,0:0:0:0:
54,178,18679,1,0,0:0:0:0:
85,225,18773,1,0,0:0:0:0:
136,248,18867,1,0,0:0:0:0:
191,240,18961,5,0,0:0:0:0:
232,211,19054,1,0,0:0:0:0:
283,211,19147,1,0,0:0:0:0:
324,241,19241,1,0,0:0:0:0:
340,290,19335,1,0,0:0:0:0:
324,339,19429,1,0,0:0:0:0:
282,368,19523,1,0,0:0:0:0:
231,368,19617,1,0,0:0:0:0:
190,339,19710,1,0,0:0:0:0:
206,290,19804,1,0,0:0:0:0:
248,261,19898,1,0,0:0:0:0:
299,261,19992,1,0,0:0:0:0:
340,290,20086,6,0,L|401:307,1,50.9999984436036
511,235,20273,2,0,L|461:221,1,50.9999984436036
334,178,20461,5,0,0:0:0:0:
307,135,20554,1,0,0:0:0:0:
307,84,20648,1,0,0:0:0:0:
334,41,20742,1,0,0:0:0:0:
380,20,20836,1,0,0:0:0:0:
431,27,20930,1,0,0:0:0:0:
470,60,21023,1,0,0:0:0:0:
484,109,21117,1,0,0:0:0:0:
470,158,21211,1,0,0:0:0:0:
431,191,21305,1,0,0:0:0:0:
381,198,21398,1,0,0:0:0:0:
334,178,21492,1,0,0:0:0:0:
303,138,21586,1,0,0:0:0:0:
256,119,21679,1,0,0:0:0:0:
206,128,21773,1,0,0:0:0:0:
169,164,21867,1,0,0:0:0:0:
158,214,21961,5,0,0:0:0:0:
214,219,22054,1,0,0:0:0:0:
265,195,22148,1,0,0:0:0:0:
298,150,22242,1,0,0:0:0:0:
302,94,22335,1,0,0:0:0:0:
279,43,22428,1,0,0:0:0:0:
232,11,22522,1,0,0:0:0:0:
176,6,22616,1,0,0:0:0:0:
125,30,22710,1,0,0:0:0:0:
93,76,22803,1,0,0:0:0:0:
88,132,22897,1,0,0:0:0:0:
111,183,22991,1,0,0:0:0:0:
158,214,23086,1,0,0:0:0:0:
214,217,23180,1,0,0:0:0:0:
260,250,23274,1,0,0:0:0:0:
283,301,23368,1,0,0:0:0:0:
279,357,23461,5,0,0:0:0:0:
225,343,23554,1,0,0:0:0:0:
186,303,23648,1,0,0:0:0:0:
171,249,23742,1,0,0:0:0:0:
186,195,23835,1,0,0:0:0:0:
225,155,23929,1,0,0:0:0:0:
280,141,24023,1,0,0:0:0:0:
334,155,24117,1,0,0:0:0:0:
374,194,24210,5,0,0:0:0:0:
391,242,24304,1,0,0:0:0:0:
436,265,24398,1,0,0:0:0:0:
485,251,24492,1,0,0:0:0:0:
507,206,24585,1,0,0:0:0:0:
492,157,24679,1,0,0:0:0:0:
446,134,24773,1,0,0:0:0:0:
397,149,24867,1,0,0:0:0:0:
374,194,24961,5,0,0:0:0:0:
331,221,25054,1,0,0:0:0:0:
281,224,25147,1,0,0:0:0:0:
237,198,25241,1,0,0:0:0:0:
210,155,25335,1,0,0:0:0:0:
208,104,25429,1,0,0:0:0:0:
232,59,25522,1,0,0:0:0:0:
276,33,25616,1,0,0:0:0:0:
327,31,25711,5,0,0:0:0:0:
311,95,25804,1,0,0:0:0:0:
261,138,25897,1,0,0:0:0:0:
195,143,25991,1,0,0:0:0:0:
138,109,26085,5,0,0:0:0:0:
79,113,26179,1,0,0:0:0:0:
37,155,26273,1,0,0:0:0:0:
32,213,26367,1,0,0:0:0:0:
66,261,26460,5,0,0:0:0:0:
323,303,26742,1,0,0:0:0:0:
232,59,27023,1,0,0:0:0:0:
66,261,27398,6,0,L|127:252,1,50.9999984436036
323,303,27586,2,0,L|272:310,1,50.9999984436036
239,145,27773,1,0,0:0:0:0:
239,145,28711,6,0,L|226:52,1,85
379,126,29086,1,0,0:0:0:0:
379,126,29273,2,0,L|367:210,1,85
394,336,29648,6,0,P|351:344|299:301,1,85
255,234,30023,2,0,P|212:226|160:269,1,85
131,352,30398,5,0,0:0:0:0:
40,166,30586,1,0,0:0:0:0:
18,292,30773,1,0,0:0:0:0:
166,148,30961,5,0,0:0:0:0:
222,263,31148,1,0,0:0:0:0:
337,207,31336,1,0,0:0:0:0:
281,92,31523,1,0,0:0:0:0:
166,148,31711,5,0,0:0:0:0:
166,148,31804,1,0,0:0:0:0:
166,148,31898,1,0,0:0:0:0:
222,263,32086,5,0,0:0:0:0:
148,359,32273,1,0,0:0:0:0:
92,244,32461,1,0,0:0:0:0:
249,178,32648,2,0,L|354:200,1,85
439,265,33023,1,0,0:0:0:0:
482,147,33211,5,0,0:0:0:0:
470,118,33304,1,0,0:0:0:0:
470,88,33398,1,0,0:0:0:0:
342,57,33586,2,0,P|295:73|237:68,1,85
183,0,33961,5,0,0:0:0:0:
166,141,34148,1,0,0:0:0:0:
48,65,34336,1,0,0:0:0:0:
65,206,34523,1,0,0:0:0:0:
166,141,34711,6,0,P|217:131|259:172,1,85
269,267,35086,1,0,0:0:0:0:
269,267,35273,2,0,P|312:256|342:199,1,85
360,98,35648,5,0,0:0:0:0:
465,179,35836,1,0,0:0:0:0:
311,158,36023,1,0,0:0:0:0:
416,239,36211,6,0,L|409:344,1,85
311,158,36586,2,0,L|305:73,1,85
404,146,36961,6,0,L|488:140,1,85
323,251,37336,2,0,L|218:244,1,85
120,192,37711,6,0,P|103:234|129:294,1,85
216,134,38086,1,0,0:0:0:0:
216,134,38273,2,0,P|229:82|212:30,1,85
116,77,38648,5,0,0:0:0:0:
289,94,38836,1,0,0:0:0:0:
289,94,38929,1,0,0:0:0:0:
289,94,39023,1,0,0:0:0:0:
190,196,39211,6,0,L|199:292,1,85
314,369,39586,2,0,L|321:284,1,85
304,169,39961,5,0,0:0:0:0:
324,166,40054,1,0,0:0:0:0:
344,172,40148,5,0,0:0:0:0:
379,197,40242,1,0,0:0:0:0:
421,197,40336,1,0,0:0:0:0:
456,173,40430,1,0,0:0:0:0:
469,132,40524,1,0,0:0:0:0:
456,92,40618,1,0,0:0:0:0:
421,67,40711,6,0,B|368:77|368:77|315:49|315:49|226:66,1,170
158,152,41273,1,0,0:0:0:0:
158,152,41461,2,0,P|97:80|130:14,1,170
268,154,42023,1,0,0:0:0:0:
268,154,42211,6,0,L|277:259,1,85
191,365,42586,1,0,0:0:0:0:
143,247,42773,1,0,0:0:0:0:
143,247,42867,1,0,0:0:0:0:
143,247,42961,5,0,0:0:0:0:
294,337,43148,1,0,0:0:0:0:
297,162,43336,1,0,0:0:0:0:
143,247,43523,1,0,0:0:0:0:
143,247,43711,6,0,P|62:240|37:134,1,170
160,107,44273,1,0,0:0:0:0:
160,107,44461,2,0,L|263:125,1,85
412,69,44836,2,0,L|328:54,1,85
341,164,45211,6,0,P|352:214|329:262,1,85
218,202,45586,1,0,0:0:0:0:
416,204,45773,1,0,0:0:0:0:
416,204,45867,1,0,0:0:0:0:
416,204,45961,1,0,0:0:0:0:
308,315,46148,6,0,L|302:377,1,42.5
257,240,46336,2,0,L|252:197,1,42.5
202,310,46523,2,0,L|196:372,1,42.5
151,235,46711,6,0,L|52:250,1,85
9,110,47086,2,0,L|108:125,1,85
215,61,47461,2,0,P|234:110|213:164,1,85
151,235,47836,1,0,0:0:0:0:
218,338,48023,1,0,0:0:0:0:
218,338,48117,1,0,0:0:0:0:
218,338,48211,6,0,L|321:330,1,85
426,359,48586,1,0,0:0:0:0:
388,237,48773,1,0,0:0:0:0:
302,331,48961,2,0,L|218:338,1,85
89,356,49336,2,0,P|88:311|118:265,1,85
208,224,49711,6,0,P|211:186|186:130,1,85
27,205,50086,2,0,L|125:193,1,85
281,171,50461,5,0,0:0:0:0:
423,196,50648,1,0,0:0:0:0:
448,53,50836,1,0,0:0:0:0:
306,28,51023,1,0,0:0:0:0:
306,28,51117,1,0,0:0:0:0:
306,28,51211,6,0,L|199:39,1,85
97,96,51586,1,0,0:0:0:0:
221,162,51773,1,0,0:0:0:0:
96,221,51961,6,0,L|102:282,1,42.5
177,373,52148,2,0,L|181:330,1,42.5
230,237,52336,5,0,0:0:0:0:
280,226,52430,1,0,0:0:0:0:
329,242,52524,1,0,0:0:0:0:
363,280,52617,1,0,0:0:0:0:
374,330,52711,5,0,0:0:0:0:
374,330,53086,5,0,0:0:0:0:
492,259,53273,1,0,0:0:0:0:
362,192,53461,2,0,L|372:96,1,85
481,21,53836,2,0,L|489:105,1,85
492,259,54211,6,0,B|426:252|426:252|362:280|362:280|279:268,1,203.999993774414
181,211,54773,1,0,0:0:0:0:
181,211,54961,2,0,P|159:265|172:309,1,101.999996887207
259,370,55336,5,0,0:0:0:0:
268,186,55523,1,0,0:0:0:0:
105,271,55711,2,0,L|4:254,1,101.999996887207
167,169,56086,6,0,L|268:186,1,101.999996887207
405,225,56461,2,0,P|409:159|373:106,1,101.999996887207
309,2,56836,2,0,P|289:44|312:107,1,101.999996887207
322,261,57211,6,0,L|308:391,1,101.999996887207
448,258,57586,1,0,0:0:0:0:
448,258,57773,2,0,L|437:156,1,101.999996887207
393,0,58149,5,0,0:0:0:0:
236,44,58336,1,0,0:0:0:0:
281,200,58524,1,0,0:0:0:0:
437,156,58711,6,0,L|448:258,1,101.999996887207
311,362,59086,1,0,0:0:0:0:
311,362,59273,2,0,P|264:334|196:340,1,101.999996887207
93,362,59648,1,0,0:0:0:0:
114,177,59836,5,0,0:0:0:0:
217,332,60023,1,0,0:0:0:0:
300,166,60211,2,0,L|283:57,1,101.999996887207
247,244,60586,6,0,P|286:271|354:233,1,101.999996887207
499,186,60961,2,0,P|460:159|392:197,1,101.999996887207
455,266,61336,2,0,L|467:378,1,101.999996887207
322,336,61711,5,0,0:0:0:0:
180,346,61898,1,0,0:0:0:0:
126,213,62086,1,0,0:0:0:0:
235,121,62273,1,0,0:0:0:0:
356,197,62461,2,0,L|463:177,1,101.999996887207
374,38,62836,5,0,0:0:0:0:
227,101,63023,1,0,0:0:0:0:
356,197,63211,2,0,L|346:316,1,101.999996887207
226,359,63586,6,0,L|217:257,1,101.999996887207
227,101,63961,1,0,0:0:0:0:
53,162,64148,2,0,L|167:175,1,101.999996887207
323,131,64523,6,0,P|331:77|292:30,1,101.999996887207
265,200,64898,2,0,P|325:227|378:189,1,101.999996887207
438,144,65273,2,0,P|468:187|455:250,1,101.999996887207
383,340,65648,1,0,0:0:0:0:
261,277,65836,1,0,0:0:0:0:
180,383,66023,1,0,0:0:0:0:
58,320,66211,6,0,L|68:198,1,101.999996887207
143,124,66586,2,0,P|103:88|51:98,1,101.999996887207
169,231,66961,1,0,0:0:0:0:
169,231,67148,2,0,P|229:216|245:146,1,101.999996887207
222,46,67523,6,0,P|278:42|335:81,1,101.999996887207
473,171,67898,2,0,P|427:192|377:187,1,101.999996887207
247,184,68273,2,0,L|256:317,1,101.999996887207
369,368,68648,1,0,0:0:0:0:
369,368,68836,2,0,L|375:266,1,101.999996887207
359,129,69211,6,0,P|420:125|459:169,1,101.999996887207
269,208,69586,1,0,0:0:0:0:
269,208,69773,2,0,P|208:212|169:168,1,101.999996887207
254,71,70148,1,0,0:0:0:0:
203,273,70336,2,0,L|212:377,1,101.999996887207
376,352,70711,5,0,0:0:0:0:
279,102,70898,1,0,0:0:0:0:
272,348,71086,5,0,0:0:0:0:
381,104,71273,1,0,0:0:0:0:
203,273,71461,5,0,0:0:0:0:
452,178,71648,1,0,0:0:0:0:
205,172,71836,5,0,0:0:0:0:
449,281,72023,1,0,0:0:0:0:
279,102,72211,6,0,L|291:1,1,101.999996887207
436,179,72586,2,0,L|448:280,1,101.999996887207
323,357,72961,5,0,0:0:0:0:
175,323,73148,1,0,0:0:0:0:
279,210,73336,1,0,0:0:0:0:
323,357,73523,1,0,0:0:0:0:
175,323,73711,6,0,L|57:344,1,101.999996887207
13,205,74086,1,0,0:0:0:0:
13,205,74273,2,0,L|131:226,1,101.999996887207
251,231,74648,2,0,P|247:173|200:121,1,101.999996887207
100,87,75023,1,0,0:0:0:0:
263,14,75211,6,0,P|310:36|374:15,1,101.999996887207
502,19,75586,1,0,0:0:0:0:
439,147,75773,2,0,L|457:264,1,101.999996887207
341,357,76148,5,0,0:0:0:0:
303,204,76336,1,0,0:0:0:0:
454,247,76523,1,0,0:0:0:0:
341,357,76711,6,0,L|203:342,1,101.999996887207
89,371,77086,1,0,0:0:0:0:
142,237,77273,2,0,P|138:175|85:133,1,101.999996887207
25,60,77648,2,0,P|56:25|124:37,1,101.999996887207
221,86,78023,1,0,0:0:0:0:
48,212,78211,6,0,B|107:237|107:237|172:215|172:215|256:251,1,203.999993774414
464,172,78961,2,0,B|405:147|405:147|340:169|340:169|256:133,1,203.999993774414
159,22,79711,6,0,L|174:139,1,101.999996887207
353,362,80086,2,0,L|338:245,1,101.999996887207
342,78,80461,1,0,0:0:0:0:
169,301,80648,1,0,0:0:0:0:
62,39,80836,1,0,0:0:0:0:
62,39,81211,5,0,0:0:0:0:
106,13,81305,1,0,0:0:0:0:
157,15,81398,1,0,0:0:0:0:
201,41,81492,1,0,0:0:0:0:
224,86,81586,1,0,0:0:0:0:
223,137,81680,1,0,0:0:0:0:
196,180,81773,1,0,0:0:0:0:
151,203,81867,1,0,0:0:0:0:
100,202,81961,1,0,0:0:0:0:
56,227,82054,1,0,0:0:0:0:
34,272,82147,1,0,0:0:0:0:
40,323,82241,1,0,0:0:0:0:
72,363,82335,1,0,0:0:0:0:
121,379,82429,1,0,0:0:0:0:
171,372,82522,1,0,0:0:0:0:
203,332,82616,1,0,0:0:0:0:
214,282,82710,5,0,0:0:0:0:
199,228,82804,1,0,0:0:0:0:
214,174,82898,1,0,0:0:0:0:
253,134,82992,1,0,0:0:0:0:
307,120,83085,1,0,0:0:0:0:
361,134,83179,1,0,0:0:0:0:
401,174,83273,1,0,0:0:0:0:
415,228,83367,1,0,0:0:0:0:
401,282,83460,1,0,0:0:0:0:
361,321,83554,1,0,0:0:0:0:
307,336,83648,1,0,0:0:0:0:
253,322,83742,1,0,0:0:0:0:
214,282,83836,1,0,0:0:0:0:
197,228,83929,1,0,0:0:0:0:
157,191,84023,1,0,0:0:0:0:
102,180,84117,1,0,0:0:0:0:
50,198,84211,5,0,0:0:0:0:
86,234,84304,1,0,0:0:0:0:
135,247,84398,1,0,0:0:0:0:
184,234,84492,1,0,0:0:0:0:
220,198,84586,1,0,0:0:0:0:
241,152,84680,1,0,0:0:0:0:
283,123,84774,1,0,0:0:0:0:
334,118,84868,1,0,0:0:0:0:
380,139,84961,5,0,0:0:0:0:
407,187,85053,1,0,0:0:0:0:
400,243,85147,1,0,0:0:0:0:
359,281,85241,1,0,0:0:0:0:
304,291,85335,1,0,0:0:0:0:
254,266,85429,1,0,0:0:0:0:
227,217,85522,1,0,0:0:0:0:
236,162,85616,1,0,0:0:0:0:
275,122,85710,5,0,0:0:0:0:
275,70,85805,1,0,0:0:0:0:
246,28,85898,1,0,0:0:0:0:
199,7,85992,1,0,0:0:0:0:
149,16,86086,1,0,0:0:0:0:
112,51,86180,1,0,0:0:0:0:
99,100,86273,1,0,0:0:0:0:
113,149,86367,1,0,0:0:0:0:
153,181,86461,1,0,0:0:0:0:
202,194,86554,1,0,0:0:0:0:
231,236,86648,1,0,0:0:0:0:
228,287,86742,1,0,0:0:0:0:
190,322,86836,6,0,L|126:338,1,50.9999984436036
9,268,87023,2,0,L|58:255,1,50.9999984436036
202,194,87211,5,0,0:0:0:0:
214,145,87304,1,0,0:0:0:0:
202,95,87398,1,0,0:0:0:0:
168,57,87492,1,0,0:0:0:0:
120,39,87586,1,0,0:0:0:0:
70,45,87679,1,0,0:0:0:0:
28,74,87773,1,0,0:0:0:0:
5,119,87867,1,0,0:0:0:0:
5,170,87961,1,0,0:0:0:0:
28,215,88054,1,0,0:0:0:0:
70,244,88148,1,0,0:0:0:0:
121,250,88242,1,0,0:0:0:0:
169,232,88336,1,0,0:0:0:0:
216,251,88429,1,0,0:0:0:0:
235,298,88523,1,0,0:0:0:0:
217,346,88616,1,0,0:0:0:0:
169,365,88710,5,0,0:0:0:0:
115,352,88804,1,0,0:0:0:0:
69,319,88898,1,0,0:0:0:0:
42,270,88992,1,0,0:0:0:0:
37,214,89085,1,0,0:0:0:0:
56,160,89179,1,0,0:0:0:0:
94,120,89273,1,0,0:0:0:0:
145,97,89367,1,0,0:0:0:0:
202,98,89460,1,0,0:0:0:0:
253,122,89554,1,0,0:0:0:0:
290,165,89648,1,0,0:0:0:0:
306,219,89742,1,0,0:0:0:0:
303,275,89836,1,0,0:0:0:0:
334,321,89929,1,0,0:0:0:0:
386,342,90023,1,0,0:0:0:0:
440,327,90117,1,0,0:0:0:0:
477,285,90211,5,0,0:0:0:0:
488,230,90304,1,0,0:0:0:0:
472,176,90398,1,0,0:0:0:0:
430,138,90492,1,0,0:0:0:0:
375,127,90586,1,0,0:0:0:0:
322,144,90679,1,0,0:0:0:0:
285,186,90773,1,0,0:0:0:0:
273,241,90867,1,0,0:0:0:0:
290,295,90961,5,0,0:0:0:0:
274,343,91054,1,0,0:0:0:0:
232,372,91148,1,0,0:0:0:0:
181,372,91242,1,0,0:0:0:0:
140,342,91336,1,0,0:0:0:0:
124,294,91429,1,0,0:0:0:0:
140,245,91523,1,0,0:0:0:0:
182,215,91617,1,0,0:0:0:0:
233,215,91711,5,0,0:0:0:0:
277,190,91804,1,0,0:0:0:0:
299,144,91898,1,0,0:0:0:0:
294,93,91991,1,0,0:0:0:0:
261,53,92085,1,0,0:0:0:0:
212,37,92179,1,0,0:0:0:0:
163,50,92273,1,0,0:0:0:0:
129,87,92366,1,0,0:0:0:0:
120,138,92460,5,0,0:0:0:0:
135,202,92554,1,0,0:0:0:0:
117,266,92648,1,0,0:0:0:0:
75,317,92742,1,0,0:0:0:0:
13,340,92836,5,0,0:0:0:0:
28,283,92930,1,0,0:0:0:0:
69,242,93023,1,0,0:0:0:0:
126,226,93117,1,0,0:0:0:0:
184,236,93211,5,0,0:0:0:0:
418,349,93492,1,0,0:0:0:0:
399,90,93773,1,0,0:0:0:0:
184,236,94148,6,0,L|266:252,1,50.9999984436036
424,195,94336,2,0,L|373:185,1,50.9999984436036
345,325,94523,1,0,0:0:0:0:
262,105,94768,5,0,0:0:0:0:
234,245,94955,1,0,0:0:0:0:
345,325,95143,1,0,0:0:0:0:
373,185,95330,1,0,0:0:0:0:
262,105,95518,5,0,0:0:0:0:
290,245,95705,1,0,0:0:0:0:
179,325,95892,1,0,0:0:0:0:
151,185,96080,2,0,L|168:76,1,85
41,42,96455,5,0,0:0:0:0:
99,266,96643,1,0,0:0:0:0:
264,104,96830,1,0,0:0:0:0:
41,42,97018,5,0,0:0:0:0:
138,241,97205,1,0,0:0:0:0:
176,23,97393,1,0,0:0:0:0:
17,176,97580,1,0,0:0:0:0:
235,145,97768,5,0,0:0:0:0:
439,227,97955,1,0,0:0:0:0:
235,229,98143,5,0,0:0:0:0:
438,142,98330,1,0,0:0:0:0:
295,288,98518,5,0,0:0:0:0:
378,84,98705,1,0,0:0:0:0:
380,287,98893,5,0,0:0:0:0:
293,84,99080,2,0,L|305:-10,1,85
438,142,99455,5,0,0:0:0:0:
235,229,99643,1,0,0:0:0:0:
412,362,99830,1,0,0:0:0:0:
293,84,100018,5,0,0:0:0:0:
258,384,100205,1,0,0:0:0:0:
15,203,100393,1,0,0:0:0:0:
362,245,100580,1,0,0:0:0:0:
137,297,100768,5,0,0:0:0:0:
204,76,100955,1,0,0:0:0:0:
137,297,101143,5,0,0:0:0:0:
323,160,101330,1,0,0:0:0:0:
137,297,101518,5,0,0:0:0:0:
57,80,101705,1,0,0:0:0:0:
137,297,101893,5,0,0:0:0:0:
367,299,102080,2,0,L|480:274,1,85
475,133,102455,5,0,0:0:0:0:
277,122,102643,1,0,0:0:0:0:
367,299,102830,1,0,0:0:0:0:
475,133,103018,5,0,0:0:0:0:
322,4,103206,1,0,0:0:0:0:
193,157,103393,1,0,0:0:0:0:
346,286,103580,1,0,0:0:0:0:
475,133,103768,5,0,0:0:0:0:
282,99,103955,1,0,0:0:0:0:
387,316,104143,5,0,0:0:0:0:
421,123,104330,1,0,0:0:0:0:
204,228,104518,5,0,0:0:0:0:
397,262,104705,1,0,0:0:0:0:
292,45,104893,5,0,0:0:0:0:
258,238,105080,1,0,0:0:0:0:
475,133,105268,5,0,0:0:0:0:
169,127,105455,2,0,L|70:149,1,85
25,320,105830,2,0,L|107:301,1,85
258,238,106205,5,0,0:0:0:0:
473,347,106393,1,0,0:0:0:0:
460,107,106580,1,0,0:0:0:0:
460,107,107523,6,0,L|341:126,1,85
223,49,107898,1,0,0:0:0:0:
223,49,108085,2,0,L|306:35,1,85
397,165,108460,6,0,L|386:274,1,85
316,371,108835,2,0,L|307:286,1,85
289,150,109210,5,0,0:0:0:0:
177,238,109397,1,0,0:0:0:0:
58,158,109585,1,0,0:0:0:0:
97,21,109772,5,0,0:0:0:0:
240,15,109960,1,0,0:0:0:0:
177,238,110147,1,0,0:0:0:0:
97,21,110335,1,0,0:0:0:0:
289,150,110522,5,0,0:0:0:0:
309,155,110615,1,0,0:0:0:0:
330,161,110709,1,0,0:0:0:0:
451,258,110898,5,0,0:0:0:0:
475,105,111085,2,0,L|463:15,1,85
330,161,111460,5,0,0:0:0:0:
174,25,111647,1,0,0:0:0:0:
135,228,111835,1,0,0:0:0:0:
330,161,112022,5,0,0:0:0:0:
351,163,112115,1,0,0:0:0:0:
372,166,112209,1,0,0:0:0:0:
270,352,112397,2,0,L|257:240,1,85
238,69,112773,5,0,0:0:0:0:
135,228,112960,1,0,0:0:0:0:
325,238,113147,1,0,0:0:0:0:
113,102,113335,1,0,0:0:0:0:
102,354,113522,6,0,L|80:263,1,85
12,133,113897,1,0,0:0:0:0:
12,133,114085,2,0,P|52:112|112:137,1,85
202,202,114460,5,0,0:0:0:0:
330,146,114647,1,0,0:0:0:0:
217,62,114835,1,0,0:0:0:0:
89,118,115022,6,0,L|-18:138,1,85
202,202,115397,2,0,L|285:186,1,85
103,216,115772,6,0,L|119:300,1,85
187,103,116147,2,0,L|167:-3,1,85
340,19,116522,6,0,L|324:103,1,85
392,300,116897,1,0,0:0:0:0:
392,300,117084,2,0,L|408:216,1,85
256,73,117459,5,0,0:0:0:0:
256,277,117647,1,0,0:0:0:0:
256,298,117740,1,0,0:0:0:0:
256,319,117834,1,0,0:0:0:0:
118,240,118022,6,0,P|157:186|201:182,1,85
394,240,118397,2,0,P|355:186|311:182,1,85
256,73,118772,5,0,0:0:0:0:
256,51,118865,1,0,0:0:0:0:
256,30,118959,5,0,0:0:0:0:
294,12,119053,1,0,0:0:0:0:
336,18,119147,1,0,0:0:0:0:
369,45,119241,1,0,0:0:0:0:
380,86,119334,1,0,0:0:0:0:
369,127,119428,1,0,0:0:0:0:
336,154,119522,6,0,P|274:141|226:250,1,170
260,333,120084,1,0,0:0:0:0:
260,333,120272,2,0,P|209:355|109:275,1,170
108,185,120834,1,0,0:0:0:0:
108,185,121022,6,0,L|121:82,1,85
236,228,121397,1,0,0:0:0:0:
337,138,121584,1,0,0:0:0:0:
337,138,121678,1,0,0:0:0:0:
337,138,121772,5,0,0:0:0:0:
453,206,121959,1,0,0:0:0:0:
424,337,122147,1,0,0:0:0:0:
290,350,122334,1,0,0:0:0:0:
236,228,122522,6,0,B|228:167|228:167|250:116|250:116|242:46,1,170
66,86,123085,1,0,0:0:0:0:
66,86,123273,2,0,L|169:104,1,85
324,178,123646,2,0,L|407:163,1,85
510,309,124021,6,0,L|426:294,1,85
296,242,124396,1,0,0:0:0:0:
407,163,124584,1,0,0:0:0:0:
407,163,124678,1,0,0:0:0:0:
407,163,124771,1,0,0:0:0:0:
276,110,124959,6,0,L|211:124,1,42.5
113,110,125146,2,0,L|178:124,1,42.5
194,60,125334,2,0,L|194:10,1,42.5
194,174,125521,6,0,L|194:288,1,85
78,366,125896,2,0,L|91:266,1,85
41,176,126271,2,0,L|28:76,1,85
112,27,126646,5,0,0:0:0:0:
194,174,126834,1,0,0:0:0:0:
194,174,126928,1,0,0:0:0:0:
194,174,127021,6,0,L|299:162,1,85
423,194,127396,1,0,0:0:0:0:
427,57,127585,1,0,0:0:0:0:
338,246,127771,2,0,L|349:345,1,85
278,164,128146,2,0,L|287:79,1,85
219,278,128521,6,0,P|172:257|164:201,1,85
161,106,128896,2,0,L|56:91,1,85
15,241,129271,5,0,0:0:0:0:
127,353,129459,1,0,0:0:0:0:
239,241,129646,1,0,0:0:0:0:
127,129,129834,1,0,0:0:0:0:
127,129,129927,1,0,0:0:0:0:
127,129,130021,6,0,L|140:10,1,85
273,21,130396,1,0,0:0:0:0:
264,159,130585,1,0,0:0:0:0:
127,129,130771,6,0,L|65:143,1,42.5
6,273,130959,2,0,L|68:287,1,42.5
198,270,131146,5,0,0:0:0:0:
246,256,131239,1,0,0:0:0:0:
281,219,131333,1,0,0:0:0:0:
292,169,131427,1,0,0:0:0:0:
277,121,131520,5,0,0:0:0:0:
277,121,131896,5,0,0:0:0:0:
127,129,132083,1,0,0:0:0:0:
333,248,132271,2,0,L|451:224,1,85
510,72,132646,2,0,L|426:88,1,85
277,121,133021,6,0,B|184:143|146:72|146:72|73:105,1,203.999993774414
121,241,133583,1,0,0:0:0:0:
121,241,133771,2,0,L|131:353,1,101.999996887207
268,366,134146,5,0,0:0:0:0:
320,239,134333,1,0,0:0:0:0:
211,149,134521,2,0,L|220:47,1,101.999996887207
348,18,134896,5,0,0:0:0:0:
348,18,135083,1,0,0:0:0:0:
347,188,135271,2,0,P|397:194|443:144,1,101.999996887207
254,135,135646,2,0,P|238:179|265:249,1,101.999996887207
325,384,136021,6,0,L|334:268,1,101.999996887207
349,110,136396,1,0,0:0:0:0:
349,110,136583,2,0,L|341:8,1,101.999996887207
201,28,136959,5,0,0:0:0:0:
117,197,137146,1,0,0:0:0:0:
306,185,137333,1,0,0:0:0:0:
222,354,137521,6,0,P|171:329|94:353,1,101.999996887207
19,197,137896,1,0,0:0:0:0:
19,197,138083,2,0,P|70:172|147:196,1,101.999996887207
238,240,138458,1,0,0:0:0:0:
127,333,138646,5,0,0:0:0:0:
106,98,138833,1,0,0:0:0:0:
320,197,139021,2,0,L|441:175,1,101.999996887207
270,108,139396,6,0,P|228:136|228:209,1,101.999996887207
206,364,139770,2,0,P|248:336|248:263,1,101.999996887207
140,271,140145,2,0,L|18:296,1,101.999996887207
3,115,140520,5,0,0:0:0:0:
218,183,140708,1,0,0:0:0:0:
109,35,140895,5,0,0:0:0:0:
111,261,141083,1,0,0:0:0:0:
306,147,141270,2,0,L|425:166,1,101.999996887207
506,69,141646,5,0,0:0:0:0:
331,33,141833,1,0,0:0:0:0:
388,203,142020,2,0,L|379:325,1,101.999996887207
282,383,142395,6,0,L|274:281,1,101.999996887207
214,114,142771,1,0,0:0:0:0:
43,213,142958,2,0,P|106:244|168:220,1,101.999996887207
307,182,143333,6,0,P|326:133|303:75,1,101.999996887207
411,142,143708,2,0,L|518:154,1,101.999996887207
391,251,144083,2,0,P|372:300|395:358,1,101.999996887207
284,287,144458,1,0,0:0:0:0:
120,331,144646,1,0,0:0:0:0:
163,166,144833,1,0,0:0:0:0:
284,287,145020,6,0,L|416:305,1,101.999996887207
497,360,145395,2,0,P|518:304|493:244,1,101.999996887207
420,184,145770,1,0,0:0:0:0:
420,184,145958,2,0,L|405:65,1,101.999996887207
308,33,146333,6,0,P|253:65|200:54,1,101.999996887207
70,119,146708,2,0,P|125:151|178:140,1,101.999996887207
282,188,147083,2,0,P|260:246|203:258,1,101.999996887207
101,257,147458,1,0,0:0:0:0:
101,257,147645,2,0,P|106:314|147:354,1,101.999996887207
265,305,148020,6,0,L|376:328,1,101.999996887207
492,205,148395,1,0,0:0:0:0:
492,205,148582,2,0,L|381:228,1,101.999996887207
258,179,148958,1,0,0:0:0:0:
362,100,149145,2,0,P|367:38|319:-6,1,101.999996887207
81,36,149520,5,0,0:0:0:0:
276,95,149707,1,0,0:0:0:0:
88,53,149895,5,0,0:0:0:0:
226,200,150082,1,0,0:0:0:0:
96,70,150270,5,0,0:0:0:0:
158,261,150457,1,0,0:0:0:0:
104,88,150645,5,0,0:0:0:0:
79,287,150832,1,0,0:0:0:0:
112,105,151020,6,0,L|97:-10,1,101.999996887207
226,200,151395,2,0,L|212:301,1,101.999996887207
114,224,151771,5,0,0:0:0:0:
224,81,151957,1,0,0:0:0:0:
292,247,152145,1,0,0:0:0:0:
114,224,152333,1,0,0:0:0:0:
224,81,152520,6,0,L|374:60,1,101.999996887207
451,125,152895,1,0,0:0:0:0:
451,125,153082,2,0,P|472:66|434:10,1,101.999996887207
353,176,153457,2,0,P|332:235|370:291,1,101.999996887207
472,342,153833,1,0,0:0:0:0:
443,167,154020,6,0,P|383:154|348:182,1,101.999996887207
294,310,154396,1,0,0:0:0:0:
294,310,154582,2,0,L|173:295,1,101.999996887207
41,358,154957,5,0,0:0:0:0:
64,197,155145,1,0,0:0:0:0:
192,297,155332,1,0,0:0:0:0:
215,136,155520,6,0,L|196:23,1,101.999996887207
165,223,155894,1,0,0:0:0:0:
165,223,156082,2,0,P|220:243|284:198,1,101.999996887207
327,137,156457,2,0,P|383:128|437:182,1,101.999996887207
366,264,156833,1,0,0:0:0:0:
204,363,157019,6,0,B|155:337|155:337|203:274|165:181,1,203.999993774414
308,21,157769,2,0,B|357:47|357:47|309:110|347:203,1,203.999993774414
328,348,158519,6,0,L|441:328,1,101.999996887207
184,36,158894,2,0,L|71:56,1,101.999996887207
105,238,159269,1,0,0:0:0:0:
407,146,159457,1,0,0:0:0:0:
328,348,159644,1,0,0:0:0:0:
328,348,160019,5,0,0:0:0:0:
246,145,160207,1,0,0:0:0:0:
112,318,160394,2,0,B|188:296|188:296|250:328|250:328|327:306,1,220.999989883423
454,356,160957,5,0,0:0:0:0:
445,190,161144,1,0,0:0:0:0:
319,308,161332,1,0,0:0:0:0:
310,142,161519,6,0,L|330:24,1,110.499994941712
202,242,161894,2,0,L|182:360,1,110.499994941712
306,246,162269,2,0,L|424:266,1,110.499994941712
206,138,162644,2,0,L|88:118,1,110.499994941712
310,142,163019,5,0,0:0:0:0:
183,350,163207,1,0,0:0:0:0:
65,137,163394,2,0,B|137:76|233:106|233:106|178:170,1,220.999989883423
132,262,163956,5,0,0:0:0:0:
324,356,164144,1,0,0:0:0:0:
310,142,164331,1,0,0:0:0:0:
132,262,164519,6,0,L|-2:238,1,110.499994941712
201,161,164894,1,0,0:0:0:0:
201,161,165081,2,0,L|335:137,1,110.499994941712
441,208,165456,1,0,0:0:0:0:
508,75,165644,1,0,0:0:0:0:
376,7,165831,6,0,B|304:28|304:28|240:0|240:0|157:24,1,220.999989883423
41,31,166394,2,0,P|55:101|109:125,1,110.499994941712
200,128,166769,2,0,P|213:181|175:245,1,110.499994941712
44,301,167144,2,0,P|100:307|131:382,1,110.499994941712
268,336,167519,6,0,L|388:321,1,110.499994941712
509,221,167894,1,0,0:0:0:0:
509,221,168081,2,0,L|389:206,1,110.499994941712
270,245,168456,1,0,0:0:0:0:
194,136,168644,1,0,0:0:0:0:
275,30,168831,1,0,0:0:0:0:
275,30,169019,6,0,P|331:52|398:29,1,110.499994941712
510,71,169394,1,0,0:0:0:0:
510,71,169581,2,0,P|494:126|429:163,1,110.499994941712
334,151,169956,1,0,0:0:0:0:
211,271,170144,1,0,0:0:0:0:
377,318,170331,1,0,0:0:0:0:
334,151,170519,5,0,0:0:0:0:
334,151,170612,1,0,0:0:0:0:
334,151,170706,2,0,L|348:71,1,55.2499974708558
234,12,170894,2,0,L|243:66,1,55.2499974708558
221,176,171081,5,0,0:0:0:0:
221,176,171175,2,0,L|135:166,1,55.2499974708558
25,96,171362,1,0,0:0:0:0:
25,96,171456,2,0,L|111:86,1,55.2499974708558
79,205,171643,6,0,L|85:273,1,55.2499974708558
166,369,171831,2,0,L|170:313,1,55.2499974708558
221,176,172018,5,0,0:0:0:0:
380,322,172206,1,0,0:0:0:0:
427,112,172393,2,0,B|359:85|359:85|288:114|288:114|197:78,1,220.999989883423
97,0,172956,1,0,0:0:0:0:
10,124,173143,1,0,0:0:0:0:
134,211,173331,1,0,0:0:0:0:
221,87,173518,6,0,L|346:64,1,110.499994941712
500,181,173893,2,0,L|375:158,1,110.499994941712
221,275,174268,2,0,L|346:252,1,110.499994941712
500,369,174643,2,0,L|375:346,1,110.499994941712
238,365,175018,5,0,0:0:0:0:
294,191,175206,1,0,0:0:0:0:
116,230,175393,2,0,P|55:225|33:89,1,220.999989883423
188,94,175956,5,0,0:0:0:0:
340,190,176143,1,0,0:0:0:0:
348,11,176331,1,0,0:0:0:0:
188,94,176518,6,0,L|57:70,1,110.499994941712
36,198,176893,1,0,0:0:0:0:
36,198,177081,2,0,P|65:256|37:327,1,110.499994941712
182,374,177456,2,0,P|176:319|203:273,1,110.499994941712
320,233,177831,1,0,0:0:0:0:
320,233,178018,2,0,P|301:175|242:158,1,110.499994941712
124,178,178393,6,0,P|116:123|174:65,1,110.499994941712
271,26,178768,2,0,L|401:49,1,110.499994941712
511,147,179143,2,0,L|381:170,1,110.499994941712
273,150,179518,6,0,P|275:210|329:260,1,110.499994941712
427,274,179893,1,0,0:0:0:0:
427,274,180080,2,0,P|430:339|376:388,1,110.499994941712
267,290,180455,1,0,0:0:0:0:
101,315,180643,1,0,0:0:0:0:
161,158,180830,1,0,0:0:0:0:
267,290,181018,6,0,L|390:316,1,110.499994941712
161,158,181393,2,0,L|38:184,1,110.499994941712
280,171,181768,2,0,L|254:48,1,110.499994941712
148,277,182143,2,0,L|122:400,1,110.499994941712
161,158,182518,5,0,0:0:0:0:
320,184,182705,1,0,0:0:0:0:
344,26,182893,1,0,0:0:0:0:
187,0,183080,1,0,0:0:0:0:
161,158,183268,6,0,L|180:290,1,110.499994941712
325,349,183643,1,0,0:0:0:0:
320,184,183830,1,0,0:0:0:0:
176,267,184018,6,0,L|43:251,1,110.499994941712
21,96,184393,1,0,0:0:0:0:
182,65,184580,1,0,0:0:0:0:
336,267,184768,6,0,L|469:251,1,110.499994941712
491,96,185143,1,0,0:0:0:0:
330,65,185330,1,0,0:0:0:0:
176,267,185518,5,0,0:0:0:0:
74,122,185705,1,0,0:0:0:0:
219,20,185893,1,0,0:0:0:0:
320,165,186080,1,0,0:0:0:0:
176,267,186268,6,0,L|184:332,3,55.2499974708558
46,364,186643,2,0,L|52:309,1,55.2499974708558
74,122,186830,2,0,L|80:176,1,55.2499974708558
176,267,187018,5,0,0:0:0:0:
368,310,187205,1,0,0:0:0:0:
310,122,187393,1,0,0:0:0:0:
176,267,187580,1,0,0:0:0:0:
386,227,187767,5,0,0:0:0:0:
252,371,187955,1,0,0:0:0:0:
194,182,188142,1,0,0:0:0:0:
386,227,188330,2,0,L|519:204,1,118.999996368408
321,75,188705,5,0,0:0:0:0:
271,300,188892,1,0,0:0:0:0:
321,75,189080,1,0,0:0:0:0:
271,300,189267,5,0,0:0:0:0:
116,262,189455,1,0,0:0:0:0:
104,101,189642,1,0,0:0:0:0:
253,41,189830,1,0,0:0:0:0:
357,164,190017,5,0,0:0:0:0:
75,185,190205,1,0,0:0:0:0:
323,266,190392,5,0,0:0:0:0:
108,82,190580,1,0,0:0:0:0:
226,315,190767,5,0,0:0:0:0:
205,33,190955,1,0,0:0:0:0:
123,281,191142,5,0,0:0:0:0:
308,67,191330,2,0,L|437:85,1,118.999996368408
492,208,191705,5,0,0:0:0:0:
350,332,191892,1,0,0:0:0:0:
314,148,192080,1,0,0:0:0:0:
492,208,192267,5,0,0:0:0:0:
264,248,192455,1,0,0:0:0:0:
492,208,192642,1,0,0:0:0:0:
264,248,192830,1,0,0:0:0:0:
492,208,193017,5,0,0:0:0:0:
274,128,193205,1,0,0:0:0:0:
401,312,193392,5,0,0:0:0:0:
303,101,193580,1,0,0:0:0:0:
262,314,193767,5,0,0:0:0:0:
341,95,193955,1,0,0:0:0:0:
167,210,194142,5,0,0:0:0:0:
377,111,194330,2,0,P|431:129|491:102,1,118.999996368408
429,4,194705,5,0,0:0:0:0:
255,73,194892,1,0,0:0:0:0:
402,190,195080,1,0,0:0:0:0:
228,259,195267,5,0,0:0:0:0:
255,73,195455,1,0,0:0:0:0:
402,190,195642,1,0,0:0:0:0:
228,259,195829,1,0,0:0:0:0:
81,142,196017,5,0,0:0:0:0:
299,174,196204,1,0,0:0:0:0:
214,333,196392,5,0,0:0:0:0:
246,115,196579,1,0,0:0:0:0:
273,280,196767,5,0,0:0:0:0:
55,248,196954,1,0,0:0:0:0:
140,89,197142,5,0,0:0:0:0:
108,307,197329,1,0,0:0:0:0:
81,142,197517,5,0,0:0:0:0:
431,242,197704,1,0,0:0:0:0:
8,326,198079,5,0,0:0:0:0:
69,2,198454,6,0,L|80:87,1,59.4999981842042
163,220,198642,2,0,L|170:160,1,59.4999981842042
213,26,198829,1,0,0:0:0:0:
32,195,199017,5,0,0:0:0:0:
24,253,199110,1,0,0:0:0:0:
43,310,199204,1,0,0:0:0:0:
87,350,199298,1,0,0:0:0:0:
145,365,199392,1,0,0:0:0:0:
203,352,199485,1,0,0:0:0:0:
250,315,199579,1,0,0:0:0:0:
271,259,199673,1,0,0:0:0:0:
266,199,199767,1,0,0:0:0:0:
232,149,199861,1,0,0:0:0:0:
232,90,199955,1,0,0:0:0:0:
265,40,200048,1,0,0:0:0:0:
319,15,200142,1,0,0:0:0:0:
378,23,200236,1,0,0:0:0:0:
423,62,200330,1,0,0:0:0:0:
439,119,200423,1,0,0:0:0:0:
423,177,200517,5,0,0:0:0:0:
360,194,200610,1,0,0:0:0:0:
324,249,200704,1,0,0:0:0:0:
332,315,200798,1,0,0:0:0:0:
380,360,200891,1,0,0:0:0:0:
445,362,200985,1,0,0:0:0:0:
499,325,201079,1,0,0:0:0:0:
512,260,201173,1,0,0:0:0:0:
483,201,201267,1,0,0:0:0:0:
423,177,201360,1,0,0:0:0:0:
360,194,201454,1,0,0:0:0:0:
301,167,201547,1,0,0:0:0:0:
274,108,201641,1,0,0:0:0:0:
291,44,201735,1,0,0:0:0:0:
345,7,201829,1,0,0:0:0:0:
410,12,201922,1,0,0:0:0:0:
457,58,202017,5,0,0:0:0:0:
456,117,202109,1,0,0:0:0:0:
433,172,202203,1,0,0:0:0:0:
389,212,202297,1,0,0:0:0:0:
333,231,202391,1,0,0:0:0:0:
273,227,202485,1,0,0:0:0:0:
222,198,202578,1,0,0:0:0:0:
186,150,202672,1,0,0:0:0:0:
173,92,202766,5,0,0:0:0:0:
238,101,202861,1,0,0:0:0:0:
287,144,202954,1,0,0:0:0:0:
305,207,203048,1,0,0:0:0:0:
287,270,203142,1,0,0:0:0:0:
237,312,203236,1,0,0:0:0:0:
172,322,203329,1,0,0:0:0:0:
113,294,203423,1,0,0:0:0:0:
77,239,203517,5,0,0:0:0:0:
77,180,203610,1,0,0:0:0:0:
115,134,203704,1,0,0:0:0:0:
174,124,203797,1,0,0:0:0:0:
226,154,203891,1,0,0:0:0:0:
264,200,203985,1,0,0:0:0:0:
323,210,204078,1,0,0:0:0:0:
375,181,204172,1,0,0:0:0:0:
395,125,204266,1,0,0:0:0:0:
357,79,204360,1,0,0:0:0:0:
298,69,204453,1,0,0:0:0:0:
246,98,204547,1,0,0:0:0:0:
226,154,204641,6,0,L|238:246,1,59.4999981842042
179,380,204829,2,0,L|171:320,1,59.4999981842042
138,133,205016,5,0,0:0:0:0:
79,135,205109,1,0,0:0:0:0:
30,169,205203,1,0,0:0:0:0:
6,224,205297,1,0,0:0:0:0:
17,282,205391,1,0,0:0:0:0:
57,325,205484,1,0,0:0:0:0:
114,340,205578,1,0,0:0:0:0:
171,321,205672,1,0,0:0:0:0:
209,276,205766,1,0,0:0:0:0:
213,217,205860,1,0,0:0:0:0:
245,166,205954,1,0,0:0:0:0:
297,137,206048,1,0,0:0:0:0:
356,135,206141,1,0,0:0:0:0:
410,161,206235,1,0,0:0:0:0:
446,209,206329,1,0,0:0:0:0:
455,268,206423,1,0,0:0:0:0:
436,324,206516,5,0,0:0:0:0:
371,312,206610,1,0,0:0:0:0:
329,262,206704,1,0,0:0:0:0:
329,197,206798,1,0,0:0:0:0:
371,146,206892,1,0,0:0:0:0:
381,82,206985,1,0,0:0:0:0:
349,25,207078,1,0,0:0:0:0:
287,3,207172,1,0,0:0:0:0:
225,25,207266,1,0,0:0:0:0:
193,82,207360,1,0,0:0:0:0:
205,146,207453,1,0,0:0:0:0:
259,183,207547,1,0,0:0:0:0:
276,247,207641,1,0,0:0:0:0:
249,307,207734,1,0,0:0:0:0:
189,333,207829,1,0,0:0:0:0:
125,317,207921,1,0,0:0:0:0:
88,263,208016,5,0,0:0:0:0:
115,203,208110,1,0,0:0:0:0:
175,177,208203,1,0,0:0:0:0:
239,193,208297,1,0,0:0:0:0:
276,247,208391,1,0,0:0:0:0:
330,285,208485,1,0,0:0:0:0:
395,278,208579,1,0,0:0:0:0:
443,233,208672,1,0,0:0:0:0:
448,168,208766,5,0,0:0:0:0:
423,114,208860,1,0,0:0:0:0:
373,83,208953,1,0,0:0:0:0:
314,84,209047,1,0,0:0:0:0:
265,118,209141,1,0,0:0:0:0:
239,172,209235,1,0,0:0:0:0:
249,230,209328,1,0,0:0:0:0:
289,275,209422,1,0,0:0:0:0:
347,291,209516,5,0,0:0:0:0:
337,232,209610,1,0,0:0:0:0:
297,189,209703,1,0,0:0:0:0:
239,173,209797,1,0,0:0:0:0:
183,191,209891,1,0,0:0:0:0:
143,236,209985,1,0,0:0:0:0:
137,294,210078,1,0,0:0:0:0:
161,349,210172,1,0,0:0:0:0:
213,379,210266,5,0,0:0:0:0:
225,303,210359,1,0,0:0:0:0:
199,230,210453,1,0,0:0:0:0:
138,184,210546,1,0,0:0:0:0:
61,178,210640,5,0,0:0:0:0:
23,120,210735,1,0,0:0:0:0:
38,53,210829,1,0,0:0:0:0:
96,17,210922,1,0,0:0:0:0:
163,32,211016,5,0,0:0:0:0:
321,291,211297,1,0,0:0:0:0:
466,24,211578,1,0,0:0:0:0:
298,138,211953,5,0,0:0:0:0:
269,146,212047,1,0,0:0:0:0:
240,154,212141,2,0,L|177:143,1,59.4999981842042
11,189,212328,2,0,L|69:199,1,59.4999981842042
158,295,212516,5,0,0:0:0:0:
423,190,212797,1,0,0:0:0:0:
200,14,213078,1,0,0:0:0:0:
273,213,213453,5,0,0:0:0:0:
278,242,213547,1,0,0:0:0:0:
283,271,213641,2,0,L|277:336,1,59.4999981842042
409,382,213828,2,0,L|403:322,1,59.4999981842042
423,190,214016,5,0,0:0:0:0:
151,24,214297,1,0,0:0:0:0:
223,366,214578,1,0,0:0:0:0:
484,133,214953,5,0,0:0:0:0:
480,103,215046,1,0,0:0:0:0:
476,73,215141,2,0,L|488:6,1,59.4999981842042
354,145,215328,5,0,0:0:0:0:
356,16,215891,5,0,0:0:0:0:
256,192,215984,12,0,220671,0:0:0:0:
