osu file format v14

[General]
AudioFilename: audio.mp3
AudioLeadIn: 0
PreviewTime: 69175
Countdown: 0
SampleSet: Normal
StackLeniency: 0.7
Mode: 1
LetterboxInBreaks: 0
WidescreenStoryboard: 0

[Editor]
DistanceSpacing: 0.4
BeatDivisor: 4
GridSize: 32
TimelineZoom: 2.2

[Metadata]
Title:Shikou no Ran
TitleUnicode:紫煌ノ乱
Artist:Zeami
ArtistUnicode:世阿弥
Creator:DarkVortex
Version:Muzukashii
Source:太鼓の達人 ムラサキVer.
Tags:namco murasaki version taiko no tatsujin
BeatmapID:1224944
BeatmapSetID:578524

[Difficulty]
HPDrainRate:6
CircleSize:5
OverallDifficulty:5
ApproachRate:5
SliderMultiplier:1.4
SliderTickRate:1

[Events]
//Background and Video events
0,0,"Purple-Planet.jpg",0,0
//Break Periods
//Storyboard Layer 0 (Background)
//Storyboard Layer 1 (Fail)
//Storyboard Layer 2 (Pass)
//Storyboard Layer 3 (Foreground)
//Storyboard Sound Samples

[TimingPoints]
-333,327.868852459016,4,1,0,70,1,0
45568,-100,4,1,0,60,0,0
69175,-100,4,1,0,70,0,0
113765,-100,4,1,0,80,0,1
119011,-100,4,1,0,80,0,0

[HitObjects]
256,192,7535,5,4,0:0:0:0:
256,192,7863,1,8,0:0:0:0:
256,192,8191,1,0,0:0:0:0:
256,192,8519,1,8,0:0:0:0:
256,192,8683,1,8,0:0:0:0:
256,192,8847,1,0,0:0:0:0:
256,192,9175,1,8,0:0:0:0:
256,192,9503,1,0,0:0:0:0:
256,192,10158,1,0,0:0:0:0:
256,192,10486,1,8,0:0:0:0:
256,192,10814,1,0,0:0:0:0:
256,192,11142,1,8,0:0:0:0:
256,192,11306,1,8,0:0:0:0:
256,192,11470,1,0,0:0:0:0:
256,192,11798,1,8,0:0:0:0:
256,192,12126,1,0,0:0:0:0:
256,192,12289,1,0,0:0:0:0:
256,192,12453,1,0,0:0:0:0:
256,192,12617,1,0,0:0:0:0:
256,192,12781,1,4,0:0:0:0:
256,192,13109,1,8,0:0:0:0:
256,192,13437,1,0,0:0:0:0:
256,192,13765,1,8,0:0:0:0:
256,192,13929,1,0,0:0:0:0:
256,192,14093,1,0,0:0:0:0:
256,192,14585,1,0,0:0:0:0:
256,192,14666,1,0,0:0:0:0:
256,192,14748,1,0,0:0:0:0:
256,192,14912,1,8,0:0:0:0:
256,192,15076,1,8,0:0:0:0:
256,192,15404,1,0,0:0:0:0:
256,192,15732,1,8,0:0:0:0:
256,192,16060,1,0,0:0:0:0:
256,192,16388,1,8,0:0:0:0:
256,192,16552,1,8,0:0:0:0:
256,192,16716,1,0,0:0:0:0:
256,192,17207,1,8,0:0:0:0:
256,192,17289,1,8,0:0:0:0:
256,192,17371,1,8,0:0:0:0:
256,192,17535,1,8,0:0:0:0:
256,192,17699,1,8,0:0:0:0:
256,192,18027,1,4,0:0:0:0:
256,192,18355,1,8,0:0:0:0:
256,192,18683,1,0,0:0:0:0:
256,192,18847,1,0,0:0:0:0:
256,192,19011,1,8,0:0:0:0:
256,192,19175,1,0,0:0:0:0:
256,192,19339,1,0,0:0:0:0:
256,192,19830,1,0,0:0:0:0:
256,192,19912,1,0,0:0:0:0:
256,192,19994,1,0,0:0:0:0:
256,192,20158,1,8,0:0:0:0:
256,192,20322,1,0,0:0:0:0:
256,192,20650,1,0,0:0:0:0:
256,192,20978,1,8,0:0:0:0:
256,192,21306,1,0,0:0:0:0:
256,192,21470,1,0,0:0:0:0:
256,192,21634,1,8,0:0:0:0:
256,192,21798,1,8,0:0:0:0:
256,192,21962,1,0,0:0:0:0:
256,192,22289,1,0,0:0:0:0:
256,192,22453,1,0,0:0:0:0:
256,192,22617,1,8,0:0:0:0:
256,192,22945,1,0,0:0:0:0:
256,192,23027,1,0,0:0:0:0:
256,192,23109,1,0,0:0:0:0:
256,192,23273,1,12,0:0:0:0:
256,192,23601,1,8,0:0:0:0:
256,192,23765,1,8,0:0:0:0:
256,192,23929,1,0,0:0:0:0:
256,192,24257,1,8,0:0:0:0:
256,192,24421,1,0,0:0:0:0:
256,192,24503,1,0,0:0:0:0:
256,192,24585,1,0,0:0:0:0:
256,192,24748,1,0,0:0:0:0:
256,192,24912,1,8,0:0:0:0:
256,192,25076,1,8,0:0:0:0:
256,192,25240,1,0,0:0:0:0:
256,192,25568,1,8,0:0:0:0:
256,192,25896,1,8,0:0:0:0:
256,192,26224,1,8,0:0:0:0:
256,192,26388,1,8,0:0:0:0:
256,192,26552,1,0,0:0:0:0:
256,192,26716,1,0,0:0:0:0:
256,192,26880,1,8,0:0:0:0:
256,192,27044,1,0,0:0:0:0:
256,192,27207,1,0,0:0:0:0:
256,192,27535,1,8,0:0:0:0:
256,192,27617,1,8,0:0:0:0:
256,192,27699,1,8,0:0:0:0:
256,192,27863,1,0,0:0:0:0:
256,192,27945,1,0,0:0:0:0:
256,192,28027,1,0,0:0:0:0:
256,192,28191,1,8,0:0:0:0:
256,192,28355,1,0,0:0:0:0:
256,192,28519,1,12,0:0:0:0:
256,192,28847,1,8,0:0:0:0:
256,192,29011,1,8,0:0:0:0:
256,192,29175,1,0,0:0:0:0:
256,192,29503,1,8,0:0:0:0:
256,192,29830,1,0,0:0:0:0:
256,192,30322,1,8,0:0:0:0:
256,192,30404,1,8,0:0:0:0:
256,192,30486,1,8,0:0:0:0:
256,192,30650,1,0,0:0:0:0:
256,192,30814,1,0,0:0:0:0:
256,192,30978,1,0,0:0:0:0:
256,192,31142,1,8,0:0:0:0:
256,192,31470,1,0,0:0:0:0:
256,192,31798,1,8,0:0:0:0:
256,192,32126,1,0,0:0:0:0:
256,192,32289,1,8,0:0:0:0:
256,192,32371,1,8,0:0:0:0:
256,192,32453,1,8,0:0:0:0:
256,192,32617,1,0,0:0:0:0:
256,192,32781,1,8,0:0:0:0:
256,192,32945,1,8,0:0:0:0:
256,192,33109,1,0,0:0:0:0:
256,192,33437,1,8,0:0:0:0:
256,192,33765,1,12,0:0:0:0:
256,192,34093,1,8,0:0:0:0:
256,192,34257,1,8,0:0:0:0:
256,192,34421,1,0,0:0:0:0:
256,192,34748,1,8,0:0:0:0:
256,192,34912,1,0,0:0:0:0:
256,192,34994,1,0,0:0:0:0:
256,192,35076,1,0,0:0:0:0:
256,192,35240,1,0,0:0:0:0:
256,192,35404,1,8,0:0:0:0:
256,192,35568,1,8,0:0:0:0:
256,192,35732,1,0,0:0:0:0:
256,192,35896,1,0,0:0:0:0:
256,192,36060,1,8,0:0:0:0:
256,192,36388,1,8,0:0:0:0:
256,192,36470,1,8,0:0:0:0:
256,192,36552,1,8,0:0:0:0:
256,192,36716,1,8,0:0:0:0:
256,192,36880,1,0,0:0:0:0:
256,192,37044,1,0,0:0:0:0:
256,192,37371,1,8,0:0:0:0:
256,192,37699,1,0,0:0:0:0:
256,192,38027,1,8,0:0:0:0:
256,192,38109,1,8,0:0:0:0:
256,192,38191,1,8,0:0:0:0:
256,192,38355,1,0,0:0:0:0:
256,192,38519,1,0,0:0:0:0:
256,192,38683,1,8,0:0:0:0:
256,192,38847,1,0,0:0:0:0:
256,192,39011,1,12,0:0:0:0:
256,192,39339,1,8,0:0:0:0:
256,192,39503,1,8,0:0:0:0:
256,192,39666,1,0,0:0:0:0:
256,192,39830,1,0,0:0:0:0:
256,192,39994,1,8,0:0:0:0:
256,192,40158,1,0,0:0:0:0:
256,192,40322,1,0,0:0:0:0:
256,192,40814,1,8,0:0:0:0:
256,192,40896,1,8,0:0:0:0:
256,192,40978,1,8,0:0:0:0:
256,192,41142,1,0,0:0:0:0:
256,192,41306,1,8,0:0:0:0:
256,192,41470,1,0,0:0:0:0:
256,192,41634,1,8,0:0:0:0:
256,192,41798,1,8,0:0:0:0:
256,192,41962,1,8,0:0:0:0:
256,192,42289,1,0,0:0:0:0:
256,192,42371,1,0,0:0:0:0:
256,192,42453,1,0,0:0:0:0:
256,192,42617,1,8,0:0:0:0:
256,192,42781,1,0,0:0:0:0:
256,192,42945,1,8,0:0:0:0:
256,192,43027,1,8,0:0:0:0:
256,192,43109,1,8,0:0:0:0:
256,192,43273,1,8,0:0:0:0:
256,192,43601,1,0,0:0:0:0:
256,192,43683,1,0,0:0:0:0:
256,192,43765,1,0,0:0:0:0:
256,192,43929,1,8,0:0:0:0:
256,192,44011,1,8,0:0:0:0:
256,192,44093,1,8,0:0:0:0:
256,192,44257,1,4,0:0:0:0:
256,192,45896,1,0,0:0:0:0:
256,192,46224,1,8,0:0:0:0:
256,192,46552,1,8,0:0:0:0:
256,192,46880,1,0,0:0:0:0:
256,192,48519,1,0,0:0:0:0:
256,192,48847,1,0,0:0:0:0:
256,192,49175,1,8,0:0:0:0:
256,192,49503,1,0,0:0:0:0:
256,192,50814,1,8,0:0:0:0:
256,192,51470,1,0,0:0:0:0:
256,192,51798,1,8,0:0:0:0:
256,192,52126,1,8,0:0:0:0:
256,192,53273,1,8,0:0:0:0:
256,192,53355,1,8,0:0:0:0:
256,192,53437,1,0,0:0:0:0:
256,192,54748,1,0,0:0:0:0:
256,192,56388,1,0,0:0:0:0:
256,192,56716,1,8,0:0:0:0:
256,192,57044,1,8,0:0:0:0:
256,192,57371,1,0,0:0:0:0:
256,192,58355,1,0,0:0:0:0:
256,192,58683,1,8,0:0:0:0:
256,192,59666,1,8,0:0:0:0:
256,192,59830,1,8,0:0:0:0:
256,192,59994,1,0,0:0:0:0:
256,192,61634,1,0,0:0:0:0:
256,192,61962,1,0,0:0:0:0:
256,192,62289,1,8,0:0:0:0:
256,192,62617,1,0,0:0:0:0:
256,192,63929,1,8,0:0:0:0:
256,192,64257,1,0,0:0:0:0:
256,192,64585,1,0,0:0:0:0:
256,192,64912,1,0,0:0:0:0:
256,192,65240,1,8,0:0:0:0:
256,192,65568,1,0,0:0:0:0:
256,192,65896,1,0,0:0:0:0:
256,192,66224,1,0,0:0:0:0:
256,192,66552,1,0,0:0:0:0:
256,192,66880,1,8,0:0:0:0:
256,192,67207,1,0,0:0:0:0:
256,192,67535,1,8,0:0:0:0:
256,192,67699,1,8,0:0:0:0:
256,192,67863,1,0,0:0:0:0:
256,192,68191,1,8,0:0:0:0:
256,192,68519,1,0,0:0:0:0:
256,192,68847,1,8,0:0:0:0:
256,192,69011,1,0,0:0:0:0:
256,192,69175,1,4,0:0:0:0:
256,192,69503,1,8,0:0:0:0:
256,192,69666,1,8,0:0:0:0:
256,192,69994,1,8,0:0:0:0:
256,192,70322,1,0,0:0:0:0:
256,192,70486,1,8,0:0:0:0:
256,192,70814,1,0,0:0:0:0:
256,192,70978,1,8,0:0:0:0:
256,192,71060,1,8,0:0:0:0:
256,192,71142,1,8,0:0:0:0:
256,192,71306,1,8,0:0:0:0:
256,192,71470,1,8,0:0:0:0:
256,192,71798,1,0,0:0:0:0:
256,192,72126,1,8,0:0:0:0:
256,192,72289,1,8,0:0:0:0:
256,192,72617,1,8,0:0:0:0:
256,192,72945,1,0,0:0:0:0:
256,192,73109,1,8,0:0:0:0:
256,192,73437,1,0,0:0:0:0:
256,192,73601,1,8,0:0:0:0:
256,192,73683,1,8,0:0:0:0:
256,192,73765,1,8,0:0:0:0:
256,192,73929,1,8,0:0:0:0:
256,192,74093,1,8,0:0:0:0:
256,192,74257,1,8,0:0:0:0:
256,192,74421,1,0,0:0:0:0:
256,192,74748,1,8,0:0:0:0:
256,192,74830,1,8,0:0:0:0:
256,192,74912,1,8,0:0:0:0:
256,192,75240,1,8,0:0:0:0:
256,192,75404,1,8,0:0:0:0:
256,192,75568,1,0,0:0:0:0:
256,192,75732,1,0,0:0:0:0:
256,192,76060,1,8,0:0:0:0:
256,192,76142,1,8,0:0:0:0:
256,192,76224,1,8,0:0:0:0:
256,192,76552,1,8,0:0:0:0:
256,192,76716,1,0,0:0:0:0:
256,192,76880,1,8,0:0:0:0:
256,192,77044,1,0,0:0:0:0:
256,192,77371,1,8,0:0:0:0:
256,192,77535,1,8,0:0:0:0:
256,192,77863,1,8,0:0:0:0:
256,192,78191,1,0,0:0:0:0:
256,192,78355,1,8,0:0:0:0:
256,192,78683,1,0,0:0:0:0:
256,192,78847,1,8,0:0:0:0:
256,192,79011,1,0,0:0:0:0:
256,192,79175,1,8,0:0:0:0:
256,192,79257,1,8,0:0:0:0:
256,192,79339,1,8,0:0:0:0:
256,192,79503,1,0,0:0:0:0:
256,192,79666,1,0,0:0:0:0:
256,192,79748,1,0,0:0:0:0:
256,192,79830,1,0,0:0:0:0:
256,192,79994,1,8,0:0:0:0:
256,192,80322,1,0,0:0:0:0:
256,192,80404,1,0,0:0:0:0:
256,192,80486,1,0,0:0:0:0:
256,192,80650,1,8,0:0:0:0:
256,192,80978,1,0,0:0:0:0:
256,192,81060,1,0,0:0:0:0:
256,192,81142,1,0,0:0:0:0:
256,192,81306,1,8,0:0:0:0:
256,192,81634,1,0,0:0:0:0:
256,192,81716,1,0,0:0:0:0:
256,192,81798,1,0,0:0:0:0:
256,192,81962,1,8,0:0:0:0:
256,192,82126,1,8,0:0:0:0:
256,192,82289,1,0,0:0:0:0:
256,192,82371,1,0,0:0:0:0:
256,192,82453,1,0,0:0:0:0:
256,192,82617,1,8,0:0:0:0:
256,192,82945,1,0,0:0:0:0:
256,192,83027,1,0,0:0:0:0:
256,192,83109,1,0,0:0:0:0:
256,192,83273,1,8,0:0:0:0:
256,192,83601,1,0,0:0:0:0:
256,192,83683,1,0,0:0:0:0:
256,192,83765,1,0,0:0:0:0:
256,192,83929,1,8,0:0:0:0:
256,192,84257,1,0,0:0:0:0:
256,192,84339,1,0,0:0:0:0:
256,192,84421,1,0,0:0:0:0:
256,192,84585,1,8,0:0:0:0:
256,192,84748,1,8,0:0:0:0:
256,192,84912,1,8,0:0:0:0:
256,192,84994,1,8,0:0:0:0:
256,192,85076,1,8,0:0:0:0:
256,192,85240,1,8,0:0:0:0:
256,192,85568,1,8,0:0:0:0:
256,192,85650,1,8,0:0:0:0:
256,192,85732,1,8,0:0:0:0:
256,192,85896,1,8,0:0:0:0:
256,192,86224,1,8,0:0:0:0:
256,192,86306,1,8,0:0:0:0:
256,192,86388,1,8,0:0:0:0:
256,192,86552,1,8,0:0:0:0:
256,192,86880,1,8,0:0:0:0:
256,192,86962,1,8,0:0:0:0:
256,192,87044,1,8,0:0:0:0:
256,192,87207,1,0,0:0:0:0:
256,192,87371,1,0,0:0:0:0:
256,192,87535,1,8,0:0:0:0:
256,192,87617,1,8,0:0:0:0:
256,192,87699,1,8,0:0:0:0:
256,192,87863,1,8,0:0:0:0:
256,192,88191,1,8,0:0:0:0:
256,192,88273,1,8,0:0:0:0:
256,192,88355,1,8,0:0:0:0:
256,192,88519,1,8,0:0:0:0:
256,192,88847,1,8,0:0:0:0:
256,192,88929,1,8,0:0:0:0:
256,192,89011,1,8,0:0:0:0:
256,192,89175,1,8,0:0:0:0:
256,192,89503,1,0,0:0:0:0:
256,192,89666,1,0,0:0:0:0:
256,192,89830,1,8,0:0:0:0:
256,192,89994,1,8,0:0:0:0:
256,192,90158,1,4,0:0:0:0:
256,192,90650,1,0,0:0:0:0:
256,192,90814,1,0,0:0:0:0:
256,192,91306,1,0,0:0:0:0:
256,192,91388,1,0,0:0:0:0:
256,192,91470,1,0,0:0:0:0:
256,192,91634,1,0,0:0:0:0:
256,192,91798,1,8,0:0:0:0:
256,192,91962,1,0,0:0:0:0:
256,192,92044,1,0,0:0:0:0:
256,192,92126,1,0,0:0:0:0:
256,192,92289,1,0,0:0:0:0:
256,192,92453,1,8,0:0:0:0:
256,192,92781,1,4,0:0:0:0:
256,192,92945,1,0,0:0:0:0:
256,192,93109,1,8,0:0:0:0:
256,192,93273,1,8,0:0:0:0:
256,192,93437,1,0,0:0:0:0:
256,192,93601,1,8,0:0:0:0:
256,192,93765,1,8,0:0:0:0:
256,192,93929,1,8,0:0:0:0:
256,192,94093,1,0,0:0:0:0:
256,192,94421,1,8,0:0:0:0:
256,192,94585,1,8,0:0:0:0:
256,192,94748,1,0,0:0:0:0:
256,192,94912,1,0,0:0:0:0:
256,192,95076,1,8,0:0:0:0:
256,192,95404,1,8,0:0:0:0:
256,192,95568,1,0,0:0:0:0:
256,192,95732,1,8,0:0:0:0:
256,192,95896,1,8,0:0:0:0:
256,192,96060,1,0,0:0:0:0:
256,192,96224,1,8,0:0:0:0:
256,192,96388,1,8,0:0:0:0:
256,192,96552,1,8,0:0:0:0:
256,192,96716,1,4,0:0:0:0:
256,192,97044,1,12,0:0:0:0:
256,192,97371,1,4,0:0:0:0:
256,192,97699,1,8,0:0:0:0:
256,192,97781,1,8,0:0:0:0:
256,192,97863,1,8,0:0:0:0:
256,192,98027,1,12,0:0:0:0:
256,192,98273,1,8,0:0:0:0:
256,192,98355,1,8,0:0:0:0:
256,192,98683,1,0,0:0:0:0:
256,192,98847,1,8,0:0:0:0:
256,192,99011,1,8,0:0:0:0:
256,192,99175,1,0,0:0:0:0:
256,192,99339,1,8,0:0:0:0:
256,192,99585,1,8,0:0:0:0:
256,192,99666,1,8,0:0:0:0:
256,192,99994,1,0,0:0:0:0:
256,192,100158,1,8,0:0:0:0:
256,192,100322,1,0,0:0:0:0:
256,192,100486,1,0,0:0:0:0:
256,192,100650,1,8,0:0:0:0:
256,192,100896,1,8,0:0:0:0:
256,192,100978,1,8,0:0:0:0:
256,192,101306,1,0,0:0:0:0:
256,192,101470,1,8,0:0:0:0:
256,192,101634,1,8,0:0:0:0:
256,192,101798,1,8,0:0:0:0:
256,192,101962,1,0,0:0:0:0:
256,192,102207,1,0,0:0:0:0:
256,192,102453,1,8,0:0:0:0:
256,192,102781,1,0,0:0:0:0:
256,192,102945,1,8,0:0:0:0:
256,192,103027,1,8,0:0:0:0:
256,192,103109,1,8,0:0:0:0:
256,192,103273,1,8,0:0:0:0:
256,192,103519,1,8,0:0:0:0:
256,192,103601,1,8,0:0:0:0:
256,192,103929,1,0,0:0:0:0:
256,192,104093,1,8,0:0:0:0:
256,192,104257,1,8,0:0:0:0:
256,192,104421,1,0,0:0:0:0:
256,192,104585,1,8,0:0:0:0:
256,192,104830,1,8,0:0:0:0:
256,192,104912,1,8,0:0:0:0:
256,192,105240,1,0,0:0:0:0:
256,192,105404,1,8,0:0:0:0:
256,192,105568,1,0,0:0:0:0:
256,192,105732,1,0,0:0:0:0:
256,192,105896,1,8,0:0:0:0:
256,192,106142,1,8,0:0:0:0:
256,192,106224,1,8,0:0:0:0:
256,192,106552,1,0,0:0:0:0:
256,192,106716,1,8,0:0:0:0:
256,192,106880,1,8,0:0:0:0:
256,192,107044,1,8,0:0:0:0:
256,192,107207,1,0,0:0:0:0:
256,192,107453,1,0,0:0:0:0:
256,192,107699,1,8,0:0:0:0:
256,192,108027,1,0,0:0:0:0:
256,192,108191,1,8,0:0:0:0:
256,192,108273,1,8,0:0:0:0:
256,192,108355,1,8,0:0:0:0:
256,192,108519,1,4,0:0:0:0:
256,192,108765,1,8,0:0:0:0:
256,192,109011,1,8,0:0:0:0:
256,192,109175,1,8,0:0:0:0:
256,192,109503,1,8,0:0:0:0:
256,192,109666,1,8,0:0:0:0:
256,192,109830,1,0,0:0:0:0:
256,192,110076,1,0,0:0:0:0:
256,192,110322,1,0,0:0:0:0:
256,192,110486,1,8,0:0:0:0:
256,192,110650,1,8,0:0:0:0:
256,192,110814,1,8,0:0:0:0:
256,192,111142,1,8,0:0:0:0:
256,192,111388,1,0,0:0:0:0:
256,192,111634,1,8,0:0:0:0:
256,192,111798,1,8,0:0:0:0:
256,192,112044,1,8,0:0:0:0:
256,192,112289,1,0,0:0:0:0:
256,192,112453,1,8,0:0:0:0:
256,192,112699,1,0,0:0:0:0:
256,192,112945,1,8,0:0:0:0:
256,192,113109,1,8,0:0:0:0:
256,192,113601,1,0,0:0:0:0:
256,192,113765,1,12,0:0:0:0:
256,192,113929,1,0,0:0:0:0:
256,192,114093,1,0,0:0:0:0:
256,192,114257,1,0,0:0:0:0:
256,192,114421,1,0,0:0:0:0:
256,192,114585,1,0,0:0:0:0:
256,192,114748,1,8,0:0:0:0:
256,192,114912,1,8,0:0:0:0:
256,192,115240,1,8,0:0:0:0:
256,192,115404,1,0,0:0:0:0:
256,192,115568,1,8,0:0:0:0:
256,192,115732,1,8,0:0:0:0:
256,192,115896,1,0,0:0:0:0:
256,192,116060,1,0,0:0:0:0:
256,192,116224,1,8,0:0:0:0:
256,192,116552,1,8,0:0:0:0:
256,192,116716,1,8,0:0:0:0:
256,192,116880,1,0,0:0:0:0:
256,192,117044,1,8,0:0:0:0:
256,192,117207,1,8,0:0:0:0:
256,192,117371,1,0,0:0:0:0:
256,192,117699,1,8,0:0:0:0:
256,192,117863,1,8,0:0:0:0:
256,192,117945,1,8,0:0:0:0:
256,192,118027,1,8,0:0:0:0:
256,192,118191,1,0,0:0:0:0:
256,192,118273,1,0,0:0:0:0:
256,192,118355,1,0,0:0:0:0:
256,192,118519,1,0,0:0:0:0:
256,192,118683,1,8,0:0:0:0:
256,192,118765,1,8,0:0:0:0:
256,192,118847,1,8,0:0:0:0:
256,192,119011,1,4,0:0:0:0:
