osu file format v14

[General]
AudioFilename: audio.mp3
AudioLeadIn: 0
PreviewTime: 69175
Countdown: 0
SampleSet: Normal
StackLeniency: 0.7
Mode: 1
LetterboxInBreaks: 0
WidescreenStoryboard: 0

[Editor]
DistanceSpacing: 0.4
BeatDivisor: 4
GridSize: 32
TimelineZoom: 2.2

[Metadata]
Title:Shikou no Ran
TitleUnicode:紫煌ノ乱
Artist:Zeami
ArtistUnicode:世阿弥
Creator:DarkVortex
Version:Kantan
Source:太鼓の達人 ムラサキVer.
Tags:namco murasaki version taiko no tatsujin
BeatmapID:1224943
BeatmapSetID:578524

[Difficulty]
HPDrainRate:7
CircleSize:5
OverallDifficulty:3
ApproachRate:5
SliderMultiplier:1.4
SliderTickRate:1

[Events]
//Background and Video events
0,0,"Purple-Planet.jpg",0,0
//Break Periods
//Storyboard Layer 0 (Background)
//Storyboard Layer 1 (Fail)
//Storyboard Layer 2 (Pass)
//Storyboard Layer 3 (Foreground)
//Storyboard Sound Samples

[TimingPoints]
-333,327.868852459016,4,1,0,70,1,0
45568,-100,4,1,0,60,0,0
69175,-100,4,1,0,70,0,0
113765,-100,4,1,0,80,0,1
119011,-100,4,1,0,80,0,0

[HitObjects]
256,192,7535,5,4,0:0:0:0:
256,192,8191,1,0,0:0:0:0:
256,192,8519,1,8,0:0:0:0:
256,192,8847,1,0,0:0:0:0:
256,192,9503,1,0,0:0:0:0:
256,192,10158,1,0,0:0:0:0:
256,192,10814,1,0,0:0:0:0:
256,192,11142,1,8,0:0:0:0:
256,192,11470,1,0,0:0:0:0:
256,192,12126,1,0,0:0:0:0:
256,192,12453,1,0,0:0:0:0:
256,192,12781,1,12,0:0:0:0:
256,192,13109,1,8,0:0:0:0:
256,192,13437,1,0,0:0:0:0:
256,192,14748,1,8,0:0:0:0:
256,192,15076,1,8,0:0:0:0:
256,192,15404,1,0,0:0:0:0:
256,192,15732,1,8,0:0:0:0:
256,192,16060,1,0,0:0:0:0:
256,192,17371,1,8,0:0:0:0:
256,192,17699,1,0,0:0:0:0:
256,192,18027,1,8,0:0:0:0:
256,192,18355,1,8,0:0:0:0:
256,192,18683,1,0,0:0:0:0:
256,192,19994,1,8,0:0:0:0:
256,192,20322,1,8,0:0:0:0:
256,192,20650,1,0,0:0:0:0:
256,192,20978,1,8,0:0:0:0:
256,192,21306,1,0,0:0:0:0:
256,192,22617,1,8,0:0:0:0:
256,192,22945,1,0,0:0:0:0:
256,192,23273,1,12,0:0:0:0:
256,192,23601,1,8,0:0:0:0:
256,192,23929,1,0,0:0:0:0:
256,192,24585,1,0,0:0:0:0:
256,192,25240,1,0,0:0:0:0:
256,192,25896,1,8,0:0:0:0:
256,192,26224,1,8,0:0:0:0:
256,192,26552,1,0,0:0:0:0:
256,192,27863,1,8,0:0:0:0:
256,192,28191,1,0,0:0:0:0:
256,192,28519,1,8,0:0:0:0:
256,192,28847,1,8,0:0:0:0:
256,192,29175,1,0,0:0:0:0:
256,192,30486,1,0,0:0:0:0:
256,192,30814,1,0,0:0:0:0:
256,192,31142,1,8,0:0:0:0:
256,192,31470,1,8,0:0:0:0:
256,192,31798,1,0,0:0:0:0:
256,192,32453,1,8,0:0:0:0:
256,192,33109,1,0,0:0:0:0:
256,192,33765,1,8,0:0:0:0:
256,192,34093,1,8,0:0:0:0:
256,192,34421,1,0,0:0:0:0:
256,192,35076,1,8,0:0:0:0:
256,192,35732,1,8,0:0:0:0:
256,192,36388,1,8,0:0:0:0:
256,192,36716,1,8,0:0:0:0:
256,192,37044,1,0,0:0:0:0:
256,192,38355,1,8,0:0:0:0:
256,192,38683,1,0,0:0:0:0:
256,192,39011,1,8,0:0:0:0:
256,192,39339,1,0,0:0:0:0:
256,192,39666,1,0,0:0:0:0:
256,192,40978,1,8,0:0:0:0:
256,192,41306,1,0,0:0:0:0:
256,192,41634,1,8,0:0:0:0:
256,192,41962,1,8,0:0:0:0:
256,192,42289,1,0,0:0:0:0:
256,192,42945,1,0,0:0:0:0:
256,192,43273,1,0,0:0:0:0:
256,192,43601,1,8,0:0:0:0:
256,192,43929,1,8,0:0:0:0:
256,192,44257,1,4,0:0:0:0:
256,192,45896,1,0,0:0:0:0:
256,192,46224,1,8,0:0:0:0:
256,192,46880,1,0,0:0:0:0:
256,192,48519,1,8,0:0:0:0:
256,192,48847,1,0,0:0:0:0:
256,192,49503,1,8,0:0:0:0:
256,192,50814,1,8,0:0:0:0:
256,192,51470,1,0,0:0:0:0:
256,192,51798,1,8,0:0:0:0:
256,192,52126,1,8,0:0:0:0:
256,192,53437,1,0,0:0:0:0:
256,192,54748,1,8,0:0:0:0:
256,192,56388,1,0,0:0:0:0:
256,192,56716,1,8,0:0:0:0:
256,192,57371,1,8,0:0:0:0:
256,192,58683,1,8,0:0:0:0:
256,192,59994,1,0,0:0:0:0:
256,192,61634,1,8,0:0:0:0:
256,192,61962,1,0,0:0:0:0:
256,192,62617,1,0,0:0:0:0:
256,192,63929,1,8,0:0:0:0:
256,192,65240,12,0,68847,0:0:0:0:
256,192,69175,5,4,0:0:0:0:
256,192,69503,1,0,0:0:0:0:
256,192,69994,1,0,0:0:0:0:
256,192,70486,1,8,0:0:0:0:
256,192,70978,1,8,0:0:0:0:
256,192,71470,1,8,0:0:0:0:
256,192,72126,1,0,0:0:0:0:
256,192,72617,1,0,0:0:0:0:
256,192,73109,1,8,0:0:0:0:
256,192,73601,1,8,0:0:0:0:
256,192,73929,1,8,0:0:0:0:
256,192,74748,1,8,0:0:0:0:
256,192,75240,1,8,0:0:0:0:
256,192,76060,1,8,0:0:0:0:
256,192,76552,1,8,0:0:0:0:
256,192,76880,1,8,0:0:0:0:
256,192,77371,1,0,0:0:0:0:
256,192,77863,1,0,0:0:0:0:
256,192,78355,1,8,0:0:0:0:
256,192,78847,1,8,0:0:0:0:
256,192,79339,1,8,0:0:0:0:
256,192,79666,1,4,0:0:0:0:
256,192,79994,1,8,0:0:0:0:
256,192,80650,1,8,0:0:0:0:
256,192,81306,1,8,0:0:0:0:
256,192,81962,1,8,0:0:0:0:
256,192,82289,1,0,0:0:0:0:
256,192,82617,1,8,0:0:0:0:
256,192,83273,1,8,0:0:0:0:
256,192,83929,1,8,0:0:0:0:
256,192,84912,1,0,0:0:0:0:
256,192,85240,1,8,0:0:0:0:
256,192,85896,1,8,0:0:0:0:
256,192,86552,1,8,0:0:0:0:
256,192,87207,1,8,0:0:0:0:
256,192,87535,1,0,0:0:0:0:
256,192,87863,1,8,0:0:0:0:
256,192,88519,1,8,0:0:0:0:
256,192,89175,1,8,0:0:0:0:
256,192,89503,1,0,0:0:0:0:
256,192,90158,1,4,0:0:0:0:
256,192,91470,1,0,0:0:0:0:
256,192,91798,1,8,0:0:0:0:
256,192,92453,1,8,0:0:0:0:
256,192,92781,1,4,0:0:0:0:
256,192,93437,1,8,0:0:0:0:
256,192,94093,1,0,0:0:0:0:
256,192,94748,1,0,0:0:0:0:
256,192,95404,1,0,0:0:0:0:
256,192,96060,1,8,0:0:0:0:
256,192,96388,1,8,0:0:0:0:
256,192,96716,1,0,0:0:0:0:
256,192,97371,1,0,0:0:0:0:
256,192,98027,1,12,0:0:0:0:
256,192,99011,1,0,0:0:0:0:
256,192,99339,1,8,0:0:0:0:
256,192,100322,1,0,0:0:0:0:
256,192,100650,1,8,0:0:0:0:
256,192,101634,1,8,0:0:0:0:
256,192,101962,1,0,0:0:0:0:
256,192,102453,1,8,0:0:0:0:
256,192,103273,1,12,0:0:0:0:
256,192,104257,1,0,0:0:0:0:
256,192,104585,1,8,0:0:0:0:
256,192,105568,1,0,0:0:0:0:
256,192,105896,1,8,0:0:0:0:
256,192,106880,1,8,0:0:0:0:
256,192,107207,1,0,0:0:0:0:
256,192,107699,1,8,0:0:0:0:
256,192,108519,1,4,0:0:0:0:
256,192,109175,1,8,0:0:0:0:
256,192,109830,1,0,0:0:0:0:
256,192,110486,1,8,0:0:0:0:
256,192,110814,1,8,0:0:0:0:
256,192,111142,1,0,0:0:0:0:
256,192,111798,1,8,0:0:0:0:
256,192,112453,1,8,0:0:0:0:
256,192,113109,1,0,0:0:0:0:
256,192,113765,1,12,0:0:0:0:
256,192,115240,5,8,0:0:0:0:
256,192,115568,1,8,0:0:0:0:
256,192,115732,1,8,0:0:0:0:
256,192,116224,1,8,0:0:0:0:
256,192,116552,1,8,0:0:0:0:
256,192,116716,1,8,0:0:0:0:
256,192,117699,1,8,0:0:0:0:
256,192,118027,1,8,0:0:0:0:
256,192,118355,1,0,0:0:0:0:
256,192,118683,1,8,0:0:0:0:
256,192,119011,1,4,0:0:0:0:
