osu file format v14

[General]
AudioFilename: audio.mp3
AudioLeadIn: 0
PreviewTime: -1
Countdown: 1
SampleSet: None
StackLeniency: 0.7
Mode: 1
LetterboxInBreaks: 0
WidescreenStoryboard: 1

[Editor]
DistanceSpacing: 1
BeatDivisor: 4
GridSize: 8
TimelineZoom: 2.699999

[Metadata]
Title:Purple Rose Fusion
TitleUnicode:Purple Rose Fusion
Artist:Zeami
ArtistUnicode:Zeami
Creator:azer467
Version:Oni
Source:Taiko no Tatsujin
Tags:
BeatmapID:1053875
BeatmapSetID:495000

[Difficulty]
HPDrainRate:6
CircleSize:4.7
OverallDifficulty:8.5
ApproachRate:9.5
SliderMultiplier:1.8
SliderTickRate:1

[Events]
//Background and Video events
//Break Periods
//Storyboard Layer 0 (Background)
//Storyboard Layer 1 (Fail)
//Storyboard Layer 2 (Pass)
//Storyboard Layer 3 (Foreground)
//Storyboard Sound Samples

[TimingPoints]
8324,324.324324324324,4,1,0,100,1,0
10919,-133.333333333333,4,1,0,100,0,0
111459,240,4,1,0,100,1,1
134499,-100,4,1,0,100,0,0

[HitObjects]
216,136,111459,5,0,0:0:0:0:
216,136,111519,1,0,0:0:0:0:
216,136,111579,1,0,0:0:0:0:
376,96,111699,1,8,0:0:0:0:
216,136,111819,1,0,0:0:0:0:
216,136,111879,1,0,0:0:0:0:
216,136,111939,1,0,0:0:0:0:
376,96,112059,1,8,0:0:0:0:
216,136,112179,1,0,0:0:0:0:
216,136,112239,1,0,0:0:0:0:
216,136,112299,1,0,0:0:0:0:
368,96,112419,1,8,0:0:0:0:
376,96,112479,1,8,0:0:0:0:
216,136,112539,1,0,0:0:0:0:
216,136,112659,1,0,0:0:0:0:
368,96,112779,1,8,0:0:0:0:
368,96,112839,1,8,0:0:0:0:
216,136,112899,1,0,0:0:0:0:
216,136,113019,1,0,0:0:0:0:
368,96,113139,1,8,0:0:0:0:
368,96,113199,1,8,0:0:0:0:
368,96,113259,1,0,0:0:0:0:
216,136,113379,1,0,0:0:0:0:
216,136,113439,1,0,0:0:0:0:
216,136,113499,1,0,0:0:0:0:
368,96,113619,1,8,0:0:0:0:
216,136,113739,1,0,0:0:0:0:
216,136,113799,1,0,0:0:0:0:
216,136,113859,1,0,0:0:0:0:
368,96,113979,1,8,0:0:0:0:
216,136,114099,1,0,0:0:0:0:
216,136,114159,1,0,0:0:0:0:
216,136,114219,1,0,0:0:0:0:
368,96,114339,1,8,0:0:0:0:
376,96,114399,1,8,0:0:0:0:
216,136,114459,1,0,0:0:0:0:
216,136,114579,1,0,0:0:0:0:
368,96,114699,1,8,0:0:0:0:
368,96,114759,1,8,0:0:0:0:
216,136,114819,1,0,0:0:0:0:
216,136,114939,1,0,0:0:0:0:
368,96,115059,1,8,0:0:0:0:
368,96,115119,1,0,0:0:0:0:
368,96,115179,1,0,0:0:0:0:
216,136,115299,1,0,0:0:0:0:
216,136,115359,1,0,0:0:0:0:
216,136,115419,1,0,0:0:0:0:
376,96,115539,1,8,0:0:0:0:
216,136,115659,1,0,0:0:0:0:
216,136,115719,1,0,0:0:0:0:
216,136,115779,1,0,0:0:0:0:
376,96,115899,1,8,0:0:0:0:
216,136,116019,1,0,0:0:0:0:
216,136,116079,1,0,0:0:0:0:
216,136,116139,1,0,0:0:0:0:
368,96,116259,1,8,0:0:0:0:
376,96,116319,1,8,0:0:0:0:
216,136,116379,1,0,0:0:0:0:
216,136,116499,1,0,0:0:0:0:
368,96,116619,1,8,0:0:0:0:
368,96,116679,1,8,0:0:0:0:
368,96,116739,1,8,0:0:0:0:
216,136,116859,1,0,0:0:0:0:
368,96,116979,1,8,0:0:0:0:
368,96,117039,1,8,0:0:0:0:
368,96,117099,1,8,0:0:0:0:
216,136,117219,1,0,0:0:0:0:
216,136,117339,1,0,0:0:0:0:
368,96,117459,1,8,0:0:0:0:
216,136,117579,1,0,0:0:0:0:
216,136,117699,1,0,0:0:0:0:
368,96,117819,1,8,0:0:0:0:
216,136,117939,1,0,0:0:0:0:
216,136,118059,1,0,0:0:0:0:
368,96,118179,1,8,0:0:0:0:
368,96,118239,1,8,0:0:0:0:
216,136,118299,1,0,0:0:0:0:
216,136,118359,1,0,0:0:0:0:
216,136,118419,1,0,0:0:0:0:
216,136,118539,1,0,0:0:0:0:
368,96,118659,1,8,0:0:0:0:
368,96,118719,1,8,0:0:0:0:
216,136,118779,1,0,0:0:0:0:
216,136,118839,1,0,0:0:0:0:
368,96,118899,1,8,0:0:0:0:
216,136,119019,1,0,0:0:0:0:
216,136,119139,1,8,0:0:0:0:
216,136,119259,1,0,0:0:0:0:
216,136,119319,1,0,0:0:0:0:
216,136,119379,1,0,0:0:0:0:
216,136,119499,1,8,0:0:0:0:
216,136,119619,1,0,0:0:0:0:
216,136,119679,1,0,0:0:0:0:
216,136,119739,1,0,0:0:0:0:
216,136,119859,1,8,0:0:0:0:
216,136,119979,1,0,0:0:0:0:
216,136,120099,1,8,0:0:0:0:
216,136,120159,1,8,0:0:0:0:
216,136,120219,1,0,0:0:0:0:
216,136,120339,1,0,0:0:0:0:
216,136,120459,1,8,0:0:0:0:
216,136,120519,1,8,0:0:0:0:
216,136,120579,1,0,0:0:0:0:
216,136,120699,1,8,0:0:0:0:
216,136,120819,1,8,0:0:0:0:
216,136,120879,1,8,0:0:0:0:
216,136,120939,1,0,0:0:0:0:
216,136,121059,1,8,0:0:0:0:
216,136,121179,1,8,0:0:0:0:
216,136,121239,1,0,0:0:0:0:
216,136,121299,1,0,0:0:0:0:
216,136,121419,1,8,0:0:0:0:
216,136,121539,1,0,0:0:0:0:
216,136,121599,1,0,0:0:0:0:
216,136,121659,1,8,0:0:0:0:
216,136,121779,1,8,0:0:0:0:
216,136,121899,1,0,0:0:0:0:
216,136,121959,1,0,0:0:0:0:
216,136,122019,1,8,0:0:0:0:
216,136,122139,1,8,0:0:0:0:
216,136,122199,1,8,0:0:0:0:
216,136,122259,1,0,0:0:0:0:
216,136,122379,1,0,0:0:0:0:
216,136,122439,1,0,0:0:0:0:
216,136,122499,1,8,0:0:0:0:
216,136,122559,1,8,0:0:0:0:
216,136,122619,1,0,0:0:0:0:
216,136,122679,1,0,0:0:0:0:
216,136,122739,1,8,0:0:0:0:
216,136,122799,1,8,0:0:0:0:
216,136,122859,1,0,0:0:0:0:
216,136,122919,1,0,0:0:0:0:
216,136,122979,1,8,0:0:0:0:
216,136,123099,1,8,0:0:0:0:
216,136,123219,1,8,0:0:0:0:
216,136,123339,1,0,0:0:0:0:
216,136,123399,1,0,0:0:0:0:
216,136,123459,1,8,0:0:0:0:
216,136,123579,1,8,0:0:0:0:
216,136,123639,1,8,0:0:0:0:
216,136,123699,1,8,0:0:0:0:
216,136,123819,1,0,0:0:0:0:
216,136,123939,1,8,0:0:0:0:
216,136,123999,1,8,0:0:0:0:
216,136,124059,1,0,0:0:0:0:
216,136,124179,1,0,0:0:0:0:
216,136,124239,1,0,0:0:0:0:
216,136,124299,1,8,0:0:0:0:
216,136,124419,1,8,0:0:0:0:
216,136,124539,1,8,0:0:0:0:
216,136,124599,1,8,0:0:0:0:
216,136,124659,1,0,0:0:0:0:
216,136,124779,1,0,0:0:0:0:
216,136,124899,1,8,0:0:0:0:
216,136,125019,1,0,0:0:0:0:
216,136,125079,1,0,0:0:0:0:
216,136,125139,1,8,0:0:0:0:
216,136,125259,1,8,0:0:0:0:
