osu file format v14

[General]
AudioFilename: audio.mp3
AudioLeadIn: 0
PreviewTime: 82918
Countdown: 1
SampleSet: Normal
StackLeniency: 0.7
Mode: 0
LetterboxInBreaks: 0
WidescreenStoryboard: 0

[Editor]
DistanceSpacing: 1
BeatDivisor: 4
GridSize: 8
TimelineZoom: 2.899999

[Metadata]
Title:Purple Rose Fusion
TitleUnicode:Purple Rose Fusion
Artist:Zeami
ArtistUnicode:Zeami
Creator:azer467
Version:Blue Rose Ruin
Source:Taiko no Tatsujin
Tags:
BeatmapID:1053874
BeatmapSetID:495000

[Difficulty]
HPDrainRate:6
CircleSize:4.7
OverallDifficulty:8.5
ApproachRate:9.5
SliderMultiplier:1.8
SliderTickRate:1

[Events]
//Background and Video events
0,0,"HqUjkLA.jpg",0,0
//Break Periods
2,50686,61636
//Storyboard Layer 0 (Background)
//Storyboard Layer 1 (Fail)
//Storyboard Layer 2 (Pass)
//Storyboard Layer 3 (Foreground)
//Storyboard Sound Samples

[TimingPoints]
8324,324.324324324324,4,1,1,100,1,0
10919,-133.333333333333,4,1,1,100,0,0
45945,-133.333333333333,4,3,1,100,0,0
46269,-100,4,3,1,100,0,0
62161,-83.3333333333333,4,1,1,100,0,0
64432,-100,4,1,1,100,0,0
65405,-111.111111111111,4,1,1,100,0,0
65891,-100,4,1,1,100,0,0
70269,-125,4,1,1,100,0,0
70594,-111.111111111111,4,1,1,100,0,0
70918,-100,4,1,1,100,0,0
71242,-83.3333333333333,4,1,1,100,0,0
72540,-111.111111111111,4,1,1,100,0,0
75459,-100,4,1,1,100,0,0
76107,-83.3333333333333,4,1,1,100,0,0
77729,-100,4,1,1,100,0,0
82918,-66.6666666666667,4,1,1,100,0,0
89242,-83.3333333333333,4,1,1,100,0,0
89567,-125,4,1,1,100,0,0
89891,-100,4,1,1,100,0,0
90215,-83.3333333333333,4,1,1,100,0,0
93296,-66.6666666666667,4,1,1,100,0,0
94918,-76.9230769230769,4,1,1,100,0,0
95161,-66.6666666666667,4,1,1,100,0,0
98486,-83.3333333333333,4,1,1,100,0,0
111459,240,4,1,1,100,1,0
111459,-133.333333333333,4,1,1,100,0,1
126819,-90.9090909090909,4,1,1,100,0,1
129939,-83.3333333333333,4,1,1,100,0,1
130179,-76.9230769230769,4,1,1,100,0,1
130419,-71.4285714285714,4,1,1,100,0,1
131619,-133.333333333333,4,1,1,100,0,1
133539,-74.074074074074,4,1,1,100,0,1
134259,-100,4,1,1,100,0,1
134499,-74.074074074074,4,1,1,100,0,0

[HitObjects]
240,256,10919,6,0,L|272:176,1,67.5000025749208,4|0,0:0|0:0,0:0:0:0:
112,80,11242,2,0,L|128:160,1,67.5000025749208,2|0,0:0|0:0,0:0:0:0:
160,240,11567,1,0,0:0:0:0:
208,112,11729,1,0,0:0:0:0:
48,160,11891,2,0,P|48:224|64:256,1,101.250003862381,2|0,0:0|0:0,0:0:0:0:
80,288,12215,6,0,L|144:320,1,67.5000025749208
272,272,12540,1,2,0:0:0:0:
176,208,12702,1,0,0:0:0:0:
224,336,12864,1,0,0:0:0:0:
256,176,13026,2,0,L|208:112,1,67.5000025749208,0|2,0:0|0:0,0:0:0:0:
80,176,13351,2,0,L|144:128,1,67.5000025749208
288,80,13675,5,0,0:0:0:0:
160,64,13837,1,2,0:0:0:0:
192,192,13999,1,0,0:0:0:0:
32,128,14161,1,0,0:0:0:0:
64,256,14323,1,0,0:0:0:0:
224,272,14486,1,2,0:0:0:0:
128,176,14648,1,0,0:0:0:0:
144,336,14810,2,0,L|160:256,1,67.5000025749208
240,208,15134,2,0,L|208:128,2,67.5000025749208
304,256,15621,1,0,0:0:0:0:
144,176,15783,1,0,0:0:0:0:
128,144,15864,1,0,0:0:0:0:
136,112,15945,1,0,0:0:0:0:
160,88,16026,1,0,0:0:0:0:
192,80,16107,6,0,L|272:72,1,67.5000025749208,4|0,0:0|0:0,0:0:0:0:
368,192,16432,2,0,P|312:192|288:168,1,67.5000025749208,8|0,0:0|0:0,0:0:0:0:
280,160,16675,1,0,0:0:0:0:
176,248,16837,1,0,0:0:0:0:
176,248,16918,2,0,L|144:160,1,67.5000025749208,0|8,0:0|0:0,0:0:0:0:
216,112,17242,1,0,0:0:0:0:
288,264,17405,6,0,L|368:288,1,67.5000025749208
208,312,17729,2,0,L|136:336,1,67.5000025749208,8|0,0:0|0:0,0:0:0:0:
112,320,17972,1,0,0:0:0:0:
80,184,18134,1,0,0:0:0:0:
80,184,18215,1,0,0:0:0:0:
216,136,18378,2,0,P|208:192|184:208,1,67.5000025749208,8|0,0:0|0:0,0:0:0:0:
144,64,18702,6,0,P|176:32|224:32,1,67.5000025749208
304,144,19026,1,8,0:0:0:0:
296,264,19188,1,0,0:0:0:0:
296,264,19269,1,0,0:0:0:0:
96,240,19432,1,0,0:0:0:0:
104,208,19513,2,0,L|144:128,1,67.5000025749208,0|8,0:0|0:0,0:0:0:0:
288,104,19837,1,0,0:0:0:0:
200,216,19999,6,0,L|200:296,1,67.5000025749208
256,344,20323,1,8,0:0:0:0:
128,232,20486,1,0,0:0:0:0:
128,232,20567,1,0,0:0:0:0:
280,176,20729,1,0,0:0:0:0:
280,176,20810,1,0,0:0:0:0:
112,144,20972,2,0,P|56:144|32:168,1,67.5000025749208,8|0,0:0|0:0,0:0:0:0:
200,283,21296,6,0,L|200:203,1,67.5000025749208
280,88,21621,2,0,B|312:112|312:112|336:160,1,67.5000025749208,8|0,0:0|0:0,0:0:0:0:
312,176,21864,1,0,0:0:0:0:
160,120,22026,1,0,0:0:0:0:
160,120,22107,1,0,0:0:0:0:
304,264,22269,2,0,P|352:248|376:216,1,67.5000025749208,8|0,0:0|0:0,0:0:0:0:
416,72,22594,6,0,P|384:112|384:144,1,67.5000025749208
440,216,22918,1,8,0:0:0:0:
288,168,23080,1,0,0:0:0:0:
288,168,23161,1,0,0:0:0:0:
272,328,23323,1,0,0:0:0:0:
272,328,23405,1,0,0:0:0:0:
192,160,23567,2,0,P|192:104|208:80,1,67.5000025749208,8|0,0:0|0:0,0:0:0:0:
184,288,23891,6,0,P|152:296|112:280,1,67.5000025749208
64,160,24215,1,8,0:0:0:0:
248,224,24378,1,0,0:0:0:0:
248,224,24459,1,0,0:0:0:0:
152,80,24621,1,0,0:0:0:0:
152,80,24702,1,0,0:0:0:0:
248,112,24864,2,0,P|296:128|336:112,1,67.5000025749208,8|0,0:0|0:0,0:0:0:0:
168,184,25188,6,0,P|128:216|88:216,1,67.5000025749208
320,200,25513,2,0,P|360:176|376:128,1,67.5000025749208,8|0,0:0|0:0,0:0:0:0:
176,272,25837,1,0,0:0:0:0:
152,288,25918,1,0,0:0:0:0:
120,296,25999,1,0,0:0:0:0:
88,296,26080,1,0,0:0:0:0:
56,280,26161,5,0,0:0:0:0:
72,248,26242,1,0,0:0:0:0:
72,216,26323,1,0,0:0:0:0:
64,184,26405,1,0,0:0:0:0:
48,152,26486,6,0,L|112:128,1,67.5000025749208,4|0,0:0|0:0,0:0:0:0:
288,112,26810,2,0,L|224:88,1,67.5000025749208,2|0,0:0|0:0,0:0:0:0:
144,64,27134,1,2,0:0:0:0:
216,192,27296,1,2,0:0:0:0:
376,56,27621,1,2,0:0:0:0:
304,232,27945,1,2,0:0:0:0:
112,152,28269,1,2,0:0:0:0:
384,120,28594,1,2,0:0:0:0:
160,264,28918,5,2,0:0:0:0:
192,144,29080,1,2,0:0:0:0:
280,304,29567,1,2,0:0:0:0:
160,264,29729,1,2,0:0:0:0:
328,176,30215,1,2,0:0:0:0:
280,304,30378,1,2,0:0:0:0:
424,120,30864,1,2,0:0:0:0:
408,240,31026,2,0,B|368:248|368:248|336:224|336:224|304:232|304:232|272:208|200:232,1,202.500007724762,2|0,0:0|0:0,0:0:0:0:
144,192,31675,6,0,P|176:160|224:144,1,67.5000025749208
296,120,31999,1,2,0:0:0:0:
144,272,32161,1,0,0:0:0:0:
144,96,32323,1,2,0:0:0:0:
360,192,32486,1,2,0:0:0:0:
88,192,32810,1,2,0:0:0:0:
328,80,33134,1,2,0:0:0:0:
256,312,33459,1,2,0:0:0:0:
408,56,33783,1,2,0:0:0:0:
352,240,34107,5,2,0:0:0:0:
192,168,34269,1,2,0:0:0:0:
344,128,34756,1,2,0:0:0:0:
216,256,34918,1,2,0:0:0:0:
288,80,35405,1,2,0:0:0:0:
272,304,35567,1,2,0:0:0:0:
208,48,36053,1,2,0:0:0:0:
352,328,36215,1,2,0:0:0:0:
128,208,36540,1,0,0:0:0:0:
352,104,36864,6,0,P|368:160|352:184,1,67.5000025749208
304,232,37188,1,2,0:0:0:0:
176,128,37351,1,0,0:0:0:0:
392,240,37513,1,2,0:0:0:0:
216,312,37675,1,2,0:0:0:0:
96,192,37999,1,2,0:0:0:0:
296,40,38323,1,2,0:0:0:0:
200,80,38486,5,0,0:0:0:0:
184,88,38810,1,0,0:0:0:0:
168,96,39134,1,0,0:0:0:0:
256,208,39459,1,0,0:0:0:0:
256,184,39783,1,0,0:0:0:0:
256,160,40107,1,0,0:0:0:0:
368,104,40432,1,0,0:0:0:0:
384,208,40756,6,0,P|376:256|352:280,1,67.5000025749208,2|0,0:0|0:0,0:0:0:0:
304,192,41080,1,0,0:0:0:0:
448,152,41242,1,2,0:0:0:0:
272,264,41405,2,0,P|224:240|216:200,1,67.5000025749208,0|2,0:0|0:0,0:0:0:0:
208,152,41729,2,0,P|168:136|128:152,1,67.5000025749208
64,312,42053,1,0,0:0:0:0:
304,288,42702,5,0,0:0:0:0:
192,208,42864,1,0,0:0:0:0:
304,128,43026,1,0,0:0:0:0:
192,56,43188,1,0,0:0:0:0:
344,232,43675,1,0,0:0:0:0:
208,280,43999,1,0,0:0:0:0:
232,128,44323,1,0,0:0:0:0:
256,208,44648,5,0,0:0:0:0:
88,192,45134,1,0,0:0:0:0:
344,96,45621,1,0,0:0:0:0:
192,208,45945,5,4,0:0:0:0:
168,184,46026,1,0,0:0:0:0:
160,152,46107,1,0,0:0:0:0:
168,120,46188,1,0,0:0:0:0:
184,96,46269,2,0,L|232:48,3,45,2|0|0|0,0:0|0:0|0:0|0:0,0:0:0:0:
240,144,46594,5,4,0:0:0:0:
208,168,46675,1,0,0:0:0:0:
176,176,46756,1,0,0:0:0:0:
144,168,46837,1,0,0:0:0:0:
112,152,46918,1,2,0:0:0:0:
112,184,46999,1,0,0:0:0:0:
104,216,47080,1,0,0:0:0:0:
88,248,47161,1,0,0:0:0:0:
72,280,47242,6,0,L|24:336,3,45,4|0|0|0,0:0|0:0|0:0|0:0,0:0:0:0:
176,320,47567,2,0,L|168:384,3,45,4|0|0|0,0:0|0:0|0:0|0:0,0:0:0:0:
288,304,47891,5,4,0:0:0:0:
312,264,47972,1,0,0:0:0:0:
328,224,48053,1,4,0:0:0:0:
328,176,48134,1,0,0:0:0:0:
312,136,48215,2,0,L|288:72,3,45,4|0|4|0,0:0|0:0|0:0|0:0,0:0:0:0:
248,160,48540,5,4,0:0:0:0:
256,200,48621,1,0,0:0:0:0:
240,240,48702,1,4,0:0:0:0:
200,264,48783,1,0,0:0:0:0:
152,264,48864,1,4,0:0:0:0:
112,240,48945,1,0,0:0:0:0:
88,200,49026,1,4,0:0:0:0:
96,160,49107,1,0,0:0:0:0:
112,128,49188,1,4,0:0:0:0:
136,104,49269,1,0,0:0:0:0:
160,96,49351,1,4,0:0:0:0:
184,96,49432,1,0,0:0:0:0:
200,104,49513,6,8,L|232:128,6,22.5,8|8|0|8|0|8|0,0:0|0:0|0:0|0:0|0:0|0:0|0:0,0:0:0:0:
352,144,49837,2,0,L|371:109,6,22.5,8|0|8|0|8|0|8,0:0|0:0|0:0|0:0|0:0|0:0|0:0,0:0:0:0:
208,232,50161,2,0,L|176:216,6,22.5,8|0|8|0|8|0|8,0:0|0:0|0:0|0:0|0:0|0:0|0:0,0:0:0:0:
80,312,50486,1,4,0:0:0:0:
304,336,62161,6,0,P|304:296|368:240,1,107.999996704102,4|0,0:0|0:0,0:0:0:0:
400,184,62486,1,10,0:0:0:0:
368,168,62567,1,0,0:0:0:0:
328,168,62648,1,0,0:0:0:0:
168,224,62810,1,2,0:0:0:0:
160,192,62891,1,0,0:0:0:0:
160,160,62972,1,0,0:0:0:0:
168,128,63053,1,0,0:0:0:0:
184,104,63134,2,0,P|224:64|288:64,1,107.999996704102,10|0,0:0|0:0,0:0:0:0:
424,224,63459,5,2,0:0:0:0:
408,248,63540,1,0,0:0:0:0:
384,272,63621,1,0,0:0:0:0:
360,288,63702,1,0,0:0:0:0:
328,296,63783,1,10,0:0:0:0:
336,192,63945,1,2,0:0:0:0:
352,160,64026,1,0,0:0:0:0:
352,128,64107,1,0,0:0:0:0:
344,96,64188,1,0,0:0:0:0:
328,72,64269,1,2,0:0:0:0:
248,144,64432,2,0,P|224:192|192:216,1,90,10|0,0:0|0:0,0:0:0:0:
152,88,64756,5,0,0:0:0:0:
152,88,64837,1,0,0:0:0:0:
152,88,64918,1,0,0:0:0:0:
352,200,65080,1,10,0:0:0:0:
232,240,65242,1,0,0:0:0:0:
336,80,65405,2,0,P|376:48|408:40,1,80.9999975280763,2|0,0:0|0:0,0:0:0:0:
440,184,65729,1,8,0:0:0:0:
280,168,65891,2,0,P|248:128|200:112,1,90,2|0,0:0|0:0,0:0:0:0:
128,160,66215,5,0,0:0:0:0:
112,136,66296,1,0,0:0:0:0:
112,112,66378,1,8,0:0:0:0:
312,88,66540,1,0,0:0:0:0:
256,240,66702,1,2,0:0:0:0:
232,264,66783,1,0,0:0:0:0:
208,280,66864,1,0,0:0:0:0:
176,288,66945,1,0,0:0:0:0:
144,288,67026,1,10,0:0:0:0:
160,264,67107,1,0,0:0:0:0:
168,232,67188,1,0,0:0:0:0:
160,200,67269,1,0,0:0:0:0:
144,176,67351,6,0,B|120:136|96:120|96:120|64:120,1,90,2|0,0:0|0:0,0:0:0:0:
288,168,67675,1,8,0:0:0:0:
152,56,67837,1,2,0:0:0:0:
184,48,67918,1,0,0:0:0:0:
216,48,67999,1,0,0:0:0:0:
352,104,68161,1,0,0:0:0:0:
152,56,68323,1,10,0:0:0:0:
184,48,68405,1,0,0:0:0:0:
216,48,68486,1,0,0:0:0:0:
248,56,68567,1,0,0:0:0:0:
272,72,68648,1,0,0:0:0:0:
208,168,68810,5,0,0:0:0:0:
176,184,68891,1,0,0:0:0:0:
144,192,68972,1,8,0:0:0:0:
328,232,69134,1,0,0:0:0:0:
352,248,69215,1,0,0:0:0:0:
384,256,69296,1,0,0:0:0:0:
192,288,69459,1,0,0:0:0:0:
160,296,69540,1,0,0:0:0:0:
128,296,69621,1,10,0:0:0:0:
96,288,69702,1,0,0:0:0:0:
64,264,69783,5,2,0:0:0:0:
48,232,69864,1,0,0:0:0:0:
48,192,69945,2,0,P|64:144|88:112,1,90,2|0,0:0|0:0,0:0:0:0:
232,216,70269,2,0,P|240:272|232:312,1,72,8|0,0:0|0:0,0:0:0:0:
336,80,70594,2,0,P|384:64|440:80,1,80.9999975280763
152,208,70918,2,0,P|128:160|128:96,1,90,8|0,0:0|0:0,0:0:0:0:
376,208,71242,2,0,P|368:264|312:320,1,107.999996704102
232,120,71567,1,8,0:0:0:0:
408,96,71729,1,0,0:0:0:0:
240,240,71891,5,2,0:0:0:0:
208,256,71972,1,0,0:0:0:0:
176,264,72053,1,0,0:0:0:0:
144,264,72134,1,0,0:0:0:0:
112,256,72215,5,2,0:0:0:0:
112,224,72296,1,0,0:0:0:0:
120,192,72378,1,2,0:0:0:0:
136,168,72459,1,0,0:0:0:0:
160,152,72540,6,0,B|192:128|192:128|216:80,1,80.9999975280763,4|0,0:0|0:0,0:0:0:0:
368,168,72864,2,0,P|368:232|392:272,1,80.9999975280763,8|0,0:0|0:0,0:0:0:0:
256,208,73188,1,0,0:0:0:0:
376,88,73351,1,0,0:0:0:0:
208,80,73513,2,0,P|144:96|112:120,1,80.9999975280763,8|0,0:0|0:0,0:0:0:0:
246,284,73837,2,0,P|262:236|245:191,1,80.9999975280763
136,208,74161,1,8,0:0:0:0:
304,96,74323,1,0,0:0:0:0:
400,240,74486,6,0,B|392:280|392:280|352:320,1,80.9999975280763,2|0,0:0|0:0,0:0:0:0:
264,312,74810,1,8,0:0:0:0:
360,168,74972,2,0,P|416:128|456:128,1,80.9999975280763,2|0,0:0|0:0,0:0:0:0:
480,184,75296,1,0,0:0:0:0:
264,152,75459,2,0,P|216:128|152:152,1,90,8|0,0:0|0:0,0:0:0:0:
72,320,75783,2,0,P|96:272|80:224,1,90
112,80,76107,2,0,B|152:56|152:56|176:48|224:56,1,107.999996704102,8|0,0:0|0:0,0:0:0:0:
280,208,76432,5,2,0:0:0:0:
312,112,76594,1,0,0:0:0:0:
360,280,76756,5,2,0:0:0:0:
192,216,76918,1,0,0:0:0:0:
376,176,77080,5,2,0:0:0:0:
248,288,77242,1,0,0:0:0:0:
232,128,77405,5,2,0:0:0:0:
448,224,77567,1,0,0:0:0:0:
176,232,77729,6,0,B|144:200|144:200|136:144,1,90,6|0,0:0|0:0,0:0:0:0:
328,256,78053,2,0,B|320:304|320:304|272:344,1,90,8|0,0:0|0:0,0:0:0:0:
304,136,78378,2,0,P|336:96|384:80,1,90
216,304,78702,2,0,P|160:328|112:320,1,90,8|0,0:0|0:0,0:0:0:0:
208,80,79026,2,0,P|256:56|312:56,1,90
384,176,79351,2,0,P|352:216|360:280,1,90,8|0,0:0|0:0,0:0:0:0:
384,328,79675,5,2,0:0:0:0:
224,264,79837,1,2,0:0:0:0:
344,96,79999,1,10,0:0:0:0:
248,144,80161,1,2,0:0:0:0:
136,112,80323,1,0,0:0:0:0:
160,88,80405,5,0,0:0:0:0:
184,72,80486,1,0,0:0:0:0:
216,64,80567,1,0,0:0:0:0:
248,64,80648,1,8,0:0:0:0:
280,72,80729,1,0,0:0:0:0:
312,88,80810,1,0,0:0:0:0:
336,104,80891,1,0,0:0:0:0:
360,128,80972,5,0,0:0:0:0:
336,144,81053,1,0,0:0:0:0:
320,168,81134,1,0,0:0:0:0:
320,200,81215,1,0,0:0:0:0:
328,232,81296,1,8,0:0:0:0:
352,256,81378,1,0,0:0:0:0:
376,272,81459,1,0,0:0:0:0:
400,288,81540,1,0,0:0:0:0:
360,304,81621,5,2,0:0:0:0:
320,312,81702,1,0,0:0:0:0:
280,312,81783,1,0,0:0:0:0:
240,304,81864,1,0,0:0:0:0:
200,288,81945,1,10,0:0:0:0:
168,264,82026,1,0,0:0:0:0:
200,240,82107,1,2,0:0:0:0:
216,200,82188,1,0,0:0:0:0:
200,160,82269,5,8,0:0:0:0:
160,144,82351,1,0,0:0:0:0:
120,160,82432,1,2,0:0:0:0:
104,200,82513,1,0,0:0:0:0:
80,232,82594,1,10,0:0:0:0:
48,256,82675,1,0,0:0:0:0:
40,296,82756,1,2,0:0:0:0:
64,328,82837,1,0,0:0:0:0:
112,336,82918,6,0,P|184:344|264:320,1,135.000005149842,4|0,0:0|0:0,0:0:0:0:
312,256,83242,1,10,0:0:0:0:
272,232,83323,1,0,0:0:0:0:
224,240,83405,1,0,0:0:0:0:
64,144,83567,1,2,0:0:0:0:
104,128,83648,1,0,0:0:0:0:
144,112,83729,1,2,0:0:0:0:
184,96,83810,1,0,0:0:0:0:
224,80,83891,1,8,0:0:0:0:
456,136,84053,5,2,0:0:0:0:
432,104,84134,1,0,0:0:0:0:
392,88,84215,1,0,0:0:0:0:
352,96,84296,1,0,0:0:0:0:
312,120,84378,2,0,B|288:104|288:104|344:216,1,135.000005149842,2|8,0:0|0:0,0:0:0:0:
192,336,84702,2,0,B|216:352|216:352|160:240,1,135.000005149842,2|0,0:0|0:0,0:0:0:0:
128,144,85026,1,0,0:0:0:0:
232,64,85188,1,8,0:0:0:0:
280,64,85269,1,0,0:0:0:0:
328,80,85351,1,0,0:0:0:0:
472,248,85513,6,0,P|480:312|424:368,1,135.000005149842,4|0,0:0|0:0,0:0:0:0:
192,288,85837,1,10,0:0:0:0:
168,248,85918,1,0,0:0:0:0:
160,200,85999,1,0,0:0:0:0:
176,152,86080,1,0,0:0:0:0:
208,120,86161,1,2,0:0:0:0:
312,280,86323,5,2,0:0:0:0:
296,304,86405,1,0,0:0:0:0:
280,328,86486,1,8,0:0:0:0:
304,80,86648,1,2,0:0:0:0:
336,72,86729,1,0,0:0:0:0:
368,64,86810,1,0,0:0:0:0:
448,192,86972,1,2,0:0:0:0:
448,224,87053,1,0,0:0:0:0:
440,256,87134,1,8,0:0:0:0:
416,280,87215,1,0,0:0:0:0:
392,296,87296,1,2,0:0:0:0:
352,304,87378,1,0,0:0:0:0:
304,296,87459,5,0,0:0:0:0:
264,272,87540,1,0,0:0:0:0:
232,232,87621,1,0,0:0:0:0:
280,216,87702,1,0,0:0:0:0:
264,168,87783,1,8,0:0:0:0:
224,136,87864,1,0,0:0:0:0:
176,120,87945,1,0,0:0:0:0:
128,128,88026,1,0,0:0:0:0:
88,152,88107,6,0,P|56:200|80:288,1,135.000005149842,4|0,0:0|0:0,0:0:0:0:
368,104,88432,1,10,0:0:0:0:
336,72,88513,1,0,0:0:0:0:
288,56,88594,1,0,0:0:0:0:
264,192,88756,1,2,0:0:0:0:
128,48,88918,1,2,0:0:0:0:
96,64,88999,1,0,0:0:0:0:
72,88,89080,1,8,0:0:0:0:
32,192,89242,6,0,P|16:256|32:304,1,107.999996704102,2|0,0:0|0:0,0:0:0:0:
192,168,89567,2,0,P|160:120|128:104,1,72,2|8,0:0|0:0,0:0:0:0:
320,272,89891,2,0,P|328:344|344:360,1,90,2|0,0:0|0:0,0:0:0:0:
448,128,90215,2,0,B|424:80|424:80|368:48,1,107.999996704102,2|8,0:0|0:0,0:0:0:0:
200,208,90540,1,0,0:0:0:0:
128,96,90702,5,2,0:0:0:0:
128,72,90783,1,0,0:0:0:0:
128,48,90864,1,0,0:0:0:0:
56,160,91026,1,10,0:0:0:0:
56,184,91107,1,0,0:0:0:0:
56,208,91188,1,2,0:0:0:0:
216,192,91351,1,0,0:0:0:0:
232,168,91432,1,0,0:0:0:0:
248,136,91513,1,2,0:0:0:0:
256,104,91594,1,0,0:0:0:0:
256,72,91675,1,10,0:0:0:0:
368,64,91837,1,0,0:0:0:0:
376,72,91918,1,0,0:0:0:0:
384,80,91999,5,2,0:0:0:0:
368,112,92080,1,0,0:0:0:0:
360,152,92161,1,0,0:0:0:0:
368,192,92242,1,0,0:0:0:0:
344,232,92323,1,8,0:0:0:0:
312,256,92404,1,0,0:0:0:0:
296,288,92485,1,0,0:0:0:0:
288,328,92566,1,0,0:0:0:0:
264,296,92648,5,2,0:0:0:0:
232,264,92728,1,0,0:0:0:0:
192,248,92809,1,0,0:0:0:0:
152,248,92890,1,0,0:0:0:0:
176,200,92971,1,8,0:0:0:0:
184,144,93052,1,0,0:0:0:0:
168,88,93133,1,0,0:0:0:0:
200,40,93215,1,0,0:0:0:0:
248,16,93296,6,0,P|296:8|384:40,1,135.000005149842
272,176,93621,1,10,0:0:0:0:
256,192,93702,1,0,0:0:0:0:
240,208,93783,1,0,0:0:0:0:
448,104,93945,1,2,0:0:0:0:
464,136,94026,1,0,0:0:0:0:
472,176,94107,1,2,0:0:0:0:
472,216,94188,1,0,0:0:0:0:
464,256,94269,1,8,0:0:0:0:
224,296,94432,5,2,0:0:0:0:
184,288,94513,1,0,0:0:0:0:
144,288,94594,1,0,0:0:0:0:
112,304,94675,1,0,0:0:0:0:
88,280,94756,1,2,0:0:0:0:
208,120,94918,2,0,B|231:88|231:88|264:88|272:64|272:64|304:56,1,116.999994644165,8|2,0:0|0:0,0:0:0:0:
304,192,95242,1,0,0:0:0:0:
192,24,95405,1,0,0:0:0:0:
432,88,95567,1,8,0:0:0:0:
432,128,95648,1,0,0:0:0:0:
432,168,95729,1,0,0:0:0:0:
432,208,95810,1,0,0:0:0:0:
432,248,95891,6,0,B|424:328|400:344|400:344|368:360,1,135.000005149842
232,272,96215,1,10,0:0:0:0:
248,240,96296,1,0,0:0:0:0:
256,200,96378,1,0,0:0:0:0:
248,160,96459,1,0,0:0:0:0:
224,128,96540,1,2,0:0:0:0:
160,64,96702,1,2,0:0:0:0:
176,56,96783,1,0,0:0:0:0:
192,48,96864,1,8,0:0:0:0:
88,160,97026,5,2,0:0:0:0:
56,152,97107,1,0,0:0:0:0:
24,144,97188,1,0,0:0:0:0:
176,216,97351,5,2,0:0:0:0:
216,208,97432,1,0,0:0:0:0:
256,200,97513,1,8,0:0:0:0:
160,336,97675,1,2,0:0:0:0:
176,336,97756,1,0,0:0:0:0:
192,336,97837,5,0,0:0:0:0:
232,328,97918,1,0,0:0:0:0:
272,312,97999,1,2,0:0:0:0:
296,280,98080,1,0,0:0:0:0:
304,240,98161,1,8,0:0:0:0:
296,192,98242,1,0,0:0:0:0:
264,144,98323,1,0,0:0:0:0:
216,104,98405,1,0,0:0:0:0:
168,88,98486,6,0,P|96:88|56:120,1,107.999996704102,4|0,0:0|0:0,0:0:0:0:
400,112,98810,2,0,P|400:40|368:0,1,107.999996704102,8|0,0:0|0:0,0:0:0:0:
376,320,99134,2,0,P|448:320|488:288,1,107.999996704102
136,256,99459,2,0,P|136:328|168:368,1,107.999996704102,8|0,0:0|0:0,0:0:0:0:
280,120,99783,5,0,0:0:0:0:
424,248,99945,1,0,0:0:0:0:
160,144,100107,2,0,P|128:96|120:32,1,107.999996704102,8|0,0:0|0:0,0:0:0:0:
216,80,100432,1,0,0:0:0:0:
264,320,100594,1,0,0:0:0:0:
352,80,100756,2,0,P|408:32|456:24,1,107.999996704102,8|0,0:0|0:0,0:0:0:0:
184,248,101080,6,0,B|120:248|120:248|72:208,1,107.999996704102
360,208,101405,2,0,P|392:264|392:328,1,107.999996704102,8|0,0:0|0:0,0:0:0:0:
200,144,101729,2,0,P|184:72|208:24,1,107.999996704102
184,296,102053,2,0,P|133:313|81:301,1,107.999996704102,8|0,0:0|0:0,0:0:0:0:
296,72,102378,5,2,0:0:0:0:
320,80,102459,1,0,0:0:0:0:
344,88,102540,1,0,0:0:0:0:
368,96,102621,1,0,0:0:0:0:
392,104,102702,1,8,0:0:0:0:
416,112,102783,1,0,0:0:0:0:
440,120,102864,1,0,0:0:0:0:
464,128,102945,1,0,0:0:0:0:
488,136,103026,5,2,0:0:0:0:
448,160,103107,1,0,0:0:0:0:
416,192,103188,1,0,0:0:0:0:
400,240,103269,1,0,0:0:0:0:
384,288,103351,1,10,0:0:0:0:
344,320,103432,1,0,0:0:0:0:
296,336,103513,1,8,0:0:0:0:
248,336,103594,1,0,0:0:0:0:
200,320,103675,1,2,0:0:0:0:
280,128,104972,5,0,0:0:0:0:
256,192,106269,12,0,108540,0:0:0:0:
256,192,108864,12,0,111134,0:0:0:0:
104,144,111459,6,0,L|88:64,1,67.5000025749208,6|0,0:0|0:0,0:0:0:0:
48,240,111699,2,0,L|32:320,1,67.5000025749208,10|0,0:0|0:0,0:0:0:0:
232,160,111939,1,0,0:0:0:0:
288,240,112059,1,0,0:0:0:0:
152,208,112179,1,8,0:0:0:0:
272,80,112299,1,0,0:0:0:0:
408,176,112419,6,0,L|424:264,1,67.5000025749208,6|0,0:0|0:0,0:0:0:0:
352,96,112659,2,0,L|384:16,1,67.5000025749208,10|0,0:0|0:0,0:0:0:0:
256,144,112899,1,0,0:0:0:0:
144,80,113019,1,0,0:0:0:0:
256,64,113139,1,8,0:0:0:0:
200,192,113259,1,0,0:0:0:0:
88,152,113379,6,0,L|72:72,1,67.5000025749208,6|0,0:0|0:0,0:0:0:0:
128,272,113619,2,0,L|104:352,1,67.5000025749208,10|0,0:0|0:0,0:0:0:0:
256,320,113859,1,0,0:0:0:0:
208,128,113979,1,0,0:0:0:0:
144,256,114099,1,8,0:0:0:0:
344,176,114219,1,0,0:0:0:0:
120,96,114339,6,0,L|144:16,1,67.5000025749208,6|0,0:0|0:0,0:0:0:0:
208,192,114579,2,0,L|232:280,1,67.5000025749208,10|0,0:0|0:0,0:0:0:0:
272,88,114819,1,0,0:0:0:0:
336,168,114939,1,0,0:0:0:0:
192,104,115059,1,8,0:0:0:0:
440,96,115179,1,0,0:0:0:0:
368,280,115299,6,0,L|352:368,1,67.5000025749208,6|0,0:0|0:0,0:0:0:0:
256,240,115539,2,0,L|232:160,1,67.5000025749208,10|0,0:0|0:0,0:0:0:0:
176,328,115779,1,0,0:0:0:0:
112,216,115899,1,0,0:0:0:0:
32,320,116019,1,8,0:0:0:0:
40,112,116139,1,0,0:0:0:0:
224,88,116259,6,0,L|296:48,1,67.5000025749208,6|0,0:0|0:0,0:0:0:0:
152,144,116499,2,0,L|72:152,1,67.5000025749208,10|0,0:0|0:0,0:0:0:0:
304,200,116739,1,0,0:0:0:0:
176,240,116859,1,0,0:0:0:0:
360,280,116979,1,8,0:0:0:0:
400,112,117099,1,0,0:0:0:0:
280,88,117219,6,0,L|192:96,1,67.5000025749208,6|0,0:0|0:0,0:0:0:0:
128,120,117459,2,0,L|216:112,1,67.5000025749208,10|0,0:0|0:0,0:0:0:0:
336,144,117699,2,0,L|248:152,1,67.5000025749208
104,192,117939,2,0,L|192:184,1,67.5000025749208,8|0,0:0|0:0,0:0:0:0:
304,304,118179,2,0,L|328:208,1,67.5000025749208,2|0,0:0|0:0,0:0:0:0:
160,48,118419,2,0,L|136:120,1,67.5000025749208,10|0,0:0|0:0,0:0:0:0:
160,304,118659,2,0,L|136:208,1,67.5000025749208,8|0,0:0|0:0,0:0:0:0:
304,48,118899,2,0,L|328:120,1,67.5000025749208,8|0,0:0|0:0,0:0:0:0:
400,176,119139,5,6,0:0:0:0:
200,192,119259,1,0,0:0:0:0:
248,112,119379,1,10,0:0:0:0:
264,272,119499,1,0,0:0:0:0:
48,200,119619,1,0,0:0:0:0:
144,280,119739,1,0,0:0:0:0:
128,120,119859,2,0,L|176:56,1,67.5000025749208,8|0,0:0|0:0,0:0:0:0:
344,136,120099,5,6,0:0:0:0:
264,144,120219,1,0,0:0:0:0:
296,64,120339,1,10,0:0:0:0:
176,200,120459,1,0,0:0:0:0:
416,224,120579,1,0,0:0:0:0:
392,64,120699,1,0,0:0:0:0:
312,200,120819,2,0,L|304:288,1,67.5000025749208,8|0,0:0|0:0,0:0:0:0:
184,288,121059,5,6,0:0:0:0:
72,304,121179,1,0,0:0:0:0:
224,192,121299,1,10,0:0:0:0:
272,320,121419,1,0,0:0:0:0:
112,224,121539,1,0,0:0:0:0:
168,120,121659,1,0,0:0:0:0:
296,120,121779,2,0,L|368:176,1,67.5000025749208,8|0,0:0|0:0,0:0:0:0:
208,200,122019,6,0,L|128:176,1,67.5000025749208,2|0,0:0|0:0,0:0:0:0:
272,264,122259,2,0,L|368:240,1,67.5000025749208,10|0,0:0|0:0,0:0:0:0:
232,336,122499,2,0,L|176:272,1,67.5000025749208
416,288,122739,2,0,L|368:336,1,67.5000025749208,8|0,0:0|0:0,0:0:0:0:
424,184,122979,5,6,0:0:0:0:
256,136,123099,1,0,0:0:0:0:
336,80,123219,1,10,0:0:0:0:
344,176,123339,1,0,0:0:0:0:
184,264,123459,1,0,0:0:0:0:
232,184,123579,1,0,0:0:0:0:
280,272,123699,2,0,L|256:344,1,67.5000025749208,8|0,0:0|0:0,0:0:0:0:
96,336,123939,5,6,0:0:0:0:
184,168,124059,1,0,0:0:0:0:
72,208,124179,1,10,0:0:0:0:
112,120,124299,1,0,0:0:0:0:
280,168,124419,1,0,0:0:0:0:
152,240,124539,1,0,0:0:0:0:
216,104,124659,2,0,L|272:48,1,67.5000025749208,8|0,0:0|0:0,0:0:0:0:
408,120,124899,6,0,L|424:80,3,33.7500012874604,2|0|0|0,0:0|0:0|0:0|0:0,0:0:0:0:
352,224,125139,2,0,L|376:280,3,33.7500012874604,8|0|0|0,0:0|0:0|0:0|0:0,0:0:0:0:
288,128,125379,2,0,L|312:80,3,33.7500012874604,2|0|0|0,0:0|0:0|0:0|0:0,0:0:0:0:
216,240,125619,2,0,L|240:296,3,33.7500012874604,8|0|0|0,0:0|0:0|0:0|0:0,0:0:0:0:
128,176,125859,1,2,0:0:0:0:
120,160,125919,1,0,0:0:0:0:
120,144,125979,1,2,0:0:0:0:
128,128,126039,1,0,0:0:0:0:
144,120,126099,2,0,L|192:96,3,33.7500012874604,8|0|0|0,0:0|0:0|0:0|0:0,0:0:0:0:
40,184,126339,1,2,0:0:0:0:
32,200,126399,1,0,0:0:0:0:
32,216,126459,1,2,0:0:0:0:
40,232,126519,1,0,0:0:0:0:
56,240,126579,2,0,L|104:264,3,33.7500012874604,8|0|0|0,0:0|0:0|0:0|0:0,0:0:0:0:
120,264,126819,6,0,B|158:258|158:258|190:242|190:242|248:232,1,99.0000030212403,6|0,0:0|0:0,0:0:0:0:
280,312,127059,1,0,0:0:0:0:
224,96,127179,2,0,B|192:82|192:82|160:80|160:80|112:64,1,99.0000030212403,2|0,0:0|0:0,0:0:0:0:
40,128,127419,1,2,0:0:0:0:
288,168,127539,2,0,P|312:112|304:40,1,99.0000030212403,2|0,0:0|0:0,0:0:0:0:
80,280,127779,6,0,P|112:328|176:352,1,99.0000030212403,6|0,0:0|0:0,0:0:0:0:
304,272,128019,1,0,0:0:0:0:
272,112,128139,2,0,B|248:160|248:160|248:208,1,99.0000030212403,2|0,0:0|0:0,0:0:0:0:
392,248,128379,1,2,0:0:0:0:
160,208,128499,1,2,0:0:0:0:
336,56,128619,1,0,0:0:0:0:
168,40,128739,6,0,P|120:56|80:112,1,99.0000030212403,6|0,0:0|0:0,0:0:0:0:
48,168,128979,1,0,0:0:0:0:
328,104,129099,2,0,P|376:120|416:176,1,99.0000030212403,2|0,0:0|0:0,0:0:0:0:
448,232,129339,1,2,0:0:0:0:
312,184,129459,1,2,0:0:0:0:
424,64,129579,1,0,0:0:0:0:
360,248,129699,6,0,B|368:320|368:320|400:280,1,99.0000030212403,4|0,0:0|0:0,0:0:0:0:
272,128,129939,2,0,B|264:48|264:48|305:89,1,107.999996704102
200,272,130179,2,0,B|208:360|208:360|240:304,1,116.999994644165
96,144,130419,2,0,B|88:48|88:48|56:112,1,125.999996154785
96,240,130659,5,6,0:0:0:0:
288,144,130779,1,2,0:0:0:0:
192,120,130899,1,0,0:0:0:0:
288,224,131019,1,0,0:0:0:0:
376,96,131139,1,2,0:0:0:0:
288,144,131259,1,2,0:0:0:0:
432,184,131379,1,0,0:0:0:0:
448,56,131499,1,0,0:0:0:0:
232,64,131619,6,0,L|152:104,1,67.5000025749208,4|0,0:0|0:0,0:0:0:0:
128,200,131859,1,0,0:0:0:0:
272,208,131979,1,0,0:0:0:0:
176,336,132099,1,0,0:0:0:0:
376,328,132219,1,0,0:0:0:0:
264,296,132339,1,0,0:0:0:0:
392,200,132459,1,0,0:0:0:0:
192,144,132579,6,2,L|104:136,1,67.5000025749208,6|2,0:0|0:0,0:0:0:0:
296,104,132819,1,0,0:0:0:0:
296,216,132939,1,0,0:0:0:0:
152,224,133059,1,0,0:0:0:0:
216,64,133179,1,0,0:0:0:0:
344,256,133299,1,0,0:0:0:0:
152,224,133419,1,0,0:0:0:0:
208,120,133539,6,0,B|230:97|230:97|264:96|264:96|280:72|328:80,1,121.500000463486,6|0,0:0|0:0,0:0:0:0:
432,152,133779,1,0,0:0:0:0:
344,256,133899,1,2,0:0:0:0:
360,56,134019,1,0,0:0:0:0:
472,288,134139,1,2,0:0:0:0:
272,96,134259,2,0,P|312:144|320:176,1,90,2|0,0:0|0:0,0:0:0:0:
208,168,134499,5,2,0:0:0:0:
224,128,134559,1,0,0:0:0:0:
256,96,134619,1,0,0:0:0:0:
296,80,134679,1,0,0:0:0:0:
336,80,134739,2,0,L|408:96,3,60.7500002317429,2|0|0|0,0:0|0:0|0:0|0:0,0:0:0:0:
408,168,134979,2,0,L|488:136,7,60.7500002317429,2|0|0|0|0|0|0|0,0:0|0:0|0:0|0:0|0:0|0:0|0:0|0:0,0:0:0:0:
344,240,135459,5,2,0:0:0:0:
304,264,135519,1,0,0:0:0:0:
256,280,135579,1,0,0:0:0:0:
208,288,135639,1,0,0:0:0:0:
160,288,135699,2,0,L|88:272,3,60.7500002317429,2|0|0|0,0:0|0:0|0:0|0:0,0:0:0:0:
80,192,135939,2,0,L|0:208,6,60.7500002317429,2|0|0|0|0|0|0,0:0|0:0|0:0|0:0|0:0|0:0|0:0,0:0:0:0:
8,96,136419,5,0,0:0:0:0:
24,104,136479,1,0,0:0:0:0:
40,112,136539,1,0,0:0:0:0:
56,120,136599,1,0,0:0:0:0:
72,128,136659,1,0,0:0:0:0:
88,136,136719,1,0,0:0:0:0:
104,144,136779,1,0,0:0:0:0:
120,152,136839,1,0,0:0:0:0:
136,160,136899,6,0,L|208:128,1,60.7500002317429,2|0,0:0|0:0,0:0:0:0:
224,200,137019,2,0,L|288:224,1,60.7500002317429,2|0,0:0|0:0,0:0:0:0:
312,144,137139,2,0,L|376:128,1,60.7500002317429,2|0,0:0|0:0,0:0:0:0:
368,216,137259,2,0,L|336:296,1,60.7500002317429,2|0,0:0|0:0,0:0:0:0:
312,344,137379,2,0,L|256:304,1,60.7500002317429,2|0,0:0|0:0,0:0:0:0:
200,264,137499,2,0,L|120:312,1,60.7500002317429,2|0,0:0|0:0,0:0:0:0:
88,352,137619,2,0,L|24:312,1,60.7500002317429,2|0,0:0|0:0,0:0:0:0:
96,232,137739,2,0,L|144:176,1,60.7500002317429,2|0,0:0|0:0,0:0:0:0:
48,144,137859,2,0,L|24:72,1,60.7500002317429,2|0,0:0|0:0,0:0:0:0:
155,25,137979,2,0,L|128:80,1,60.7500002317429,2|0,0:0|0:0,0:0:0:0:
240,144,138099,2,0,L|216:72,1,60.7500002317429,2|0,0:0|0:0,0:0:0:0:
333,23,138219,2,0,L|312:80,1,60.7500002317429,2|0,0:0|0:0,0:0:0:0:
384,136,138339,5,14,0:0:0:0:
