osu file format v14

[General]
AudioFilename: audio.mp3
AudioLeadIn: 0
PreviewTime: 135388
Countdown: 1
SampleSet: Normal
StackLeniency: 0.6
Mode: 0
LetterboxInBreaks: 0
WidescreenStoryboard: 0

[Editor]
Bookmarks: 135388
DistanceSpacing: 0.5
BeatDivisor: 4
GridSize: 8
TimelineZoom: 3.099999

[Metadata]
Title:Poltergeist
TitleUnicode:Poltergeist
Artist:Zatox & Nikkita
ArtistUnicode:Zatox & Nikkita
Creator:Recu
Version:Haha
Source:a
Tags:Poltergeist, Zatox, Nikkita, Hardstyle
BeatmapID:966971
BeatmapSetID:450739

[Difficulty]
HPDrainRate:7
CircleSize:4.2
OverallDifficulty:7
ApproachRate:9
SliderMultiplier:1.6
SliderTickRate:2

[Events]
//Background and Video events
0,0,"BG Darkness.jpg",0,0
//Break Periods
2,57188,69188
2,106788,121988
//Storyboard Layer 0 (Background)
//Storyboard Layer 1 (Fail)
//Storyboard Layer 2 (Pass)
//Storyboard Layer 3 (Foreground)
//Storyboard Sound Samples

[TimingPoints]
12188.7606541998,400,4,1,0,100,1,0
135388,-100,4,1,0,100,0,1
160988,-100,4,1,0,100,0,0

[HitObjects]
256,192,18588,12,0,23388,0:0:0:0:
184,104,23788,6,0,P|128:152|96:240,1,160
257,235,24588,2,0,B|303:250|303:250|303:266|303:266|318:266|318:266|319:278|319:278|333:278|333:278|332:288|332:288|346:287|346:287|346:299|346:299|358:299|358:299|357:309|357:309|366:309|366:309,1,160
387,98,25388,6,0,P|319:114|248:168,1,160
130,272,26188,2,0,P|141:195|192:120,1,160
184,280,26988,2,0,P|259:329|336:328,1,160
352,166,27788,2,0,P|277:195|192:184,1,160
86,69,28588,1,0,0:0:0:0:
100,87,28788,1,0,0:0:0:0:
339,74,28988,1,0,0:0:0:0:
323,92,29188,1,0,0:0:0:0:
170,281,29388,1,0,0:0:0:0:
190,267,29588,1,0,0:0:0:0:
428,215,29788,1,0,0:0:0:0:
428,215,29988,1,0,0:0:0:0:
428,215,30188,1,0,0:0:0:0:
428,215,30388,1,0,0:0:0:0:
255,204,30588,2,0,P|214:175|194:148,1,80
160,213,30988,2,0,B|133:226|121:229|121:229|118:233|118:233|113:235|113:235|113:238|113:238|109:240|109:240|109:243|109:243|104:244|104:244|104:249|104:249|99:249|99:249|99:255|99:255|95:259|95:259,1,80
302,45,31388,6,0,P|383:64|443:114,1,160
255,289,32188,2,0,P|198:242|164:233,1,80
232,201,32588,2,0,P|228:155|237:120,1,80
61,130,32988,6,0,P|37:203|43:291,1,160
255,218,33788,2,0,P|263:260|283:297,1,80
160,336,34188,1,0,0:0:0:0:
160,336,34388,1,8,0:0:0:0:
358,83,34588,2,0,P|408:169|428:238,1,160,8|0,0:0|0:0,0:0:0:0:
285,282,35188,2,0,P|284:245|286:191,1,80
240,234,35588,2,0,P|240:193|257:154,1,80
195,187,35988,2,0,P|202:138|201:105,1,80
145,100,36388,2,0,P|113:66|75:48,1,80
77,110,36788,6,0,P|65:151|67:189,1,80
112,160,37188,2,0,P|121:207|132:229,1,40,0|8,0:0|0:0,0:0:0:0:
377,328,37588,1,8,0:0:0:0:
377,328,37788,1,8,0:0:0:0:
326,197,37988,2,0,P|292:169|256:159,1,80
303,125,38388,2,0,P|296:83|312:48,1,80
243,84,38788,2,0,P|205:66|163:66,1,80
194,115,39188,2,0,P|148:108|113:79,1,80
126,130,39588,2,0,P|85:145|63:180,1,80
105,186,39988,6,0,P|97:229|101:266,1,80
145,231,40388,2,0,P|165:269|197:297,1,80
429,258,40788,1,8,0:0:0:0:
429,258,40988,1,8,0:0:0:0:
382,214,41188,2,0,P|377:173|392:137,1,80
326,177,41588,2,0,P|328:130|348:95,1,80
269,136,41988,2,0,P|271:91|293:56,1,80
144,232,42388,1,0,0:0:0:0:
204,84,42588,5,0,0:0:0:0:
211,72,42638,1,0,0:0:0:0:
220,62,42688,1,0,0:0:0:0:
228,56,42738,1,0,0:0:0:0:
237,52,42788,1,0,0:0:0:0:
329,39,42988,5,0,0:0:0:0:
338,39,43038,1,0,0:0:0:0:
347,40,43088,1,0,0:0:0:0:
356,43,43138,1,0,0:0:0:0:
365,47,43188,1,0,0:0:0:0:
371,54,43238,1,0,0:0:0:0:
256,192,43388,12,0,43988,0:0:0:0:
216,49,44188,6,0,P|304:86|351:133,1,160
211,95,44988,2,0,P|141:120|86:183,1,160
220,258,45588,1,0,0:0:0:0:
220,258,45688,1,0,0:0:0:0:
220,258,45788,1,0,0:0:0:0:
309,280,45988,2,0,P|348:271|382:248,1,80
379,295,46388,2,0,P|423:316|450:342,1,80
421,127,46788,1,0,0:0:0:0:
405,144,46988,5,0,0:0:0:0:
88,285,47188,1,0,0:0:0:0:
168,63,47388,1,0,0:0:0:0:
301,235,47788,1,0,0:0:0:0:
345,184,48188,1,0,0:0:0:0:
385,124,48588,1,0,0:0:0:0:
426,71,48988,1,0,0:0:0:0:
385,124,49388,1,0,0:0:0:0:
344,68,49588,6,0,B|302:63|302:63|290:73|290:73|276:64|276:64|263:72|263:72|251:64|251:64|236:72|236:72|226:65|226:65|213:72|213:72|204:66|204:66|190:72|190:72|178:65|178:65|166:72|166:72|156:64|156:64|140:70|140:70|130:64|130:64|171:222,1,400
106,330,50788,1,0,0:0:0:0:
129,332,50988,5,0,0:0:0:0:
250,194,51188,1,0,0:0:0:0:
202,51,51388,1,0,0:0:0:0:
192,64,51588,5,0,0:0:0:0:
250,194,51788,1,0,0:0:0:0:
375,301,51988,1,0,0:0:0:0:
389,281,52188,5,0,0:0:0:0:
250,194,52388,1,0,0:0:0:0:
423,54,52588,1,0,0:0:0:0:
406,71,52788,5,0,0:0:0:0:
389,88,52988,5,0,0:0:0:0:
312,157,53188,2,0,P|294:204|291:239,1,80
255,197,53588,2,0,P|214:215|169:222,1,80
110,78,53988,1,0,0:0:0:0:
110,102,54188,5,0,0:0:0:0:
217,108,54388,1,0,0:0:0:0:
216,84,54588,5,0,0:0:0:0:
328,79,54788,1,0,0:0:0:0:
328,102,54988,5,0,0:0:0:0:
434,133,55188,2,0,P|422:178|401:208,1,80
224,271,55688,1,0,0:0:0:0:
95,254,55988,5,0,0:0:0:0:
81,237,56038,1,0,0:0:0:0:
71,217,56088,1,0,0:0:0:0:
66,193,56138,1,0,0:0:0:0:
63,172,56188,1,0,0:0:0:0:
160,72,56288,5,0,0:0:0:0:
280,144,56388,2,0,P|264:192|232:224,1,80
152,288,56788,1,0,0:0:0:0:
416,64,56988,1,0,0:0:0:0:
71,134,69788,5,0,0:0:0:0:
123,203,70188,1,0,0:0:0:0:
182,260,70588,2,0,P|213:272|263:271,1,80
271,209,70988,6,0,P|231:201|186:205,1,80,0|8,0:0|0:0,0:0:0:0:
163,324,71388,2,0,B|204:232|195:73|195:73|184:57|325:77|343:117|343:117|325:159|135:190,1,640
55,58,73388,1,8,0:0:0:0:
55,183,73788,2,0,P|56:232|64:272,1,80
165,318,74388,5,8,0:0:0:0:
95,315,74588,2,0,B|217:98|228:88|228:88|239:98|329:302|325:311|325:311|310:311|213:227,1,640
435,51,76588,5,8,0:0:0:0:
432,56,76988,2,0,P|453:109|453:149,1,80
82,111,77588,1,8,0:0:0:0:
231,321,77788,2,0,B|254:241|239:132|237:124|237:124|132:120|104:112|104:112|128:106|253:19|400:121,1,640
463,348,79788,6,0,P|448:304|424:280,1,80
215,122,80388,1,8,0:0:0:0:
183,142,80788,2,0,P|159:177|146:217,1,80
90,285,81388,6,0,P|79:247|48:212,1,80
99,217,81788,2,0,P|113:177|133:144,1,80
82,151,82188,2,0,P|74:108|47:75,1,80
112,55,82588,5,0,0:0:0:0:
112,55,82788,1,0,0:0:0:0:
112,55,82988,5,0,0:0:0:0:
184,59,83188,2,0,B|221:43|255:18|256:18,1,80
252,69,83588,2,0,P|286:80|323:107,1,80
336,66,83988,2,0,B|452:69|392:167,1,160
332,197,84588,6,0,P|290:210|252:204,1,80
277,228,84988,2,0,P|252:262|238:300,1,80
209,263,85388,2,0,P|172:279|132:269,1,80
121,329,85788,1,0,0:0:0:0:
100,316,85988,1,0,0:0:0:0:
82,299,86188,5,0,0:0:0:0:
36,188,86388,2,0,B|61:132|100:100|154:79,1,160
250,66,87188,1,0,0:0:0:0:
255,66,87238,1,0,0:0:0:0:
260,66,87288,1,0,0:0:0:0:
265,66,87338,1,0,0:0:0:0:
270,66,87388,5,0,0:0:0:0:
400,144,87788,2,0,B|416:208|384:240|400:296,1,120
408,304,88188,2,0,B|336:304|288:336|232:320,1,160
254,318,88988,5,0,0:0:0:0:
241,248,89188,2,0,P|230:207|201:176,1,80
123,140,89788,2,0,B|145:101|193:66|232:56|232:56|248:40,1,160
407,73,90988,1,0,0:0:0:0:
383,105,91188,5,0,0:0:0:0:
130,104,91388,1,0,0:0:0:0:
159,129,91588,5,0,0:0:0:0:
388,315,91788,1,0,0:0:0:0:
358,288,91988,5,0,0:0:0:0:
130,317,92188,1,0,0:0:0:0:
154,285,92388,5,0,0:0:0:0:
216,192,92588,2,0,P|246:174|229:198,1,80
256,192,92988,12,8,93788,0:0:0:0:
116,74,94188,6,0,P|112:106|90:154,1,80
127,171,94588,2,0,P|135:213|159:250,1,80,8|0,0:0|0:0,0:0:0:0:
119,284,94988,2,0,B|117:328|101:364|102:364,1,80
227,344,95388,1,8,0:0:0:0:
227,344,95588,1,0,0:0:0:0:
227,344,95788,5,8,0:0:0:0:
427,135,96188,1,8,0:0:0:0:
61,248,96588,1,0,0:0:0:0:
184,67,96788,1,8,0:0:0:0:
201,102,96988,5,8,0:0:0:0:
290,298,97388,2,0,B|249:327|198:320|166:304|166:304|132:328,1,160,0|8,0:0|0:0,0:0:0:0:
143,324,98188,6,0,B|123:268|94:233|70:217|70:217|81:176,1,160,0|8,0:0|0:0,0:0:0:0:
114,54,98988,1,8,0:0:0:0:
130,65,99088,1,0,0:0:0:0:
144,78,99188,5,0,0:0:0:0:
239,307,99388,1,8,0:0:0:0:
240,287,99488,1,0,0:0:0:0:
240,267,99588,5,0,0:0:0:0:
346,113,99788,1,0,0:0:0:0:
346,113,99988,1,8,0:0:0:0:
346,113,100188,5,12,0:0:0:0:
66,167,100588,2,0,P|69:231|86:251,1,80
113,208,100988,2,0,P|131:249|129:289,1,80,8|0,0:0|0:0,0:0:0:0:
79,313,101388,2,0,P|127:338|159:338,1,80
194,293,101788,2,0,P|194:250|181:213,1,80,8|0,0:0|0:0,0:0:0:0:
142,173,102188,2,0,P|128:225|140:259,1,80,8|0,0:0|0:0,0:0:0:0:
187,228,102588,6,0,P|188:272|165:304,1,80,8|0,0:0|0:0,0:0:0:0:
114,298,102988,2,0,P|86:262|90:212,1,80,0|8,0:0|0:0,0:0:0:0:
84,228,103388,1,12,0:0:0:0:
205,72,103788,1,0,0:0:0:0:
185,72,103888,1,0,0:0:0:0:
165,72,103988,5,0,0:0:0:0:
236,180,104188,1,8,0:0:0:0:
255,180,104288,1,0,0:0:0:0:
274,181,104388,5,0,0:0:0:0:
160,307,104588,1,0,0:0:0:0:
140,308,104688,1,0,0:0:0:0:
120,304,104788,5,0,0:0:0:0:
315,297,104988,2,0,P|366:268|372:245,1,80,8|0,0:0|0:0,0:0:0:0:
371,250,105388,1,8,0:0:0:0:
371,250,105588,5,0,0:0:0:0:
368,168,105788,2,0,B|344:72|264:40|208:72|200:144|240:192|304:208|328:176|304:120|272:104|272:104,1,320
198,191,122588,5,0,0:0:0:0:
198,191,122988,5,0,0:0:0:0:
198,191,123388,5,0,0:0:0:0:
198,191,123788,5,0,0:0:0:0:
198,191,124188,1,0,0:0:0:0:
403,112,124388,1,0,0:0:0:0:
262,121,124588,2,0,P|303:142|337:173,1,80
356,193,124988,2,0,P|375:236|370:274,1,80
354,303,125388,2,0,B|317:333|275:354,1,80
198,191,126188,5,0,0:0:0:0:
198,191,126588,5,0,0:0:0:0:
198,191,126988,5,0,0:0:0:0:
80,67,127388,1,0,0:0:0:0:
80,77,127438,1,0,0:0:0:0:
99,249,127588,1,0,0:0:0:0:
108,252,127638,1,0,0:0:0:0:
343,252,127788,1,0,0:0:0:0:
354,243,127838,6,0,P|338:207|344:104,1,140
82,307,128988,1,0,0:0:0:0:
411,58,129388,2,0,P|369:78|336:86,1,80
370,129,129788,2,0,P|341:158|325:197,1,80
198,191,130188,1,0,0:0:0:0:
118,189,130588,6,0,P|108:175|101:191,1,40
118,133,130788,6,0,P|108:119|101:135,1,40
119,77,130988,6,0,P|109:63|102:79,1,40
258,119,131388,1,0,0:0:0:0:
173,318,131788,1,0,0:0:0:0:
334,205,132188,2,0,P|253:178|166:186,1,160
322,329,132988,1,0,0:0:0:0:
254,133,133388,1,0,0:0:0:0:
98,121,133788,1,0,0:0:0:0:
235,74,133988,5,0,0:0:0:0:
383,46,134188,5,0,0:0:0:0:
120,304,134588,2,0,B|128:288|128:288|144:288|144:288|144:272|144:272|160:272|160:272|160:256|160:256|176:256|176:256|176:240|176:240|192:240|192:240|192:224|192:224|208:224|208:224|208:208|208:208|224:208|224:208|224:192|224:192|240:192|240:192|248:176|248:176,1,240
400,112,135388,1,0,0:0:0:0:
200,312,135588,1,0,0:0:0:0:
312,56,135788,1,0,0:0:0:0:
136,272,135988,1,0,0:0:0:0:
240,16,136188,1,0,0:0:0:0:
72,240,136388,1,0,0:0:0:0:
312,88,136588,1,0,0:0:0:0:
48,168,136788,5,0,0:0:0:0:
328,176,136988,1,0,0:0:0:0:
64,80,137188,1,0,0:0:0:0:
280,256,137388,1,0,0:0:0:0:
136,16,137588,1,0,0:0:0:0:
192,288,137788,1,0,0:0:0:0:
152,118,137988,2,0,L|184:104,1,20
198,183,138188,2,0,L|168:200,1,20
288,248,138388,1,0,0:0:0:0:
304,88,138588,5,0,0:0:0:0:
368,231,138788,1,0,0:0:0:0:
240,128,138988,1,0,0:0:0:0:
392,160,139188,1,0,0:0:0:0:
240,200,139388,1,0,0:0:0:0:
360,96,139588,1,0,0:0:0:0:
296,240,139788,1,0,0:0:0:0:
288,80,139988,1,0,0:0:0:0:
360,224,140188,1,0,0:0:0:0:
240,120,140388,5,0,0:0:0:0:
392,168,140588,1,0,0:0:0:0:
232,176,140788,1,0,0:0:0:0:
190,316,140988,1,0,0:0:0:0:
286,318,141188,1,0,0:0:0:0:
136,84,141388,1,0,0:0:0:0:
136,84,141438,1,0,0:0:0:0:
333,229,141588,1,0,0:0:0:0:
333,229,141638,1,0,0:0:0:0:
455,37,141788,5,0,0:0:0:0:
456,40,141888,2,0,P|416:40|392:56,1,40
66,89,142188,1,0,0:0:0:0:
94,222,142388,1,0,0:0:0:0:
159,77,142588,1,0,0:0:0:0:
30,159,142788,1,0,0:0:0:0:
188,205,142988,1,0,0:0:0:0:
362,248,143188,1,0,0:0:0:0:
300,297,143388,6,0,P|265:272|261:261,1,40
232,322,143588,2,0,P|208:302|203:288,1,40
162,339,143788,2,0,P|146:316|142:294,1,40
93,349,143988,2,0,P|79:322|81:298,1,40
21,311,144188,6,0,P|37:278|49:269,1,40
16,224,144388,2,0,P|39:218|63:224,1,40
72,153,144588,2,0,P|100:173|111:191,1,40
156,134,144788,2,0,P|170:166|165:187,1,40
150,209,144988,6,0,P|98:252|161:282,1,160
331,213,145788,1,0,0:0:0:0:
167,134,146188,1,0,0:0:0:0:
268,73,146588,1,0,0:0:0:0:
268,73,146788,1,0,0:0:0:0:
268,73,146988,5,0,0:0:0:0:
256,192,147288,12,0,147988,0:0:0:0:
101,67,148188,5,0,0:0:0:0:
85,145,148388,1,0,0:0:0:0:
94,224,148588,1,0,0:0:0:0:
134,293,148788,1,0,0:0:0:0:
200,338,148988,5,0,0:0:0:0:
120,344,149188,1,0,0:0:0:0:
40,347,149388,5,0,0:0:0:0:
63,270,149588,1,0,0:0:0:0:
117,211,149788,5,0,0:0:0:0:
51,165,149988,5,0,0:0:0:0:
100,101,150188,5,0,0:0:0:0:
176,123,150388,1,0,0:0:0:0:
251,149,150588,5,0,0:0:0:0:
227,225,150788,1,0,0:0:0:0:
200,304,150988,6,0,L|192:328,1,20
280,328,151188,2,0,L|272:352,1,20
357,315,151388,1,0,0:0:0:0:
422,269,151588,1,0,0:0:0:0:
457,197,151788,5,0,0:0:0:0:
391,150,151988,1,0,0:0:0:0:
334,93,152188,5,0,0:0:0:0:
271,142,152388,1,0,0:0:0:0:
200,180,152588,5,0,0:0:0:0:
154,115,152788,1,0,0:0:0:0:
109,49,152988,5,0,0:0:0:0:
48,100,153188,5,0,0:0:0:0:
83,171,153388,5,0,0:0:0:0:
148,123,153588,1,0,0:0:0:0:
211,73,153788,6,0,P|237:69|248:64,1,20
233,97,153888,2,0,P|259:93|267:88,1,20
255,121,153988,2,0,P|281:117|292:112,1,20
275,143,154088,2,0,P|301:139|309:136,1,20
297,168,154188,2,0,P|323:164|331:161,1,20
315,191,154288,2,0,P|341:187|351:184,1,20
340,218,154388,2,0,P|366:214|374:209,1,20
261,309,154588,6,0,B|188:326|143:316|97:299,1,160
221,199,155188,1,0,0:0:0:0:
55,171,155388,2,0,B|92:84|152:43|150:43,1,160
221,199,155988,1,0,0:0:0:0:
299,56,156188,2,0,P|346:84|385:86,1,80
351,126,156588,2,0,P|367:157|370:204,1,80
416,178,156988,2,0,P|439:219|465:248,1,80
394,251,157388,2,0,P|408:302|401:333,1,80
248,288,157788,5,0,0:0:0:0:
241,305,157838,1,0,0:0:0:0:
120,262,158188,1,0,0:0:0:0:
111,280,158238,1,0,0:0:0:0:
55,170,158588,1,0,0:0:0:0:
45,185,158638,1,0,0:0:0:0:
34,204,158688,1,0,0:0:0:0:
120,145,158988,5,0,0:0:0:0:
196,113,159188,1,0,0:0:0:0:
205,112,159238,1,0,0:0:0:0:
214,113,159288,1,0,0:0:0:0:
223,114,159338,1,0,0:0:0:0:
336,131,159688,5,0,0:0:0:0:
344,136,159738,1,0,0:0:0:0:
352,141,159788,1,0,0:0:0:0:
359,147,159838,1,0,0:0:0:0:
366,153,159888,1,0,0:0:0:0:
373,159,159938,1,0,0:0:0:0:
440,200,160138,5,0,0:0:0:0:
445,208,160188,1,0,0:0:0:0:
450,216,160238,1,0,0:0:0:0:
454,224,160288,1,0,0:0:0:0:
458,233,160338,1,0,0:0:0:0:
461,242,160388,1,0,0:0:0:0:
400,296,160588,5,0,0:0:0:0:
401,305,160638,1,0,0:0:0:0:
402,314,160688,1,0,0:0:0:0:
402,323,160738,1,0,0:0:0:0:
402,332,160788,1,0,0:0:0:0:
401,341,160838,1,0,0:0:0:0:
384,384,160988,1,4,0:0:0:0:
182,300,161388,6,0,P|126:263|94:175,2,160,0|8|0,0:0|0:0|0:0,0:0:0:0:
337,258,162588,6,0,P|346:225|334:177,1,80,8|0,0:0|0:0,0:0:0:0:
397,177,162988,2,0,P|422:135|448:120,1,80,8|0,0:0|0:0,0:0:0:0:
416,48,163388,2,0,B|403:62|342:78|304:163,1,160,8|0,0:0|0:0,0:0:0:0:
243,53,163988,2,8,P|202:71|179:106,1,80
349,215,164588,6,0,B|302:253|269:310|262:347,1,160,0|8,0:0|0:0,0:0:0:0:
79,273,165388,2,0,P|48:189|72:115,1,160,0|8,0:0|0:0,0:0:0:0:
76,98,165988,5,0,0:0:0:0:
184,73,166188,2,0,P|237:68|259:55,1,80,8|0,0:0|0:0,0:0:0:0:
268,113,166588,2,0,P|302:136|327:173,1,80,0|8,0:0|0:0,0:0:0:0:
293,289,167188,2,12,P|330:299|327:267,1,80
179,70,167788,6,0,P|136:104|206:101,1,160,0|8,0:0|0:0,0:0:0:0:
430,62,168588,1,0,0:0:0:0:
83,303,168988,2,0,P|104:254|130:241,1,80,8|0,0:0|0:0,0:0:0:0:
161,280,169388,2,8,P|200:246|217:144,1,160
350,310,170188,2,0,P|386:311|372:279,2,80,0|8|8,0:0|0:0|0:0,0:0:0:0:
261,45,170988,6,0,P|154:78|121:122,1,160,0|8,0:0|0:0,0:0:0:0:
219,134,171788,1,0,0:0:0:0:
120,312,172188,2,2,B|144:280|144:280|152:288|152:288|152:264|152:264|160:272|160:272|160:248|160:248|168:256|168:256|168:232|168:232|176:240|176:240|176:216|176:216|184:224|184:224|184:200|184:200|192:208|192:208|328:224|344:208|344:208|336:168|240:144|216:120|216:120|224:96|248:80|312:80,1,640,0|4,0:0|0:0,0:0:0:0:
