osu file format v14

[General]
AudioFilename: audio.mp3
AudioLeadIn: 0
PreviewTime: 89600
Countdown: 0
SampleSet: Soft
StackLeniency: 0.7
Mode: 0
LetterboxInBreaks: 0
WidescreenStoryboard: 1

[Editor]
DistanceSpacing: 0.8
BeatDivisor: 4
GridSize: 32
TimelineZoom: 0.5999999

[Metadata]
Title:Never Forget You (MitiS Remix)
TitleUnicode:Never Forget You (MitiS Remix)
Artist:Zara Larsson
ArtistUnicode:Zara Larsson
Creator:Leader
Version:Normal
Source:
Tags:so good dnb pop gabe veus
BeatmapID:1892495
BeatmapSetID:450517

[Difficulty]
HPDrainRate:4
CircleSize:3.5
OverallDifficulty:4
ApproachRate:5
SliderMultiplier:1.3
SliderTickRate:1

[Events]
//Background and Video events
0,0,"Konachan.jpg",0,0
//Break Periods
2,62400,75600
2,141000,152400
//Storyboard Layer 0 (Background)
//Storyboard Layer 1 (Fail)
//Storyboard Layer 2 (Pass)
//Storyboard Layer 3 (Foreground)
//Storyboard Sound Samples

[TimingPoints]
0,400,4,2,0,60,1,0
89600,-100,4,2,0,60,0,1
102400,-100,4,2,0,40,0,0
103200,-100,4,2,0,60,0,1
114800,-100,4,2,0,60,0,1
115200,-100,4,2,0,40,0,0
116000,-100,4,2,0,60,0,1
128000,-100,4,2,0,40,0,0
128800,-100,4,2,0,60,0,1
140800,-100,4,2,0,60,0,0
153600,-100,4,2,0,60,0,0
166400,-100,4,2,0,40,0,0
167200,-100,4,2,0,60,0,1
179200,-100,4,2,0,40,0,0
180000,-100,4,2,0,60,0,1
192000,-100,4,2,0,60,0,0

[Colours]
Combo1 : 17,254,176
Combo2 : 173,255,95
Combo3 : 255,88,100
Combo4 : 255,94,55

[HitObjects]
52,241,38400,6,0,P|112:242|183:290,1,130,4|2,0:3|0:0,0:0:0:0:
235,358,39200,1,0,1:0:0:0:
333,325,39600,1,8,3:0:0:0:
432,291,40000,2,0,L|442:140,1,130,0|2,0:0|0:0,0:0:0:0:
448,57,40800,1,0,1:0:0:0:
359,110,41200,1,8,3:0:0:0:
261,149,41600,6,0,P|187:136|139:95,1,130,0|0,0:0|0:0,0:0:0:0:
78,22,42400,1,0,1:0:0:0:
22,109,42800,1,2,0:0:0:0:
79,195,43200,2,0,L|94:332,1,130,0|2,0:0|0:0,0:0:0:0:
190,359,44000,1,8,3:0:0:0:
283,313,44400,1,8,3:0:0:0:
380,348,44800,6,0,P|376:274|218:238,1,260,4|0,0:3|1:0,0:0:0:0:
143,306,46000,1,0,3:0:0:0:
79,223,46400,2,0,L|65:73,1,130,0|2,0:0|0:0,0:0:0:0:
157,42,47200,2,0,L|174:197,1,130,0|2,1:0|0:0,0:0:0:0:
240,248,48000,6,0,B|309:259|309:259|372:230,1,130,0|2,0:0|0:0,0:0:0:0:
464,261,48800,1,0,1:0:0:0:
422,356,49200,1,0,0:0:0:0:
320,346,49600,2,0,L|162:355,1,130,2|2,0:0|0:0,0:0:0:0:
86,360,50400,1,8,3:0:0:0:
140,271,50800,2,0,L|132:196,1,65,0|2,3:0|0:0,0:0:0:0:
125,154,51200,5,4,2:3:0:0:
63,70,51600,1,2,0:0:0:0:
166,60,52000,2,0,B|230:50|230:50|301:80,1,130,0|0,1:0|0:0,0:0:0:0:
359,152,52800,2,0,B|423:162|423:162|494:132,1,130,0|2,0:0|0:0,0:0:0:0:
410,61,53600,1,0,1:0:0:0:
462,262,54400,6,0,P|370:244|240:338,1,260,0|0,0:0|1:0,0:0:0:0:
157,274,55600,1,0,0:0:0:0:
81,202,56000,2,0,L|72:42,1,130,0|2,0:0|0:0,0:0:0:0:
171,36,56800,2,0,L|238:44,1,65,8|0,3:0|0:0,0:0:0:0:
249,94,57200,2,0,L|328:84,1,65,8|0,3:0|0:0,0:0:0:0:
338,40,57600,6,0,P|348:114|163:169,1,260,0|0,0:0|1:0,0:0:0:0:
104,174,58800,1,0,0:0:0:0:
34,251,59200,2,0,B|93:278|93:278|165:265,1,130,0|2,0:0|0:0,0:0:0:0:
257,242,60000,1,8,3:0:0:0:
198,156,60400,1,0,0:0:0:0:
255,69,60800,5,2,0:0:0:0:
61,334,76800,6,0,L|200:344,1,130,4|8,0:3|0:0,0:0:0:0:
266,272,77600,2,0,L|405:282,1,130,8|8,0:0|0:0,0:0:0:0:
439,253,78200,1,8,0:0:0:0:
462,206,78400,2,0,P|471:147|442:71,1,130,8|8,0:0|0:0,0:0:0:0:
358,31,79200,1,8,0:0:0:0:
268,84,79600,5,8,0:0:0:0:
268,84,79800,1,8,0:0:0:0:
268,84,80000,2,0,B|201:94|201:94|130:66,1,130,8|8,0:0|0:0,0:0:0:0:
50,22,80800,1,8,0:0:0:0:
5,116,81200,1,8,0:0:0:0:
56,206,81600,2,0,L|185:219,1,130,8|8,0:0|0:0,0:0:0:0:
245,304,82400,2,0,L|386:317,1,130,8|8,0:0|0:0,0:0:0:0:
256,192,83200,12,2,88000,0:0:0:0:
50,302,89600,6,0,B|128:297|128:297|207:334|207:334|316:325,1,260,4|0,0:3|1:0,0:0:0:0:
404,317,90800,1,8,3:0:0:0:
337,236,91200,2,0,P|312:163|451:75,1,260,0|0,0:0|1:0,0:0:0:0:
416,172,92400,1,8,3:0:0:0:
337,236,92800,6,0,L|205:247,1,130,0|0,0:0|0:0,0:0:0:0:
131,317,93600,2,0,P|109:251|125:190,1,130,0|8,1:0|3:0,0:0:0:0:
169,100,94400,1,0,0:0:0:0:
272,280,95200,2,0,P|334:285|396:251,1,130,8|8,3:0|3:0,0:0:0:0:
493,280,96000,6,0,P|496:219|328:183,1,260,0|0,0:0|1:0,0:0:0:0:
279,258,97200,1,8,3:0:0:0:
225,347,97600,2,0,L|78:358,1,130,0|0,0:0|0:0,0:0:0:0:
10,296,98400,1,0,1:0:0:0:
66,95,99200,6,0,B|190:54|188:134|331:95,1,260,0|0,0:0|1:0,0:0:0:0:
405,30,100400,1,8,3:0:0:0:
321,97,100800,2,0,P|307:166|326:235,1,130,0|0,0:0|0:0,0:0:0:0:
385,303,101600,2,0,L|465:312,2,65,8|8|8,3:0|3:0|3:0,0:0:0:0:
76,349,103200,2,0,L|65:197,1,130,8|8,3:0|3:0,0:0:0:0:
65,115,104000,6,0,P|165:83|277:184,1,260,0|0,0:0|1:0,0:0:0:0:
325,266,105200,1,8,3:0:0:0:
398,192,105600,2,0,L|413:51,1,130,0|0,0:0|0:0,0:0:0:0:
307,60,106400,2,0,B|251:97|251:97|183:89,1,130,0|8,1:0|3:0,0:0:0:0:
106,25,107200,6,0,P|90:94|112:165,1,130,0|0,0:0|0:0,0:0:0:0:
172,228,108000,2,0,L|266:240,1,65,0|0,1:0|0:0,0:0:0:0:
278,267,108400,2,0,L|342:258,1,65,8|0,3:0|0:0,0:0:0:0:
384,228,108800,6,0,P|428:144|305:56,1,260,0|0,0:0|1:0,0:0:0:0:
219,86,110000,1,8,3:0:0:0:
138,21,110400,2,0,B|119:86|119:86|142:148,1,130,0|0,0:0|0:0,0:0:0:0:
163,245,111200,2,0,B|182:310|182:310|159:372,1,130,0|2,1:0|0:0,0:0:0:0:
73,310,112000,6,0,P|51:230|190:157,1,260,0|0,0:0|1:0,0:0:0:0:
258,226,113200,1,8,3:0:0:0:
344,168,113600,1,0,3:0:0:0:
462,302,115200,6,0,B|384:297|384:297|305:334|305:334|196:325,1,260,0|4,0:0|0:3,0:0:0:0:
108,317,116400,1,0,0:0:0:0:
175,236,116800,2,0,P|200:163|61:75,1,260,0|0,0:0|1:0,0:0:0:0:
96,172,118000,1,8,3:0:0:0:
175,236,118400,6,0,L|307:247,1,130,0|0,0:0|0:0,0:0:0:0:
381,317,119200,2,0,P|403:251|387:190,1,130,0|8,1:0|3:0,0:0:0:0:
343,100,120000,1,0,0:0:0:0:
240,280,120800,2,0,P|178:285|116:251,1,130,8|8,3:0|3:0,0:0:0:0:
19,280,121600,6,0,P|16:219|184:183,1,260,0|0,0:0|1:0,0:0:0:0:
233,258,122800,1,8,3:0:0:0:
287,347,123200,2,0,L|434:358,1,130,0|0,0:0|0:0,0:0:0:0:
502,296,124000,1,0,1:0:0:0:
446,95,124800,6,0,B|322:54|324:134|181:95,1,260,0|0,0:0|1:0,0:0:0:0:
107,30,126000,1,8,3:0:0:0:
191,97,126400,2,0,P|205:166|186:235,1,130,0|0,0:0|0:0,0:0:0:0:
127,303,127200,2,0,L|47:312,2,65,8|8|8,3:0|3:0|3:0,0:0:0:0:
436,349,128800,2,0,L|447:197,1,130,4|8,0:3|3:0,0:0:0:0:
447,115,129600,6,0,P|347:83|235:184,1,260,0|0,0:0|1:0,0:0:0:0:
187,266,130800,1,8,3:0:0:0:
114,192,131200,2,0,L|99:51,1,130,0|0,0:0|0:0,0:0:0:0:
205,60,132000,2,0,B|261:97|261:97|329:89,1,130,0|8,1:0|3:0,0:0:0:0:
406,25,132800,6,0,P|421:94|399:165,1,130,0|0,0:0|0:0,0:0:0:0:
340,228,133600,2,0,L|246:240,1,65,0|0,1:0|0:0,0:0:0:0:
234,267,134000,2,0,L|169:258,1,65,8|0,3:0|0:0,0:0:0:0:
127,227,134400,6,0,P|83:143|206:55,1,260,0|0,3:0|3:0,0:0:0:0:
256,133,135600,1,0,3:0:0:0:
321,51,136000,2,0,P|424:111|387:226,1,260,8|0,3:0|3:0,0:0:0:0:
300,281,137200,1,8,3:0:0:0:
256,192,137600,12,2,140800,0:0:0:0:
256,336,153600,6,0,L|400:335,1,130,8|8,0:0|0:0,0:0:0:0:
477,285,154400,2,0,P|492:225|450:139,1,130,8|8,0:0|0:0,0:0:0:0:
433,126,155000,1,8,0:0:0:0:
387,101,155200,2,0,L|249:102,1,130,8|8,0:0|0:0,0:0:0:0:
157,71,156000,1,8,0:0:0:0:
114,163,156400,5,8,0:0:0:0:
114,163,156600,1,8,0:0:0:0:
114,163,156800,1,8,0:0:0:0:
60,252,157200,1,8,0:0:0:0:
119,337,157600,2,0,P|186:338|256:358,1,130,8|8,0:0|0:0,0:0:0:0:
346,322,158400,2,0,L|357:184,1,130,8|8,0:0|0:0,0:0:0:0:
379,90,159200,1,8,0:0:0:0:
279,120,159600,1,8,0:0:0:0:
256,192,160000,12,0,164800,0:0:0:0:
26,210,166800,5,8,0:0:0:0:
65,116,167200,2,0,P|107:144|121:220,1,130,8|0,0:3|0:0,0:0:0:0:
101,320,168000,2,0,L|234:335,1,130,0|0,0:0|0:0,0:0:0:0:
333,341,168800,1,0,1:0:0:0:
286,247,169200,1,8,3:0:0:0:
387,219,169600,6,0,L|398:77,1,130,0|0,0:0|0:0,0:0:0:0:
315,25,170400,2,0,P|256:40|190:24,1,130,0|8,1:0|3:0,0:0:0:0:
108,88,171200,2,0,L|118:222,1,130,0|0,0:0|0:0,0:0:0:0:
122,321,172000,1,0,1:0:0:0:
205,258,172400,1,8,3:0:0:0:
274,335,172800,6,0,P|336:341|406:366,1,130,0|0,0:0|0:0,0:0:0:0:
486,305,173600,2,0,L|492:160,1,130,0|8,1:0|0:3,0:0:0:0:
442,83,174400,2,0,P|381:81|341:274,1,260,0|0,0:0|1:0,0:0:0:0:
373,321,175600,1,8,3:0:0:0:
269,326,176000,6,0,P|207:325|136:350,1,130,0|0,0:0|0:0,0:0:0:0:
39,358,176800,1,0,1:0:0:0:
87,266,177200,1,8,3:0:0:0:
145,351,177600,1,0,0:0:0:0:
350,333,178400,6,0,P|386:341|440:347,2,65,8|8|8,3:0|3:0|3:0,0:0:0:0:
263,274,179200,2,0,L|253:136,1,130,0|8,0:0|0:0,0:0:0:0:
180,70,180000,2,0,B|116:62|116:62|60:96,1,130,4|0,3:0|0:0,0:0:0:0:
55,200,180800,6,0,L|73:338,1,130,0|8,0:0|3:0,0:0:0:0:
172,355,181600,1,0,1:0:0:0:
264,307,182000,1,0,0:0:0:0:
351,363,182400,2,0,P|420:361|478:331,1,130,0|0,0:0|0:0,0:0:0:0:
396,264,183200,1,0,1:0:0:0:
450,175,183600,1,8,3:0:0:0:
379,98,184000,6,0,L|247:85,1,130,0|0,0:0|0:0,0:0:0:0:
148,61,184800,2,0,P|117:58|83:50,1,65,0|0,1:0|0:0,3:0:0:0:
33,63,185200,2,0,P|35:98|29:127,1,65,8|0,3:0|0:0,0:0:0:0:
20,179,185600,5,8,3:0:0:0:
86,258,186000,1,8,3:0:0:0:
20,343,186400,2,0,L|158:362,1,130,8|8,3:0|3:0,0:0:0:0:
249,336,187200,5,8,3:0:0:0:
173,264,187600,1,8,3:0:0:0:
264,213,188000,2,0,L|273:62,1,130,8|8,3:0|3:0,0:0:0:0:
181,31,188800,6,0,B|113:26|113:26|56:59,1,130,0|0,3:0|3:0,0:0:0:0:
135,127,189600,1,0,3:0:0:0:
41,159,190000,1,0,3:0:0:0:
118,228,190400,1,0,3:0:0:0:
255,192,192000,5,4,0:3:0:0:
