osu file format v14

[General]
AudioFilename: audio.mp3
AudioLeadIn: 0
PreviewTime: 12671
Countdown: 0
SampleSet: Soft
StackLeniency: 0.7
Mode: 0
LetterboxInBreaks: 0
WidescreenStoryboard: 1

[Editor]
DistanceSpacing: 1
BeatDivisor: 3
GridSize: 32
TimelineZoom: 1

[Metadata]
Title:Tasogare no Odoriba
TitleUnicode:黄昏の踊り場
Artist:zakuro
ArtistUnicode:柘榴-zakuro-
Creator:Kuro Fuyusaki
Version:Normal
Source:メメントモリ
Tags:mementomori mememori folk japanese japan dancing in the dusk video game gacha ハトホル Hathor frozz -Keqing akinothm Shurelia GlaZe Bank of Innovation
BeatmapID:3704958
BeatmapSetID:1800829

[Difficulty]
HPDrainRate:4
CircleSize:3
OverallDifficulty:5
ApproachRate:5
SliderMultiplier:1.8
SliderTickRate:1

[Events]
//Background and Video events
0,0,"chrome_i39bxtrOnD.jpg",0,0
//Break Periods
2,66871,77471
2,90871,102971
2,180871,191471
//Storyboard Layer 0 (Background)
//Storyboard Layer 1 (Fail)
//Storyboard Layer 2 (Pass)
//Storyboard Layer 3 (Foreground)
//Storyboard Layer 4 (Overlay)
//Storyboard Sound Samples

[TimingPoints]
671,500,3,2,3,24,1,0
6671,-100,3,2,3,32,0,0
10671,-100,3,2,3,36,0,0
11171,-100,3,2,3,40,0,0
11337,-100,3,2,3,44,0,0
11504,-100,3,2,3,48,0,0
11671,-100,3,2,3,52,0,0
11837,-100,3,2,3,56,0,0
12004,-100,3,2,3,60,0,0
12171,-100,3,2,3,64,0,0
12671,-100,3,2,3,60,0,0
18254,-100,3,2,3,15,0,0
18337,-100,3,2,3,25,0,0
18421,-100,3,2,3,35,0,0
18504,-100,3,2,3,45,0,0
18587,-100,3,2,3,55,0,0
18671,-100,3,2,3,60,0,0
24754,-100,3,2,3,36,0,0
35171,-100,3,2,3,44,0,0
37171,-100,3,2,3,50,0,0
38254,-100,3,2,3,36,0,0
48671,-100,3,2,3,60,0,0
54671,-100,3,2,3,36,0,0
77671,-100,3,2,3,42,0,0
78171,-100,3,2,3,48,0,0
78671,-100,3,2,4,60,0,0
89671,-100,3,2,4,66,0,0
90171,-100,3,2,4,72,0,0
90671,-100,3,2,4,42,0,0
103171,-100,3,2,4,45,0,0
103671,-100,3,2,4,48,0,0
104171,-100,3,2,4,52,0,0
114671,-100,3,2,4,60,0,0
120671,-100,3,2,4,36,0,0
132671,-100,3,2,4,40,0,0
138671,-100,3,2,4,44,0,0
144671,-100,3,2,4,48,0,0
150671,-100,3,2,4,52,0,0
156671,-100,3,2,4,60,0,0
168837,-100,3,2,4,36,0,0
179171,-100,3,2,4,44,0,0
180671,-100,3,2,4,40,0,0
183171,-100,3,2,3,20,0,0
183671,-100,3,2,4,40,0,0
186171,-100,3,2,3,20,0,0
186671,-100,3,2,3,40,0,0
189171,-100,3,2,3,20,0,0
189671,-100,3,2,4,40,0,0
192671,-100,3,2,4,52,0,0
201671,-100,3,2,3,60,0,0
203171,-100,3,2,3,64,0,0
204671,-100,3,2,3,68,0,0
206171,-100,3,2,3,72,0,0

[Colours]
Combo1 : 191,119,219
Combo2 : 179,204,77
Combo3 : 117,131,255
Combo4 : 220,146,120
Combo5 : 249,100,104

[HitObjects]
213,343,12671,6,0,P|269:353|303:307,1,120,6|2,3:2|0:0,0:0:0:0:
286,249,13171,2,0,L|169:219,1,120,10|2,3:2|0:0,0:0:0:0:
115,207,13671,1,2,3:2:0:0:
115,207,13837,2,0,P|101:179|100:150,1,60,2|2,0:0|0:0,0:0:0:0:
117,92,14171,1,2,3:2:0:0:
282,17,14671,5,2,3:2:0:0:
282,17,14837,2,0,P|310:25|333:45,1,60,2|2,0:0|0:0,0:0:0:0:
375,95,15171,1,10,3:2:0:0:
375,95,15337,2,0,P|382:123|379:153,1,60,2|2,0:0|0:0,0:0:0:0:
356,209,15671,2,0,P|313:249|254:250,1,120,2|2,3:2|0:0,0:0:0:0:
200,223,16171,1,10,3:2:0:0:
109,73,16671,5,2,3:2:0:0:
109,73,16837,2,0,L|41:60,1,60,2|2,0:0|0:0,0:0:0:0:
11,108,17171,1,2,3:2:0:0:
11,108,17337,2,0,L|-3:177,1,60,2|2,0:0|0:0,0:0:0:0:
19,228,17671,1,2,3:2:0:0:
19,228,17837,2,0,L|77:240,1,60,2|2,0:0|0:0,0:0:0:0:
136,254,18171,1,2,3:2:0:0:
308,201,18671,6,0,P|346:148|334:79,1,120,2|2,3:2|0:0,0:0:0:0:
307,46,19171,1,10,3:2:0:0:
152,138,19671,2,0,L|71:152,2,60,2|2|2,3:2|0:0|0:0,0:0:0:0:
203,168,20171,1,2,3:2:0:0:
154,344,20671,5,2,3:2:0:0:
154,344,20837,2,0,P|128:360|99:363,1,60,2|2,0:0|0:0,0:0:0:0:
44,348,21171,1,10,3:2:0:0:
44,348,21337,2,0,P|28:323|24:293,1,60,2|2,0:0|0:0,0:0:0:0:
50,238,21671,2,0,L|167:212,1,120,2|2,3:2|0:0,0:0:0:0:
226,201,22171,1,10,3:2:0:0:
334,351,22671,5,2,3:2:0:0:
334,351,22837,2,0,L|403:365,1,60,2|2,0:0|0:0,0:0:0:0:
457,366,23171,1,2,3:2:0:0:
457,366,23337,2,0,P|485:318|481:279,1,60,2|2,0:0|0:0,0:0:0:0:
475,259,23671,1,2,3:2:0:0:
475,259,23837,2,0,L|463:200,1,60,2|2,0:0|0:0,0:0:0:0:
446,142,24171,1,2,3:2:0:0:
315,17,24671,6,0,P|241:3|186:116,2,180,6|0|0,3:2|3:2|3:2,0:0:0:0:
397,111,26004,1,2,0:0:0:0:
397,111,26171,2,0,P|394:170|365:222,1,120,2|0,3:2|0:0,0:0:0:0:
319,260,26671,2,0,L|174:237,1,120,0|0,3:2|0:0,0:0:0:0:
140,234,27171,1,0,3:2:0:0:
2,118,27671,6,0,L|34:307,2,180,2|0|0,3:2|3:2|3:2,0:0:0:0:
147,11,29171,2,0,P|209:58|184:130,1,120,2|0,3:2|0:0,0:0:0:0:
155,122,29671,2,0,P|113:162|121:220,1,120,0|0,3:2|0:0,0:0:0:0:
163,261,30171,1,0,3:2:0:0:
333,318,30671,6,0,P|400:284|381:178,2,180,2|0|0,3:2|3:2|3:2,0:0:0:0:
243,161,32170,2,0,P|208:92|103:111,2,180,2|0|0,3:2|3:2|3:2,0:0:0:0:
195,334,33671,2,0,L|78:305,1,120,2|0,3:2|0:0,0:0:0:0:
36,261,34171,2,0,L|233:231,1,180,2|0,3:2|3:2,0:0:0:0:
381,167,35171,6,0,P|421:126|406:71,1,120,2|2,3:2|0:0,0:0:0:0:
359,34,35671,2,0,L|242:13,1,120,10|2,3:2|0:0,0:0:0:0:
184,10,36171,1,2,3:2:0:0:
184,10,36337,2,0,P|154:30|137:61,1,60,2|2,0:0|0:0,0:0:0:0:
120,106,36671,1,10,3:2:0:0:
4,244,37171,5,2,3:2:0:0:
4,244,37337,2,0,P|56:280|66:301,1,60,2|2,0:0|0:0,0:0:0:0:
117,276,37671,1,2,3:2:0:0:
117,276,37837,2,0,P|128:338|120:360,1,60,2|2,0:0|0:0,0:0:0:0:
170,377,38171,6,0,P|238:349|245:250,2,180,6|0|0,3:2|3:2|3:2,0:0:0:0:
13,288,39671,2,0,P|3:228|0:168,1,120,2|0,3:2|0:0,0:0:0:0:
46,131,40171,2,0,P|104:135|134:192,1,120,0|0,3:2|0:0,0:0:0:0:
145,243,40671,1,0,3:2:0:0:
302,332,41171,6,0,P|387:304|475:285,2,180,2|0|0,3:2|3:2|3:2,0:0:0:0:
145,245,42671,2,0,P|168:154|216:140,1,120,2|0,3:2|0:0,0:0:0:0:
243,131,43171,2,0,P|320:150|381:186,1,120,0|0,3:2|0:0,0:0:0:0:
405,202,43671,1,0,3:2:0:0:
498,126,44004,5,2,0:0:0:0:
498,126,44171,2,0,P|486:27|417:6,1,180,2|0,3:2|3:2,0:0:0:0:
258,85,45171,1,0,3:2:0:0:
352,167,45504,1,2,0:0:0:0:
352,167,45671,2,0,P|386:249|395:347,1,180,2|0,3:2|3:2,0:0:0:0:
224,280,46671,1,0,3:2:0:0:
143,369,47004,5,2,0:0:0:0:
143,369,47171,2,0,P|49:361|33:310,1,120,2|0,3:2|0:0,0:0:0:0:
15,293,47671,2,0,P|37:219|104:205,1,120,2|0,3:2|0:0,0:0:0:0:
130,194,48171,1,0,3:2:0:0:
302,244,48671,6,0,P|319:301|331:360,1,120,6|2,3:2|0:0,0:0:0:0:
388,378,49171,2,0,P|439:349|450:269,1,120,8|2,3:2|0:0,0:0:0:0:
430,244,49671,1,2,3:2:0:0:
430,244,49837,2,0,P|440:201|462:182,1,60,2|2,0:0|0:0,0:0:0:0:
505,166,50171,1,10,3:2:0:0:
394,31,50670,5,2,3:2:0:0:
394,31,50837,2,0,L|315:12,1,60,2|2,0:0|0:0,0:0:0:0:
287,51,51171,1,10,3:2:0:0:
287,51,51338,2,0,L|208:70,1,60,2|2,0:0|0:0,0:0:0:0:
190,111,51671,2,0,P|221:172|305:158,1,120,2|2,3:2|0:0,0:0:0:0:
325,166,52171,1,10,3:2:0:0:
417,320,52671,6,0,L|496:339,2,60,2|2|2,3:2|0:0|0:0,0:0:0:0:
361,317,53171,1,2,3:2:0:0:
361,317,53338,2,0,L|318:387,1,60,2|2,3:2|3:2,0:0:0:0:
273,373,53671,1,2,3:2:0:0:
273,373,53838,2,0,L|194:353,1,60,2|2,3:2|3:2,0:0:0:0:
156,342,54171,1,14,0:0:0:0:
36,207,54671,6,0,L|150:169,1,120,2|2,0:0|0:0,0:0:0:0:
208,153,55171,2,0,P|264:138|367:194,1,180,2|2,0:0|0:0,0:0:0:0:
322,368,56171,2,0,L|157:340,1,120,2|2,0:0|0:0,0:0:0:0:
152,315,56671,2,0,P|175:256|232:248,1,120,2|0,0:0|0:0,0:0:0:0:
284,256,57171,1,0,0:0:0:0:
457,208,57671,6,0,P|494:162|475:78,1,120,2|2,0:0|0:0,0:0:0:0:
464,49,58171,2,0,P|418:12|359:14,1,120,2|2,0:0|0:0,0:0:0:0:
308,45,58671,1,2,0:0:0:0:
308,46,58837,2,0,P|279:86|302:143,1,60,2|2,0:0|0:0,0:0:0:0:
297,153,59171,2,0,B|311:192|363:202|363:202|395:157|367:115,1,180,2|2,0:0|0:0,0:0:0:0:
190,80,60171,1,0,0:0:0:0:
36,174,60671,6,0,B|13:214|28:259|86:292|120:269|136:233|123:205|216:217|242:248|259:324|210:361,1,360,2|2,0:0|0:0,0:0:0:0:
396,382,62171,2,0,P|418:270|365:191,1,180,2|2,0:0|0:0,0:0:0:0:
255,95,63171,1,2,0:0:0:0:
86,157,63671,1,2,0:0:0:0:
256,192,63837,12,2,66671,0:0:0:0:
0,30,78671,6,0,P|17:127|25:199,1,120,10|2,3:2|0:0,0:0:0:0:
62,190,79171,2,0,P|45:287|37:359,1,120,10|2,3:2|0:0,0:0:0:0:
28,369,79671,1,10,3:2:0:0:
28,369,79837,2,0,P|64:357|97:352,1,60,2|2,0:0|0:0,0:0:0:0:
145,345,80171,1,10,3:2:0:0:
276,222,80671,5,10,3:2:0:0:
277,222,80837,2,0,P|304:233|330:249,1,60,2|2,0:0|0:0,0:0:0:0:
393,260,81171,1,10,3:2:0:0:
394,261,81337,2,0,P|409:286|420:314,1,60,2|2,0:0|0:0,0:0:0:0:
463,356,81671,2,0,P|471:296|482:237,1,120,10|2,3:2|0:0,0:0:0:0:
500,180,82171,1,10,3:2:0:0:
335,120,82671,5,10,3:2:0:0:
335,120,82837,2,0,P|326:91|322:61,1,60,2|2,0:0|0:0,0:0:0:0:
370,23,83171,1,10,3:2:0:0:
370,23,83337,2,0,P|398:14|428:10,1,60,2|2,0:0|0:0,0:0:0:0:
483,47,83671,1,10,3:2:0:0:
483,47,83837,2,0,P|491:75|495:105,1,60,2|2,0:0|0:0,0:0:0:0:
463,157,84171,1,10,3:2:0:0:
299,232,84671,6,0,P|240:220|180:212,1,120,10|2,3:2|0:0,0:0:0:0:
124,191,85171,2,0,P|109:132|91:75,1,120,10|2,3:2|0:0,0:0:0:0:
123,25,85671,1,10,3:2:0:0:
122,25,85837,2,0,P|147:8|176:11,1,60,2|2,0:0|0:0,0:0:0:0:
228,41,86171,1,10,3:2:0:0:
379,140,86671,6,0,L|458:120,2,60,10|2|2,3:2|0:0|0:0,0:0:0:0:
366,198,87171,2,0,L|436:239,2,60,10|2|2,3:2|0:0|0:0,0:0:0:0:
317,231,87671,2,0,L|337:310,2,60,10|2|2,3:2|0:0|0:0,0:0:0:0:
258,217,88171,2,0,L|216:287,2,60,10|2|2,3:2|0:0|0:0,0:0:0:0:
226,167,88671,2,0,L|146:187,2,60,10|2|2,3:2|0:0|0:0,0:0:0:0:
243,109,89171,5,10,3:2:0:0:
408,180,89671,1,8,3:2:0:0:
337,345,90171,1,8,3:2:0:0:
172,274,90671,1,10,0:0:0:0:
255,384,104171,6,0,P|260:317|277:182,1,180,6|8,3:2|3:2,0:0:0:0:
324,32,105171,1,0,3:2:0:0:
444,65,105504,1,10,0:0:0:0:
444,65,105671,2,0,P|502:131|477:239,2,180,2|8|0,3:2|3:2|3:2,0:0:0:0:
270,112,107171,6,0,P|183:101|90:47,1,180,2|8,3:2|3:2,0:0:0:0:
34,225,108171,2,0,P|8:288|-2:357,1,120,0|10,3:2|0:0,0:0:0:0:
46,375,108671,2,0,P|117:374|141:274,1,180,2|8,3:2|3:2,0:0:0:0:
64,120,109671,1,0,3:2:0:0:
171,63,110004,5,2,0:0:0:0:
171,63,110171,2,0,P|261:55|365:139,2,180,2|8|0,3:2|3:2|3:2,0:0:0:0:
249,160,111504,1,10,0:0:0:0:
249,160,111671,2,0,P|300:233|280:366,2,180,2|8|0,3:2|3:2|3:2,0:0:0:0:
133,174,113004,5,2,0:0:0:0:
133,174,113171,2,0,P|90:243|105:316,1,120,2|0,3:2|0:0,0:0:0:0:
116,333,113671,2,0,P|170:362|204:265,1,180,10|0,3:2|3:2,0:0:0:0:
307,201,114504,1,2,0:0:0:0:
307,201,114671,6,0,P|372:173|474:167,1,120,6|2,3:2|0:0,0:0:0:0:
452,114,115171,2,0,P|403:78|348:55,1,120,10|2,3:2|0:0,0:0:0:0:
311,14,115671,1,2,3:2:0:0:
311,14,115837,2,0,P|267:37|249:62,1,60,2|2,0:0|0:0,0:0:0:0:
228,95,116171,1,2,3:2:0:0:
316,257,116671,5,10,3:2:0:0:
316,257,116837,2,0,P|290:241|261:238,1,60,2|2,0:0|0:0,0:0:0:0:
205,252,117171,1,10,3:2:0:0:
205,252,117337,2,0,P|178:266|161:290,1,60,2|2,0:0|0:0,0:0:0:0:
124,337,117671,2,0,P|71:289|89:222,1,120,2|2,3:2|0:0,0:0:0:0:
103,192,118171,1,10,3:2:0:0:
218,53,118671,6,0,P|215:24|199:-1,2,60,2|2|2,3:2|0:0|0:0,0:0:0:0:
257,105,119171,1,10,3:2:0:0:
257,106,119337,2,0,P|286:110|311:126,1,60,2|2,3:2|3:2,0:0:0:0:
356,175,119671,1,2,3:2:0:0:
356,176,119837,2,0,P|381:160|410:156,1,60,2|2,3:2|3:2,0:0:0:0:
468,173,120171,1,14,0:0:0:0:
356,314,120671,6,0,P|267:330|182:358,2,180,2|2|2,0:0|0:0|0:0,0:0:0:0:
468,173,122171,2,0,P|451:117|395:102,1,120,2|2,0:0|0:0,0:0:0:0:
335,105,122671,2,0,P|275:113|220:137,1,120,2|0,0:0|0:0,0:0:0:0:
169,168,123171,1,0,0:0:0:0:
51,305,123671,6,0,P|58:354|124:364,1,120,2|2,0:0|0:0,0:0:0:0:
167,330,124171,2,0,P|237:303|324:311,1,120,2|2,0:0|0:0,0:0:0:0:
326,262,124671,2,0,P|387:291|402:350,1,120,2|2,0:0|0:0,0:0:0:0:
443,381,125171,2,0,P|457:322|479:266,1,120,2|2,0:0|0:0,0:0:0:0:
510,215,125671,1,2,0:0:0:0:
447,118,126004,1,0,0:0:0:0:
447,118,126171,1,0,0:0:0:0:
307,231,126671,6,0,P|169:211|23:97,1,300,2|2,0:0|0:0,0:0:0:0:
60,63,127671,2,0,P|136:47|185:139,1,180,2|2,0:0|0:0,0:0:0:0:
129,293,128670,1,2,0:0:0:0:
293,365,129170,1,2,0:0:0:0:
434,254,129670,1,2,0:0:0:0:
256,192,129837,12,10,132671,0:0:0:0:
62,0,133671,6,0,L|22:195,1,180,10|10,0:0|0:0,0:0:0:0:
231,192,135171,2,0,L|271:387,1,180,10|10,0:0|0:0,0:0:0:0:
412,207,136671,2,0,L|448:30,1,180,10|10,0:0|0:0,0:0:0:0:
187,142,138171,2,0,P|187:83|224:37,1,120,10|0,0:0|0:0,0:0:0:0:
280,15,138671,5,10,3:2:0:0:
450,155,139671,2,0,L|261:109,1,180,10|10,3:2|3:2,0:0:0:0:
294,293,141171,2,0,L|105:339,1,180,10|10,3:2|3:2,0:0:0:0:
179,167,142671,2,0,L|4:124,1,180,10|10,3:2|3:2,0:0:0:0:
0,305,144171,2,0,P|46:341|104:342,1,120,10|0,3:2|0:0,0:0:0:0:
160,320,144671,6,0,P|185:190|190:149,1,120,10|2,3:2|0:0,0:0:0:0:
160,146,145171,2,0,P|30:121|-11:116,1,120,10|2,3:2|0:0,0:0:0:0:
14,69,145671,1,10,3:2:0:0:
184,12,146171,2,0,P|266:30|351:54,1,120,10|2,3:2|0:0,0:0:0:0:
358,57,146671,1,10,3:2:0:0:
474,194,147171,6,0,P|482:222|490:251,2,60,10|2|2,3:2|0:0|0:0,0:0:0:0:
415,178,147671,2,0,P|361:206|368:288,1,120,10|2,3:2|0:0,0:0:0:0:
334,317,148171,2,0,P|293:358|236:351,1,120,10|2,3:2|0:0,0:0:0:0:
188,314,148671,1,10,3:2:0:0:
54,192,149171,6,0,P|112:177|171:168,1,120,10|2,3:2|0:0,0:0:0:0:
216,128,149671,2,0,P|278:149|288:156,2,60,10|2|2,3:2|0:0|0:0,0:0:0:0:
185,78,150171,1,10,3:2:0:0:
347,0,150671,6,0,P|392:45|371:125,1,120,10|2,3:2|0:0,0:0:0:0:
434,138,151171,2,0,P|405:194|322:199,1,120,10|2,3:2|0:0,0:0:0:0:
296,192,151671,1,10,3:2:0:0:
133,114,152171,2,0,P|61:124|19:185,1,120,10|2,3:2|0:0,0:0:0:0:
10,213,152671,1,10,3:2:0:0:
126,357,153171,5,10,3:2:0:0:
126,357,153337,2,0,P|184:372|200:382,1,60,2|2,0:0|0:0,0:0:0:0:
224,327,153671,2,0,P|280:307|338:293,1,120,10|2,3:2|0:0,0:0:0:0:
397,307,154171,2,0,P|439:262|423:207,1,120,10|2,3:2|0:0,0:0:0:0:
389,162,154671,1,10,3:2:0:0:
216,213,155171,6,0,P|157:217|117:175,1,120,2|2,3:2|0:0,0:0:0:0:
114,115,155671,2,0,P|139:62|195:48,1,120,2|2,3:2|0:0,0:0:0:0:
255,72,156171,1,2,3:2:0:0:
339,236,156671,6,0,L|397:247,1,60,2|2,3:2|0:0,0:0:0:0:
454,227,157004,1,6,0:0:0:0:
454,227,157171,2,0,L|483:83,1,120,2|2,3:2|0:0,0:0:0:0:
439,62,157671,2,0,L|450:3,2,60,10|2|2,3:2|0:0|0:0,0:0:0:0:
386,91,158171,2,0,L|245:111,1,120,2|2,3:2|0:0,0:0:0:0:
207,117,158671,1,10,3:2:0:0:
110,268,159171,1,2,3:2:0:0:
252,384,159671,6,0,L|266:314,1,60,2|2,3:2|0:0,0:0:0:0:
302,278,160004,1,6,0:0:0:0:
302,278,160171,2,0,L|446:249,1,120,2|2,3:2|0:0,0:0:0:0:
455,205,160671,2,0,L|520:224,2,60,10|2|2,3:2|0:0|0:0,0:0:0:0:
441,146,161171,2,0,L|482:103,2,60,2|2|2,3:2|0:0|0:0,0:0:0:0:
381,135,161671,2,0,L|352:82,2,60,10|2|2,3:2|0:0|0:0,0:0:0:0:
346,183,162171,1,2,3:2:0:0:
230,321,162671,6,0,L|160:307,1,60,2|2,3:2|0:0,0:0:0:0:
116,283,163004,1,6,0:0:0:0:
116,283,163171,2,0,L|87:139,1,120,2|2,3:2|0:0,0:0:0:0:
57,116,163671,2,0,L|-1:104,2,60,10|2|2,3:2|0:0|0:0,0:0:0:0:
104,78,164171,2,0,L|248:49,1,120,2|2,3:2|0:0,0:0:0:0:
281,45,164671,1,10,3:2:0:0:
438,132,165171,1,2,3:2:0:0:
291,235,165671,6,0,L|277:305,1,60,2|2,3:2|0:0,0:0:0:0:
241,341,166004,1,6,0:0:0:0:
241,341,166171,2,0,L|123:364,1,120,2|2,3:2|0:0,0:0:0:0:
84,318,166671,2,0,L|26:301,2,60,10|2|2,3:2|0:0|0:0,0:0:0:0:
115,266,167171,2,0,L|86:213,2,60,2|2|2,3:2|0:0|0:0,0:0:0:0:
173,251,167671,2,0,L|189:193,2,60,10|2|2,3:2|0:0|0:0,0:0:0:0:
223,282,168171,2,0,L|340:305,1,120,2|0,3:2|0:0,0:0:0:0:
399,315,168671,5,6,0:0:0:0:
508,171,169171,1,2,0:0:0:0:
404,23,169671,1,2,0:0:0:0:
231,76,170171,1,2,0:0:0:0:
227,256,170671,2,0,L|418:301,1,180,2|0,0:0|0:0,0:0:0:0:
509,152,171671,5,2,0:0:0:0:
359,51,172171,1,2,0:0:0:0:
253,200,172671,1,2,0:0:0:0:
101,103,173171,1,2,0:0:0:0:
0,252,173671,1,2,0:0:0:0:
149,353,174171,1,0,0:0:0:0:
250,204,174671,5,2,0:0:0:0:
425,163,175171,1,0,0:0:0:0:
466,338,175671,1,2,0:0:0:0:
291,379,176171,1,2,0:0:0:0:
137,283,176671,1,2,0:0:0:0:
95,106,177171,1,2,0:0:0:0:
272,64,177671,1,2,0:0:0:0:
256,192,177837,12,10,180671,0:0:0:0:
512,337,192671,6,0,P|459:294|384:311,1,120,6|2,3:2|0:0,0:0:0:0:
360,330,193171,2,0,P|316:369|258:370,1,120,10|2,0:0|0:0,0:0:0:0:
217,326,193671,2,0,P|182:326|154:343,2,60,10|2|2,0:0|0:0|3:2,0:0:0:0:
260,284,194171,1,2,3:2:0:0:
424,210,194671,2,0,P|453:212|478:228,2,60,10|2|2,0:0|0:0|0:0,0:0:0:0:
400,154,195171,1,10,0:0:0:0:
400,154,195337,2,0,P|422:134|451:128,1,60,2|2,0:0|0:0,0:0:0:0:
498,90,195671,6,0,P|454:50|396:49,1,120,6|2,3:2|0:0,0:0:0:0:
339,70,196171,1,10,0:0:0:0:
254,228,196671,2,0,P|256:257|272:282,2,60,10|2|2,0:0|0:0|0:0,0:0:0:0:
194,221,197171,2,0,P|178:246|176:276,2,60,2|2|2,3:2|0:0|0:0,0:0:0:0:
148,181,197671,2,0,P|120:192|101:215,2,60,10|2|2,0:0|0:0|0:0,0:0:0:0:
148,120,198171,1,10,0:0:0:0:
292,13,198671,6,0,P|350:14|393:53,1,120,6|2,3:2|0:0,0:0:0:0:
419,108,199171,2,0,P|417:166|378:209,1,120,10|2,0:0|0:0,0:0:0:0:
327,240,199671,1,10,0:0:0:0:
327,240,199837,2,0,P|309:263|304:293,1,60,2|2,0:0|3:2,0:0:0:0:
328,348,200171,1,2,3:2:0:0:
148,330,200671,6,0,P|118:334|94:352,2,60,10|2|2,0:0|0:0|0:0,0:0:0:0:
182,280,201171,1,10,0:0:0:0:
32,179,201671,5,6,3:2:0:0:
90,169,201837,1,2,3:2:0:0:
148,157,202004,1,2,3:2:0:0:
206,147,202170,1,10,3:2:0:0:
343,30,202671,1,10,3:2:0:0:
479,146,203171,5,6,3:2:0:0:
469,204,203337,1,2,3:2:0:0:
457,262,203504,1,2,3:2:0:0:
447,320,203670,1,10,3:2:0:0:
273,368,204171,1,8,3:2:0:0:
99,320,204671,5,6,3:2:0:0:
89,262,204837,1,2,3:2:0:0:
77,204,205004,1,2,3:2:0:0:
67,146,205170,1,10,3:2:0:0:
199,23,205671,1,10,3:2:0:0:
267,189,206171,5,6,3:2:0:0:
325,199,206337,1,2,3:2:0:0:
383,211,206504,1,2,3:2:0:0:
441,221,206670,1,10,3:2:0:0:
500,44,207171,5,10,3:2:0:0:
444,21,207337,1,2,3:2:0:0:
409,69,207504,1,6,3:2:0:0:
