osu file format v14

[General]
AudioFilename: audio.mp3
AudioLeadIn: 0
PreviewTime: 12671
Countdown: 0
SampleSet: Soft
StackLeniency: 0.4
Mode: 0
LetterboxInBreaks: 0
WidescreenStoryboard: 1

[Editor]
Bookmarks: 671,12671,66671,78671,90671,104171,114671,123671,132671,144671,157004,168671,180671,192671,201671,203171,204671,206171,207671
DistanceSpacing: 1.5
BeatDivisor: 6
GridSize: 16
TimelineZoom: 1.5

[Metadata]
Title:Tasogare no Odoriba
TitleUnicode:黄昏の踊り場
Artist:zakuro
ArtistUnicode:柘榴-zakuro-
Creator:Kuro Fuyusaki
Version:Collab Insane
Source:メメントモリ
Tags:mementomori mememori folk japanese japan dancing in the dusk video game gacha ハトホル Hathor frozz -Keqing akinothm Shurelia GlaZe Bank of Innovation
BeatmapID:3698619
BeatmapSetID:1800829

[Difficulty]
HPDrainRate:5.5
CircleSize:4.1
OverallDifficulty:8
ApproachRate:9
SliderMultiplier:2
SliderTickRate:1

[Events]
//Background and Video events
0,0,"chrome_i39bxtrOnD.jpg",0,0
//Break Periods
//Storyboard Layer 0 (Background)
//Storyboard Layer 1 (Fail)
//Storyboard Layer 2 (Pass)
//Storyboard Layer 3 (Foreground)
//Storyboard Layer 4 (Overlay)
//Storyboard Sound Samples

[TimingPoints]
671,500,3,2,3,24,1,0
671,-200,3,2,3,24,0,0
6671,-133.333333333333,3,2,3,32,0,0
10671,-133.333333333333,3,2,3,36,0,0
11171,-133.333333333333,3,2,3,40,0,0
11337,-133.333333333333,3,2,3,44,0,0
11504,-133.333333333333,3,2,3,48,0,0
11671,-133.333333333333,3,2,3,52,0,0
11837,-133.333333333333,3,2,3,56,0,0
12004,-133.333333333333,3,2,3,60,0,0
12171,-133.333333333333,3,2,3,64,0,0
12671,-80,3,2,3,60,0,0
13171,-100,3,2,3,60,0,0
14171,-80,3,2,3,60,0,0
16171,-100,3,2,3,60,0,0
18254,-100,3,2,3,15,0,0
18337,-100,3,2,3,25,0,0
18421,-100,3,2,3,35,0,0
18504,-100,3,2,3,45,0,0
18587,-100,3,2,3,55,0,0
18671,-80,3,2,3,60,0,0
19171,-100,3,2,3,60,0,0
20171,-80,3,2,3,60,0,0
22171,-100,3,2,3,60,0,0
24671,-90.9090909090909,3,2,3,60,0,0
24754,-90.9090909090909,3,2,3,36,0,0
26171,-200,3,2,3,36,0,0
26671,-133.333333333333,3,2,3,36,0,0
27171,-100,3,2,3,36,0,0
27671,-90.9090909090909,3,2,3,36,0,0
29171,-200,3,2,3,36,0,0
29671,-133.333333333333,3,2,3,36,0,0
30171,-100,3,2,3,36,0,0
30671,-90.9090909090909,3,2,3,36,0,0
35171,-90.9090909090909,3,2,3,44,0,0
37171,-90.9090909090909,3,2,3,50,0,0
38171,-90.9090909090909,3,2,3,50,0,0
38254,-90.9090909090909,3,2,3,36,0,0
39671,-200,3,2,3,36,0,0
40171,-133.333333333333,3,2,3,36,0,0
40671,-100,3,2,3,36,0,0
41171,-90.9090909090909,3,2,3,36,0,0
42671,-200,3,2,3,36,0,0
43171,-133.333333333333,3,2,3,36,0,0
43671,-100,3,2,3,36,0,0
44171,-90.9090909090909,3,2,3,36,0,0
48671,-80,3,2,3,60,0,0
54671,-100,3,2,3,36,0,0
58671,-90.9090909090909,3,2,3,36,0,0
60171,-200,3,2,3,36,0,0
60671,-133.333333333333,3,2,3,36,0,0
63671,-200,3,2,3,36,0,0
64170,-133.333333333333,3,2,3,36,0,0
64670,-100,3,2,3,36,0,0
65170,-86.9565217391304,3,2,3,36,0,0
65671,-76.9230769230769,3,2,3,36,0,0
66171,-66.6666666666667,3,2,3,36,0,0
66671,-125,3,2,3,36,0,0
77671,-125,3,2,3,42,0,0
78171,-125,3,2,3,48,0,0
78671,-71.4285714285714,3,2,4,60,0,0
89671,-71.4285714285714,3,2,4,66,0,0
90171,-71.4285714285714,3,2,4,72,0,0
90671,-71.4285714285714,3,2,4,42,0,0
91171,-125,3,2,4,42,0,0
103171,-125,3,2,4,45,0,0
103671,-125,3,2,4,48,0,0
104171,-83.3333333333333,3,2,4,52,0,0
114671,-71.4285714285714,3,2,4,60,0,0
120671,-125,3,2,4,36,0,0
132671,-83.3333333333333,3,2,4,40,0,0
138671,-83.3333333333333,3,2,4,44,0,0
144671,-83.3333333333333,3,2,4,48,0,0
150671,-83.3333333333333,3,2,4,52,0,0
156671,-83.3333333333333,3,2,4,60,0,0
168171,-83.3333333333333,3,2,3,45,0,0
168671,-100,3,2,4,60,0,0
168837,-100,3,2,4,36,0,0
179171,-100,3,2,4,44,0,0
180671,-125,3,2,4,40,0,0
183171,-125,3,2,3,30,0,0
183671,-125,3,2,4,40,0,0
186171,-125,3,2,3,30,0,0
186671,-125,3,2,3,40,0,0
189171,-125,3,2,3,30,0,0
189671,-125,3,2,4,40,0,0
192254,-125,3,2,3,30,0,0
192671,-100,3,2,4,52,0,0
201671,-71.4285714285714,3,2,3,60,0,0
203171,-71.4285714285714,3,2,3,64,0,0
204671,-71.4285714285714,3,2,3,68,0,0
206171,-71.4285714285714,3,2,3,72,0,0

[Colours]
Combo1 : 191,119,219
Combo2 : 179,204,77
Combo3 : 117,131,255
Combo4 : 220,146,120
Combo5 : 249,100,104

[HitObjects]
216,2,12671,6,0,L|172:162,1,166.666666666667,6|2,3:2|0:0,0:0:0:0:
60,296,13171,2,0,P|89:236|158:252,1,133.333333333333,10|2,3:2|0:0,0:0:0:0:
331,332,13671,1,2,3:2:0:0:
349,261,13837,1,2,0:0:0:0:
331,332,14004,1,2,0:0:0:0:
364,188,14171,6,0,L|405:359,1,166.666666666667,2|2,3:2|0:0,0:0:0:0:
497,325,14671,5,2,3:2:0:0:
477,247,14837,1,2,0:0:0:0:
456,170,15004,1,2,0:0:0:0:
309,254,15171,5,10,3:2:0:0:
289,176,15337,1,2,0:0:0:0:
268,99,15504,1,2,0:0:0:0:
447,32,15671,6,0,P|456:116|396:103,1,166.666666666667,2|2,3:2|0:0,0:0:0:0:
307,31,16171,2,0,B|358:17|358:17|382:31|382:31|449:13,1,133.333333333333,10|2,3:2|0:0,0:0:0:0:
420,183,16671,5,2,3:2:0:0:
346,163,16837,1,2,0:0:0:0:
400,108,17004,1,2,0:0:0:0:
249,189,17171,5,2,3:2:0:0:
268,260,17337,1,2,0:0:0:0:
287,331,17504,1,2,0:0:0:0:
224,378,17671,6,0,L|131:353,1,66.6666666666667,2|2,3:2|0:0,0:0:0:0:
348,240,18004,1,2,0:0:0:0:
418,289,18171,2,0,L|434:350,5,33.3333333333333,2|0|0|0|0|0,3:2|3:2|3:2|3:2|3:2|3:2,0:0:0:0:
485,232,18671,6,0,B|474:266|474:266|383:241|383:241|392:206,1,166.666666666667,2|2,3:2|0:0,0:0:0:0:
510,157,19171,2,0,L|475:28,1,133.333333333333,10|2,3:2|0:0,0:0:0:0:
339,115,19671,2,0,L|432:139,1,66.6666666666667,2|2,3:2|0:0,0:0:0:0:
297,46,20004,1,2,0:0:0:0:
198,145,20171,2,0,L|285:296,1,166.666666666667,2|2,3:2|0:0,0:0:0:0:
346,368,20671,5,2,3:2:0:0:
366,290,20837,1,2,0:0:0:0:
387,213,21004,1,2,0:0:0:0:
218,223,21171,5,10,3:2:0:0:
198,145,21337,1,2,0:0:0:0:
177,68,21504,1,2,0:0:0:0:
318,53,21671,6,0,B|300:115|300:115|318:145|318:145|295:228,1,166.666666666667,2|2,3:2|0:0,0:0:0:0:
374,239,22171,2,0,B|308:227|308:227|279:292,1,133.333333333333,10|2,3:2|0:0,0:0:0:0:
134,303,22671,5,2,3:2:0:0:
208,323,22837,1,2,0:0:0:0:
154,378,23004,1,2,0:0:0:0:
281,287,23171,5,2,3:2:0:0:
262,216,23337,1,2,0:0:0:0:
243,145,23504,1,2,0:0:0:0:
175,205,23671,6,0,L|143:197,1,33.3333333333333,2|0,3:2|0:0,0:0:0:0:
121,222,23837,2,0,L|143:198,1,33.3333333333333,2|0,0:0|0:0,0:0:0:0:
134,165,24004,2,0,L|143:196,1,33.3333333333333,2|0,0:0|0:0,0:0:0:0:
246,73,24171,6,0,L|238:105,1,33.3333333333333,2|0,3:2|0:0,0:0:0:0:
309,116,24337,2,0,L|301:148,1,33.3333333333333
372,159,24504,2,0,L|364:191,1,33.3333333333333
175,205,24671,6,0,P|143:141|253:76,1,220.000006713867,6|0,3:2|3:2,0:0:0:0:
246,73,25504,1,0,0:0:0:0:
380,170,25671,2,0,L|338:324,1,146.666671142578,0|2,3:2|0:0,0:0:0:0:
342,311,26171,2,0,L|374:319,2,33.3333333333333,2|0|0,3:2|0:0|0:0,0:0:0:0:
233,347,26671,2,0,L|281:359,2,50.0000019073487,0|0|0,3:2|0:0|0:0,0:0:0:0:
145,222,27171,2,0,L|209:239,2,66.6666666666667,0|0|2,3:2|0:0|0:0,0:0:0:0:
100,375,27671,6,0,L|42:158,1,220.000006713867,2|0,3:2|3:2,0:0:0:0:
43,162,28504,1,0,0:0:0:0:
184,58,28671,2,0,P|243:80|234:157,1,146.666671142578,0|2,3:2|0:0,0:0:0:0:
238,153,29171,2,0,L|272:143,2,33.3333333333333,2|0|0,3:2|0:0|0:0,0:0:0:0:
317,76,29671,2,0,L|369:106,2,50.0000019073487,0|0|0,3:2|0:0|0:0,0:0:0:0:
429,36,30171,2,0,L|446:101,2,66.6666666666667,0|0|2,3:2|0:0|0:0,0:0:0:0:
512,171,30671,6,0,P|434:209|424:333,1,220.000006713867,2|0,3:2|3:2,0:0:0:0:
423,331,31504,1,0,0:0:0:0:
308,384,31671,2,0,P|291:327|206:332,1,146.666671142578,0|2,3:2|0:0,0:0:0:0:
47,249,32170,6,0,P|109:275|72:184,2,220.000006713867,2|0|0,3:2|3:2|3:2,0:0:0:0:
47,249,33504,1,2,0:0:0:0:
164,85,33671,2,0,B|167:131|198:154|208:138|245:162|237:211,1,146.666671142578,2|0,3:2|0:0,0:0:0:0:
296,261,34171,2,0,P|337:219|237:202,1,220.000006713867,2|0,3:2|3:2,0:0:0:0:
238,201,35004,2,0,L|221:262,1,36.6666677856446,2|0,0:0|0:0,0:0:0:0:
101,379,35171,6,0,P|142:318|219:325,1,146.666671142578,2|2,3:2|0:0,0:0:0:0:
209,319,35671,2,0,P|148:283|144:213,1,146.666671142578,10|2,3:2|0:0,0:0:0:0:
104,145,36171,2,0,L|33:163,2,73.3333355712891,2|2|2,3:2|0:0|0:0,0:0:0:0:
182,36,36671,6,0,P|252:39|288:100,1,146.666671142578,10|2,3:2|0:0,0:0:0:0:
323,221,37171,1,2,3:2:0:0:
398,68,37337,1,2,0:0:0:0:
431,192,37504,1,2,0:0:0:0:
288,100,37671,2,0,L|253:111,5,36.6666677856446,2|0|2|0|2|0,3:2|0:0|0:0|0:0|0:0|0:0,0:0:0:0:
232,185,38171,6,0,P|208:129|121:135,1,146.666671142578,6|0,3:2|0:0,0:0:0:0:
16,78,38671,1,0,3:2:0:0:
97,56,38837,1,0,0:0:0:0:
62,98,39004,1,0,0:0:0:0:
112,197,39171,2,0,L|136:104,2,73.3333355712891,0|0|2,3:2|0:0|0:0,0:0:0:0:
195,250,39671,6,0,L|148:262,2,33.3333333333333,2|0|0,3:2|0:0|0:0,0:0:0:0:
55,298,40171,2,0,L|110:312,2,50.0000019073487,0|0|0,3:2|0:0|0:0,0:0:0:0:
232,367,40671,2,0,L|162:385,2,66.6666666666667,0|0|2,3:2|0:0|0:0,0:0:0:0:
382,384,41171,6,0,P|338:325|340:245,1,146.666671142578,2|0,3:2|0:0,0:0:0:0:
475,218,41671,1,0,3:2:0:0:
394,196,41837,1,0,0:0:0:0:
429,238,42004,1,0,0:0:0:0:
311,161,42171,2,0,L|329:231,2,73.3333355712891,0|2|2,3:2|0:0|0:0,0:0:0:0:
433,27,42671,6,0,L|479:39,2,33.3333333333333,2|0|0,3:2|0:0|0:0,0:0:0:0:
326,124,43171,2,0,L|418:99,2,50.0000019073487,0|0|0,3:2|0:0|0:0,0:0:0:0:
210,0,43671,2,0,L|318:28,2,66.6666666666667,0|0|2,3:2|0:0|0:0,0:0:0:0:
110,108,44171,6,0,L|172:339,2,220.000006713867,2|0|0,3:2|3:2|3:2,0:0:0:0:
110,108,45504,1,2,0:0:0:0:
257,154,45671,2,0,P|169:214|166:320,2,220.000006713867,2|0|0,3:2|3:2|3:2,0:0:0:0:
257,154,47004,1,2,0:0:0:0:
371,326,47171,6,0,P|422:267|497:261,1,146.666671142578,2|0,3:2|0:0,0:0:0:0:
487,259,47671,2,0,P|395:263|460:198,1,220.000006713867,2|0,3:2|3:2,0:0:0:0:
443,194,48504,2,0,L|426:132,1,36.6666677856446,2|0,0:0|0:0,0:0:0:0:
291,69,48671,6,0,P|237:92|246:150,1,125,6|0,3:2|0:0,0:0:0:0:
245,149,49004,1,2,0:0:0:0:
366,215,49171,2,0,L|320:385,1,166.666666666667,8|2,3:2|0:0,0:0:0:0:
166,290,49671,1,2,3:2:0:0:
199,217,49837,1,2,0:0:0:0:
278,227,50004,1,2,0:0:0:0:
170,373,50171,6,0,B|115:359|115:359|93:318|93:318|31:302,1,166.666666666667,10|2,3:2|0:0,0:0:0:0:
166,290,50671,1,2,3:2:0:0:
209,168,50837,1,2,0:0:0:0:
111,206,51004,1,2,0:0:0:0:
85,85,51171,2,0,L|44:95,5,41.6666666666667,10|0|2|0|2|0,3:2|0:0|0:0|0:0|0:0|0:0,0:0:0:0:
10,20,51671,6,0,L|180:65,1,166.666666666667,2|2,3:2|0:0,0:0:0:0:
287,143,52171,2,0,L|457:97,1,166.666666666667,10|2,3:2|0:0,0:0:0:0:
392,150,52671,1,2,3:2:0:0:
465,177,52837,1,2,0:0:0:0:
445,258,53003,1,2,0:0:0:0:
392,150,53171,1,2,3:2:0:0:
499,37,53337,1,2,3:2:0:0:
499,37,53421,1,0,3:2:0:0:
499,37,53504,1,2,3:2:0:0:
392,150,53671,1,2,3:2:0:0:
257,77,53837,1,2,3:2:0:0:
344,26,54004,1,2,3:2:0:0:
283,222,54171,1,14,0:0:0:0:
54,92,54671,5,2,0:0:0:0:
115,140,54837,2,0,L|102:186,2,33.3333333333333,2|0|2,0:0|0:0|0:0,0:0:0:0:
190,111,55171,1,2,0:0:0:0:
239,174,55338,1,2,0:0:0:0:
313,145,55504,1,2,0:0:0:0:
370,201,55671,2,0,P|422:185|404:109,1,133.333333333333,2|2,0:0|0:0,0:0:0:0:
472,29,56171,5,2,0:0:0:0:
451,104,56337,2,0,L|438:150,2,33.3333333333333,0|0|2,0:0|0:0|0:0,0:0:0:0:
370,201,56671,1,2,0:0:0:0:
378,231,56837,1,0,0:0:0:0:
386,262,57004,1,0,0:0:0:0:
491,290,57171,2,0,B|471:333|420:331|420:331|441:320|460:287,1,133.333333333333
386,262,57671,5,2,0:0:0:0:
329,319,57837,2,0,L|341:364,2,33.3333333333333,2|0|2,0:0|0:0|0:0,0:0:0:0:
251,273,58171,1,2,0:0:0:0:
188,338,58337,1,2,0:0:0:0:
112,291,58504,1,2,0:0:0:0:
247,185,58671,2,0,L|272:278,2,73.3333355712891,2|2|2,0:0|0:0|0:0,0:0:0:0:
165,81,59171,5,2,0:0:0:0:
239,51,59337,1,0,0:0:0:0:
288,114,59504,1,2,0:0:0:0:
339,92,59671,1,2,0:0:0:0:
362,122,59837,1,0,0:0:0:0:
386,111,60004,1,0,0:0:0:0:
400,122,60171,2,0,L|445:135,2,33.3333333333333
495,175,60671,5,2,0:0:0:0:
435,224,60837,2,0,L|447:270,2,25.0000009536744
512,280,61171,1,0,0:0:0:0:
464,342,61337,1,0,0:0:0:0:
392,313,61504,1,2,0:0:0:0:
343,373,61671,2,0,P|294:351|240:348,1,100.000003814697,2|0,0:0|0:0,0:0:0:0:
194,293,62171,6,0,L|206:246,4,25.0000009536744,2|0|0|0|0,0:0|0:0|0:0|0:0|0:0,0:0:0:0:
155,190,62671,1,2,0:0:0:0:
223,130,62837,1,0,0:0:0:0:
155,70,63004,1,0,0:0:0:0:
221,0,63171,2,0,P|244:31|305:44,1,100.000003814697,2|0,0:0|0:0,0:0:0:0:
435,143,63671,6,0,L|422:189,2,33.3333333333333,2|0|0,0:0|0:0|0:0,0:0:0:0:
356,212,64170,2,0,L|381:256,2,50.0000019073487,2|2|2,0:0|0:0|0:0,0:0:0:0:
304,318,64670,2,0,L|373:336,2,66.6666666666667,2|2|2,0:0|0:0|0:0,0:0:0:0:
178,384,65170,2,0,L|155:301,2,76.6666681289673,2|2|2,0:0|0:0|0:0,0:0:0:0:
180,204,65671,2,0,L|255:248,2,86.6666626993817,2|2|2,0:0|0:0|0:0,0:0:0:0:
47,286,66171,2,0,L|3:261,5,50.0000019073487,2|0|0|0|0|0,0:0|0:0|0:0|0:0|0:0|0:0,0:0:0:0:
0,243,66671,6,0,L|113:217,1,106.666666666667,2|2,3:2|0:0,0:0:0:0:
164,171,67171,2,0,L|187:67,1,106.666666666667,10|2,0:0|0:0,0:0:0:0:
129,15,67671,2,0,P|88:17|75:35,2,53.3333333333333,2|2|2,3:2|0:0|0:0,0:0:0:0:
187,67,68171,2,0,L|213:180,1,106.666666666667,10|2,0:0|0:0,0:0:0:0:
257,236,68671,2,0,P|278:250|304:246,2,53.3333333333333,2|2|2,3:2|0:0|0:0,0:0:0:0:
431,163,69171,2,0,L|477:154,5,26.6666666666667,10|0|2|0|2|0,0:0|0:0|0:0|0:0|0:0|0:0,0:0:0:0:
431,163,69671,6,0,L|318:137,1,106.666666666667,2|2,3:2|0:0,0:0:0:0:
255,172,70171,2,0,L|229:285,1,106.666666666667,10|2,0:0|0:0,0:0:0:0:
262,349,70671,2,0,L|302:384,2,53.3333333333333,2|2|2,3:2|0:0|0:0,0:0:0:0:
183,224,71171,2,0,L|132:241,2,53.3333333333333,10|2|2,0:0|0:0|0:0,0:0:0:0:
269,239,71671,2,0,L|279:186,2,53.3333333333333,2|2|2,3:2|0:0|0:0,0:0:0:0:
197,296,72171,2,0,L|146:278,2,53.3333333333333,10|0|0,0:0|0:0|0:0,0:0:0:0:
262,349,72671,6,0,L|375:323,1,106.666666666667,2|2,3:2|0:0,0:0:0:0:
428,280,73171,2,0,L|454:167,1,106.666666666667,10|2,0:0|0:0,0:0:0:0:
511,122,73671,2,0,P|511:95|495:75,2,53.3333333333333,2|2|2,3:2|0:0|0:0,0:0:0:0:
451,176,74171,2,0,L|338:202,1,106.666666666667,10|2,0:0|0:0,0:0:0:0:
275,170,74671,2,0,P|274:143|290:123,2,53.3333333333333,2|2|2,3:2|0:0|0:0,0:0:0:0:
144,264,75171,2,0,L|135:231,5,26.6666666666667,10|0|2|0|2|0,0:0|0:0|0:0|0:0|0:0|0:0,0:0:0:0:
144,264,75671,6,0,L|41:288,1,106.666666666667,2|2,3:2|0:0,0:0:0:0:
15,361,76171,2,0,L|118:384,1,106.666666666667,10|2,0:0|0:0,0:0:0:0:
202,357,76671,2,0,L|237:316,2,53.3333333333333,2|2|2,3:2|0:0|0:0,0:0:0:0:
345,234,77171,2,0,L|327:183,2,53.3333333333333,10|2|2,0:0|0:0|0:0,0:0:0:0:
348,107,77671,2,0,L|306:98,5,26.6666666666667,10|0|2|0|2|0,3:2|0:0|0:0|0:0|0:0|0:0,0:0:0:0:
262,58,78171,2,0,L|233:89,5,26.6666666666667,10|0|2|0|2|0,0:0|0:0|0:0|0:0|0:0|0:0,0:0:0:0:
165,88,78671,6,0,L|206:242,1,139.999995727539,10|0,3:2|0:0,0:0:0:0:
207,239,79004,1,2,0:0:0:0:
55,384,79171,2,0,P|69:311|172:328,1,186.666660970052,10|2,3:2|0:0,0:0:0:0:
412,348,79671,1,10,3:2:0:0:
268,384,79837,1,2,0:0:0:0:
307,243,80004,1,2,0:0:0:0:
412,348,80171,2,0,L|230:293,1,186.666660970052,10|2,3:2|0:0,0:0:0:0:
51,240,80671,5,10,3:2:0:0:
51,240,80837,1,2,0:0:0:0:
97,378,81004,1,2,0:0:0:0:
233,294,81171,6,0,L|187:306,1,46.6666652425131,10|0,3:2|0:0,0:0:0:0:
216,219,81337,2,0,L|170:232,1,46.6666652425131,2|0,0:0|0:0,0:0:0:0:
121,109,81504,1,2,0:0:0:0:
121,109,81587,1,0,0:0:0:0:
121,109,81671,6,0,L|260:147,1,139.999995727539,10|0,3:2|0:0,0:0:0:0:
267,151,82004,1,2,0:0:0:0:
483,202,82171,2,0,P|474:128|370:136,1,186.666660970052,10|2,3:2|0:0,0:0:0:0:
191,232,82671,1,10,3:2:0:0:
286,172,82837,1,2,0:0:0:0:
372,277,83004,1,2,0:0:0:0:
185,345,83171,6,0,L|160:252,1,93.3333304850261,10|2,3:2|0:0,0:0:0:0:
203,147,83504,1,2,0:0:0:0:
293,315,83671,5,10,3:2:0:0:
389,360,83837,1,2,0:0:0:0:
464,268,84004,1,2,0:0:0:0:
381,182,84171,2,0,L|352:73,2,93.3333304850261,10|0|0,3:2|0:0|0:0,0:0:0:0:
166,282,84671,6,0,L|207:128,1,139.999995727539,10|0,3:2|0:0,0:0:0:0:
220,130,85004,1,2,0:0:0:0:
49,67,85171,2,0,P|133:81|158:0,1,186.666660970052,10|2,3:2|0:0,0:0:0:0:
298,141,85671,1,10,3:2:0:0:
403,36,85837,1,2,0:0:0:0:
259,0,86004,1,2,0:0:0:0:
298,141,86171,2,0,L|479:92,1,186.666660970052,10|2,3:2|0:0,0:0:0:0:
242,206,86671,6,0,P|206:169|143:165,2,93.3333304850261,10|2|2,3:2|0:0|0:0,0:0:0:0:
347,337,87171,2,0,L|409:353,1,46.6666652425131,10|0,3:2|0:0,0:0:0:0:
459,313,87337,2,0,L|504:325,1,46.6666652425131,2|0,0:0|0:0,0:0:0:0:
276,377,87504,1,2,0:0:0:0:
276,377,87587,1,0,0:0:0:0:
276,377,87671,6,0,P|242:344|235:286,1,93.3333304850261,10|2,3:2|0:0,0:0:0:0:
304,250,88004,1,2,0:0:0:0:
102,191,88171,2,0,L|68:314,1,93.3333304850261,10|2,3:2|0:0,0:0:0:0:
146,370,88504,1,2,0:0:0:0:
200,199,88671,5,10,3:2:0:0:
4,264,88837,1,2,0:0:0:0:
174,235,89004,1,2,0:0:0:0:
143,92,89171,1,10,3:2:0:0:
256,192,89254,12,10,90671,0:0:0:0:
35,255,91171,6,0,L|87:243,1,53.3333333333333,8|0,0:0|0:0,0:0:0:0:
151,194,91504,2,0,L|163:142,2,53.3333333333333,0|8|0,0:0|0:0|0:0,0:0:0:0:
213,256,92004,1,2,0:0:0:0:
213,256,92171,2,0,L|225:308,1,53.3333333333333,10|0,0:0|0:0,0:0:0:0:
279,203,92504,2,0,L|291:151,2,53.3333333333333,0|8|0,0:0|0:0|0:0,0:0:0:0:
351,257,93004,1,0,0:0:0:0:
351,257,93171,2,0,L|363:309,1,53.3333333333333,8|0,0:0|0:0,0:0:0:0:
432,349,93504,1,2,0:0:0:0:
362,308,93671,6,0,L|381:189,1,106.666666666667,10|0,0:0|0:0,0:0:0:0:
436,147,94171,2,0,L|488:135,1,53.3333333333333,8|0,0:0|0:0,0:0:0:0:
387,80,94504,2,0,L|415:34,2,53.3333333333333,0|8|2,0:0|0:0|0:0,0:0:0:0:
308,70,95004,1,2,0:0:0:0:
308,70,95171,2,0,L|295:18,1,53.3333333333333,10|0,0:0|0:0,0:0:0:0:
241,119,95504,2,0,L|195:90,2,53.3333333333333,0|8|0,0:0|0:0|0:0,0:0:0:0:
231,198,96004,1,0,0:0:0:0:
231,198,96171,2,0,L|179:210,1,53.3333333333333,8|0,0:0|0:0,0:0:0:0:
123,270,96504,1,2,0:0:0:0:
179,209,96671,6,0,L|298:228,1,106.666666666667,10|0,0:0|0:0,0:0:0:0:
348,276,97171,2,0,L|400:264,1,53.3333333333333,8|0,0:0|0:0,0:0:0:0:
439,194,97504,2,0,L|491:182,2,53.3333333333333,0|8|0,0:0|0:0|0:0,0:0:0:0:
367,148,98004,1,2,0:0:0:0:
367,148,98171,2,0,L|355:96,1,53.3333333333333,10|0,0:0|0:0,0:0:0:0:
285,57,98504,2,0,L|273:5,2,53.3333333333333,0|8|0,0:0|0:0|0:0,0:0:0:0:
219,109,99004,1,0,0:0:0:0:
219,109,99171,2,0,L|207:161,1,53.3333333333333,8|0,0:0|0:0,0:0:0:0:
137,200,99504,1,2,0:0:0:0:
78,139,99671,6,0,L|9:125,2,53.3333333333333,10|0|0,0:0|0:0|0:0,0:0:0:0:
208,244,100171,2,0,L|277:230,2,53.3333333333333,10|0|0,0:0|0:0|0:0,0:0:0:0:
78,349,100671,2,0,L|9:363,2,53.3333333333333,8|0|2,0:0|0:0|0:0,0:0:0:0:
208,244,101171,6,0,P|267:244|295:301,1,106.666666666667,10|2,0:0|0:0,0:0:0:0:
131,263,101671,2,0,P|101:210|136:159,1,106.666666666667,10|2,0:0|0:0,0:0:0:0:
181,127,102171,1,10,0:0:0:0:
258,132,102337,1,2,0:0:0:0:
293,201,102504,1,2,0:0:0:0:
368,210,102671,2,0,P|384:161|355:118,1,106.666666666667,10|2,0:0|0:0,0:0:0:0:
220,195,103171,5,10,0:0:0:0:
214,224,103337,1,2,0:0:0:0:
208,253,103504,1,2,0:0:0:0:
288,297,103671,5,10,0:0:0:0:
297,340,103837,1,2,0:0:0:0:
306,384,104004,1,2,0:0:0:0:
107,384,104171,6,0,P|89:305|10:304,1,159.999995117188,6|0,3:2|0:0,0:0:0:0:
26,301,104671,2,0,P|83:253|56:183,1,159.999995117188,8|0,3:2|0:0,0:0:0:0:
157,117,105171,2,0,P|174:153|228:166,1,79.9999975585938,0|0,3:2|0:0,0:0:0:0:
209,168,105504,1,10,0:0:0:0:
335,278,105671,2,0,P|369:242|412:239,1,79.9999975585938,2|0,3:2|0:0,0:0:0:0:
398,236,106004,1,0,0:0:0:0:
296,384,106171,2,0,P|233:316|156:315,1,159.999995117188,8|0,3:2|0:0,0:0:0:0:
169,310,106671,1,0,3:2:0:0:
27,198,106837,6,0,L|11:259,1,39.9999987792969
97,276,107004,1,2,0:0:0:0:
97,276,107087,1,0,0:0:0:0:
97,276,107171,2,0,L|51:105,1,159.999995117188,2|0,3:2|0:0,0:0:0:0:
237,45,107671,2,0,L|212:137,1,79.9999975585938,8|0,3:2|0:0,0:0:0:0:
122,24,108004,1,0,0:0:0:0:
196,216,108171,2,0,P|223:164|319:146,1,159.999995117188,0|10,3:2|0:0,0:0:0:0:
458,95,108671,6,0,L|433:187,1,79.9999975585938,2|0,3:2|0:0,0:0:0:0:
337,59,109004,1,0,0:0:0:0:
512,178,109171,2,0,P|455:207|449:313,1,159.999995117188,8|0,3:2|0:0,0:0:0:0:
356,364,109671,1,0,3:2:0:0:
252,292,109837,1,0,0:0:0:0:
181,384,110004,1,2,0:0:0:0:
61,247,110171,6,0,L|102:92,1,159.999995117188,2|0,3:2|0:0,0:0:0:0:
10,10,110671,1,8,3:2:0:0:
108,98,110837,2,0,L|185:77,1,79.9999975585938
319,0,111171,2,0,L|457:37,1,119.999996337891,0|0,3:2|0:0,0:0:0:0:
446,45,111504,1,10,0:0:0:0:
263,127,111671,2,0,P|309:162|342:259,1,159.999995117188,2|0,3:2|0:0,0:0:0:0:
383,331,112171,2,0,P|419:277|404:247,1,79.9999975585938,8|0,3:2|0:0,0:0:0:0:
464,211,112504,1,0,0:0:0:0:
276,369,112671,2,0,P|269:301|181:284,1,159.999995117188,0|2,3:2|0:0,0:0:0:0:
28,322,113171,6,0,L|59:206,1,119.999996337891,2|0,3:2|0:0,0:0:0:0:
39,181,113504,1,0,0:0:0:0:
163,63,113671,2,0,P|215:26|198:127,1,239.999992675781,10|0,3:2|3:2,0:0:0:0:
200,127,114504,1,2,0:0:0:0:
279,239,114671,6,0,P|187:247|110:299,1,186.666660970052,6|2,3:2|0:0,0:0:0:0:
110,299,115171,2,0,P|101:207|49:130,1,186.666660970052,10|2,3:2|0:0,0:0:0:0:
106,18,115671,2,0,P|60:16|25:46,2,93.3333304850261,2|2|2,3:2|0:0|0:0,0:0:0:0:
172,127,116171,2,0,L|372:166,1,186.666660970052,2|2,3:2|0:0,0:0:0:0:
457,241,116671,5,10,3:2:0:0:
444,168,116837,1,2,0:0:0:0:
430,95,117004,1,2,0:0:0:0:
286,9,117171,1,10,3:2:0:0:
300,81,117338,1,2,0:0:0:0:
360,30,117504,1,2,0:0:0:0:
174,142,117671,6,0,P|145:65|225:56,1,186.666660970052,2|2,3:2|0:0,0:0:0:0:
317,220,118171,2,0,B|380:204|380:204|397:173|397:173|481:151,1,186.666660970052,10|2,3:2|0:0,0:0:0:0:
512,78,118671,1,2,3:2:0:0:
342,48,118837,1,2,0:0:0:0:
317,220,119004,1,2,0:0:0:0:
481,253,119171,1,10,3:2:0:0:
421,195,119337,5,2,3:2:0:0:
421,195,119421,1,0,3:2:0:0:
421,195,119504,1,2,3:2:0:0:
291,299,119671,1,2,3:2:0:0:
244,130,119837,1,2,3:2:0:0:
373,259,120004,1,2,3:2:0:0:
215,378,120171,1,14,0:0:0:0:
215,378,120671,6,0,L|138:363,2,53.3333333333333,2|2|2,0:0|0:0|0:0,0:0:0:0:
165,251,121171,2,0,L|113:310,2,53.3333333333333,2|2|2,0:0|0:0|0:0,0:0:0:0:
277,336,121671,2,0,B|309:296|309:296|271:248,1,106.666666666667,2|2,0:0|0:0,0:0:0:0:
126,186,122171,6,0,P|86:231|100:289,1,106.666666666667,2|2,0:0|0:0,0:0:0:0:
262,146,122671,2,0,P|319:165|336:222,1,106.666666666667,2|0,0:0|0:0,0:0:0:0:
117,126,123171,2,0,P|57:114|14:154,1,106.666666666667
7,257,123671,6,0,L|20:308,2,53.3333333333333,2|2|2,0:0|0:0|0:0,0:0:0:0:
80,371,124171,2,0,L|116:308,2,53.3333333333333,2|2|2,0:0|0:0|0:0,0:0:0:0:
167,261,124671,2,0,P|218:271|251:311,1,106.666666666667,2|2,0:0|0:0,0:0:0:0:
398,371,125171,6,0,L|414:309,1,53.3333333333333,2|0,0:0|0:0,0:0:0:0:
497,260,125504,1,2,0:0:0:0:
508,266,125671,2,0,L|476:143,1,106.666666666667,2|0,0:0|0:0,0:0:0:0:
461,85,126171,2,0,P|476:60|516:52,2,53.3333333333333
382,174,126671,6,0,L|258:140,1,106.666666666667,2|0,0:0|0:0,0:0:0:0:
219,200,127171,2,0,L|247:303,1,106.666666666667,0|2,0:0|0:0,0:0:0:0:
335,347,127671,2,0,P|362:329|324:337,1,106.666666666667,2|0,0:0|0:0,0:0:0:0:
181,366,128170,6,0,P|164:321|103:299,1,106.666666666667,2|0,0:0|0:0,0:0:0:0:
106,206,128670,2,0,P|152:214|202:171,1,106.666666666667,2|0,0:0|0:0,0:0:0:0:
286,232,129170,2,0,P|255:267|267:332,1,106.666666666667,2|0,0:0|0:0,0:0:0:0:
387,373,129670,5,2,0:0:0:0:
407,295,129837,1,2,0:0:0:0:
428,218,130004,1,2,0:0:0:0:
480,120,130170,5,2,0:0:0:0:
492,170,130337,1,2,0:0:0:0:
506,220,130504,1,2,0:0:0:0:
447,291,130670,5,2,0:0:0:0:
412,299,130837,1,2,0:0:0:0:
377,309,131004,1,2,0:0:0:0:
307,243,131171,6,0,L|245:226,1,53.3333333333333,2|2,0:0|0:0,0:0:0:0:
206,327,131504,2,0,L|257:313,1,53.3333333333333,2|2,0:0|0:0,0:0:0:0:
390,233,131837,2,0,L|376:284,1,53.3333333333333,2|2,0:0|0:0,0:0:0:0:
300,159,132171,2,0,L|361:142,2,53.3333333333333,2|2|2,0:0|0:0|0:0,0:0:0:0:
206,249,132671,6,0,L|74:224,1,119.999996337891,10|0,0:0|0:0,0:0:0:0:
76,225,133004,1,2,0:0:0:0:
165,141,133171,1,10,0:0:0:0:
165,141,133504,1,2,0:0:0:0:
76,225,133671,6,0,L|101:357,1,119.999996337891,10|0,0:0|0:0,0:0:0:0:
102,356,134004,1,2,0:0:0:0:
251,324,134171,1,10,0:0:0:0:
251,324,134504,1,2,0:0:0:0:
395,297,134671,1,10,0:0:0:0:
395,297,135004,1,2,0:0:0:0:
230,242,135171,6,0,L|213:159,1,79.9999975585938,10|2,0:0|0:0,0:0:0:0:
213,163,135504,1,2,0:0:0:0:
305,88,135671,6,0,L|422:110,1,119.999996337891,10|0,0:0|0:0,0:0:0:0:
434,112,136004,1,2,0:0:0:0:
344,200,136171,1,10,0:0:0:0:
344,200,136504,1,2,0:0:0:0:
434,112,136671,6,0,B|394:65|394:65|325:82,1,119.999996337891,10|0,0:0|0:0,0:0:0:0:
326,83,137004,1,2,0:0:0:0:
185,116,137171,1,10,0:0:0:0:
185,116,137504,5,2,0:0:0:0:
110,138,137671,1,10,0:0:0:0:
88,61,137837,1,2,0:0:0:0:
165,38,138004,1,2,0:0:0:0:
266,130,138171,6,0,B|249:195|249:195|200:221|200:221|181:295,1,199.999993896485,10|0,0:0|0:0,0:0:0:0:
181,296,138671,6,0,L|313:273,1,119.999996337891,10|0,3:2|0:0,0:0:0:0:
313,272,139004,1,2,0:0:0:0:
341,201,139171,2,0,L|472:224,1,119.999996337891,10|0,3:2|0:0,0:0:0:0:
472,225,139504,1,2,0:0:0:0:
276,151,139671,6,0,L|252:19,1,119.999996337891,10|0,3:2|0:0,0:0:0:0:
252,20,140004,1,2,0:0:0:0:
203,194,140171,2,0,L|71:217,1,119.999996337891,10|0,3:2|0:0,0:0:0:0:
72,218,140504,1,2,0:0:0:0:
0,148,140671,6,0,B|40:101|40:101|109:118,1,119.999996337891,10|0,3:2|0:0,0:0:0:0:
108,119,141004,1,2,0:0:0:0:
82,294,141171,2,0,B|41:304|41:304|18:277,1,79.9999975585938,10|2,3:2|0:0,0:0:0:0:
17,276,141504,1,2,0:0:0:0:
178,219,141671,6,0,L|154:350,1,119.999996337891,10|0,3:2|0:0,0:0:0:0:
154,350,142004,1,2,0:0:0:0:
237,364,142171,2,0,L|260:232,1,119.999996337891,10|0,3:2|0:0,0:0:0:0:
261,233,142504,1,2,0:0:0:0:
154,350,142671,6,0,L|285:326,1,119.999996337891,10|0,3:2|0:0,0:0:0:0:
285,326,143004,1,2,0:0:0:0:
469,269,143171,2,0,L|337:245,1,119.999996337891,10|0,3:2|0:0,0:0:0:0:
338,245,143504,1,2,0:0:0:0:
316,170,143671,1,10,3:2:0:0:
390,147,143838,1,2,0:0:0:0:
413,222,144004,1,2,0:0:0:0:
250,128,144171,6,0,B|184:144|184:144|158:193|158:193|84:212,1,199.999993896485,10|0,3:2|0:0,0:0:0:0:
83,212,144671,6,0,L|64:134,1,79.9999975585938,10|0,3:2|0:0,0:0:0:0:
112,7,145004,1,2,0:0:0:0:
112,7,145171,2,0,L|141:123,1,119.999996337891,10|0,3:2|0:0,0:0:0:0:
145,136,145504,1,2,0:0:0:0:
83,212,145671,2,0,L|112:328,1,119.999996337891,10|0,3:2|0:0,0:0:0:0:
118,348,146004,1,2,0:0:0:0:
166,229,146171,6,0,L|184:307,1,79.9999975585938,10|0,3:2|0:0,0:0:0:0:
279,371,146504,1,2,0:0:0:0:
279,371,146671,2,0,L|261:293,1,79.9999975585938,10|0,3:2|0:0,0:0:0:0:
301,203,147004,1,2,0:0:0:0:
301,203,147171,1,10,3:2:0:0:
380,211,147337,1,2,0:0:0:0:
463,219,147504,1,2,0:0:0:0:
463,219,147671,6,0,L|444:100,1,119.999996337891,10|0,3:2|0:0,0:0:0:0:
443,87,148004,1,2,0:0:0:0:
380,211,148171,2,0,L|361:92,1,119.999996337891,10|0,3:2|0:0,0:0:0:0:
360,79,148504,1,2,0:0:0:0:
301,203,148671,2,0,L|282:84,1,119.999996337891,10|0,3:2|0:0,0:0:0:0:
281,71,149004,1,2,0:0:0:0:
206,93,149171,6,0,L|224:211,1,119.999996337891,10|0,3:2|0:0,0:0:0:0:
226,225,149504,1,2,0:0:0:0:
236,304,149671,1,10,3:2:0:0:
157,319,149837,1,2,0:0:0:0:
84,336,150004,1,2,0:0:0:0:
84,336,150087,1,0,0:0:0:0:
84,336,150171,2,0,L|63:177,1,159.999995117188,10|0,3:2|0:0,0:0:0:0:
55,46,150671,6,0,B|108:18|108:18|163:40,1,119.999996337891,10|0,3:2|0:0,0:0:0:0:
176,53,151004,1,2,0:0:0:0:
246,113,151171,2,0,B|299:141|299:141|354:118,1,119.999996337891,10|0,3:2|0:0,0:0:0:0:
367,106,151504,1,2,0:0:0:0:
432,40,151671,2,0,B|475:27|475:27|505:43,1,79.9999975585938,10|0,3:2|0:0,0:0:0:0:
512,130,152004,1,2,0:0:0:0:
431,189,152171,6,0,L|447:307,1,119.999996337891,10|0,3:2|0:0,0:0:0:0:
451,323,152504,1,2,0:0:0:0:
361,384,152671,2,0,L|344:265,1,119.999996337891,10|0,3:2|0:0,0:0:0:0:
341,250,153004,1,2,0:0:0:0:
260,251,153171,1,10,3:2:0:0:
244,172,153337,1,2,0:0:0:0:
234,92,153504,1,2,0:0:0:0:
230,11,153671,6,0,L|115:46,1,119.999996337891,10|0,3:2|0:0,0:0:0:0:
102,52,154004,1,2,0:0:0:0:
24,155,154171,2,0,L|138:119,1,119.999996337891,10|0,3:2|0:0,0:0:0:0:
152,114,154504,1,2,0:0:0:0:
244,172,154671,2,0,L|129:207,1,119.999996337891,10|0,3:2|0:0,0:0:0:0:
116,213,155004,1,2,0:0:0:0:
260,251,155171,6,0,L|374:215,1,119.999996337891,2|0,3:2|0:0,0:0:0:0:
394,210,155504,1,2,0:0:0:0:
400,130,155671,1,2,3:2:0:0:
320,127,155837,1,2,0:0:0:0:
320,46,156004,1,2,0:0:0:0:
400,130,156171,1,2,3:2:0:0:
479,132,156337,1,0,0:0:0:0:
475,212,156504,1,0,0:0:0:0:
474,292,156671,6,0,L|359:327,1,119.999996337891,2|0,3:2|0:0,0:0:0:0:
359,327,157004,2,0,L|365:366,1,39.9999987792969,6|0,0:0|0:0,0:0:0:0:
233,358,157171,6,0,P|209:285|261:230,1,159.999995117188,2|2,3:2|0:0,0:0:0:0:
385,175,157671,1,10,3:2:0:0:
374,251,157837,1,2,0:0:0:0:
359,327,158004,1,2,0:0:0:0:
509,216,158171,2,0,P|459:158|385:175,1,159.999995117188,2|2,3:2|0:0,0:0:0:0:
299,236,158671,5,10,3:2:0:0:
261,230,158837,1,2,0:0:0:0:
223,223,159004,1,2,0:0:0:0:
154,171,159171,1,2,3:2:0:0:
116,177,159337,1,2,0:0:0:0:
78,184,159504,1,2,0:0:0:0:
242,141,159671,6,0,L|277:26,1,119.999996337891,2|0,3:2|0:0,0:0:0:0:
276,26,160004,2,0,L|237:32,1,39.9999987792969,6|0,0:0|0:0,0:0:0:0:
304,204,160171,6,0,P|376:227|431:175,1,159.999995117188,2|2,3:2|0:0,0:0:0:0:
242,141,160671,1,10,3:2:0:0:
224,226,160837,1,2,0:0:0:0:
304,204,161004,1,2,0:0:0:0:
335,65,161171,5,2,3:2:0:0:
196,34,161337,1,2,0:0:0:0:
165,173,161504,1,2,0:0:0:0:
304,204,161671,5,10,3:2:0:0:
165,173,161837,1,2,0:0:0:0:
335,65,162004,1,2,0:0:0:0:
434,235,162171,2,0,L|514:254,2,79.9999975585938,2|0|0,3:2|0:0|0:0,0:0:0:0:
275,126,162671,6,0,L|164:172,1,119.999996337891,2|0,3:2|0:0,0:0:0:0:
165,173,163004,2,0,L|159:212,1,39.9999987792969,6|0,0:0|0:0,0:0:0:0:
335,57,163171,6,0,L|171:27,1,159.999995117188,2|2,3:2|0:0,0:0:0:0:
0,125,163671,1,10,3:2:0:0:
76,110,163838,1,2,0:0:0:0:
152,99,164004,1,2,0:0:0:0:
23,24,164171,2,0,L|53:188,1,159.999995117188,2|2,3:2|0:0,0:0:0:0:
110,240,164671,5,10,3:2:0:0:
148,246,164837,1,2,0:0:0:0:
186,253,165004,1,2,0:0:0:0:
266,213,165171,1,2,3:2:0:0:
283,178,165337,1,2,0:0:0:0:
301,144,165504,1,2,0:0:0:0:
425,163,165671,6,0,L|460:278,1,119.999996337891,2|0,3:2|0:0,0:0:0:0:
459,277,166004,2,0,L|420:271,1,39.9999987792969,6|0,0:0|0:0,0:0:0:0:
353,357,166171,6,0,L|513:382,1,159.999995117188,2|2,3:2|0:0,0:0:0:0:
259,249,166671,1,10,3:2:0:0:
194,321,166837,1,2,0:0:0:0:
306,303,167004,1,2,0:0:0:0:
420,200,167171,5,2,3:2:0:0:
499,285,167337,1,2,0:0:0:0:
366,251,167504,1,2,0:0:0:0:
263,149,167671,5,10,3:2:0:0:
169,234,167837,1,2,0:0:0:0:
307,207,168004,1,2,0:0:0:0:
208,92,168171,2,0,L|150:81,5,39.9999987792969,10|8|8|8|8|8,3:2|0:0|0:0|0:0|0:0|0:0,0:0:0:0:
277,55,168671,6,0,L|342:42,1,66.6666666666667,6|2,0:0|0:0,0:0:0:0:
445,140,169004,1,2,0:0:0:0:
445,140,169171,2,0,L|379:127,1,66.6666666666667,2|2,0:0|0:0,0:0:0:0:
286,229,169504,1,2,0:0:0:0:
286,229,169671,2,0,L|351:216,1,66.6666666666667,2|0,0:0|0:0,0:0:0:0:
407,273,170004,1,2,0:0:0:0:
379,340,170171,2,0,L|249:370,1,133.333333333333,2|2,0:0|0:0,0:0:0:0:
160,357,170671,1,2,0:0:0:0:
127,363,170837,1,0,0:0:0:0:
94,370,171004,1,0,0:0:0:0:
61,376,171171,1,0,0:0:0:0:
204,19,171671,6,0,L|138:6,1,66.6666666666667,2|2,0:0|0:0,0:0:0:0:
36,104,172004,1,2,0:0:0:0:
36,104,172171,2,0,L|101:91,1,66.6666666666667,2|2,0:0|0:0,0:0:0:0:
195,193,172504,1,2,0:0:0:0:
195,193,172671,2,0,L|129:180,1,66.6666666666667,2|2,0:0|0:0,0:0:0:0:
74,237,173004,1,2,0:0:0:0:
102,304,173171,2,0,L|231:334,1,133.333333333333,2|0,0:0|0:0,0:0:0:0:
321,321,173671,1,2,0:0:0:0:
354,327,173837,1,0,0:0:0:0:
386,335,174004,1,0,0:0:0:0:
419,336,174171,2,0,L|485:327,2,66.6666666666667
479,249,174671,6,0,L|444:120,1,133.333333333333,2|0,0:0|0:0,0:0:0:0:
367,67,175171,2,0,L|350:2,2,66.6666666666667,0|0|2,0:0|0:0|0:0,0:0:0:0:
296,119,175671,2,0,L|164:138,1,133.333333333333,2|0,0:0|0:0,0:0:0:0:
76,215,176171,2,0,P|43:223|11:215,2,66.6666666666667,2|0|0,0:0|0:0|0:0,0:0:0:0:
194,322,176671,2,0,P|183:353|161:377,2,66.6666666666667,2|0|0,0:0|0:0|0:0,0:0:0:0:
336,237,177171,2,0,P|358:261|367:293,2,66.6666666666667,2|0|0,0:0|0:0|0:0,0:0:0:0:
390,94,177671,5,2,0:0:0:0:
376,93,177837,1,2,0:0:0:0:
362,91,178004,1,2,0:0:0:0:
348,90,178171,1,2,0:0:0:0:
334,88,178337,1,2,0:0:0:0:
320,87,178504,1,2,0:0:0:0:
306,84,178671,1,2,0:0:0:0:
292,84,178837,1,2,0:0:0:0:
278,83,179004,1,2,0:0:0:0:
219,33,179171,5,2,0:0:0:0:
247,60,179337,1,2,0:0:0:0:
259,98,179504,1,2,0:0:0:0:
252,137,179670,1,2,0:0:0:0:
228,169,179837,1,2,0:0:0:0:
192,186,180004,1,2,0:0:0:0:
153,184,180170,1,2,0:0:0:0:
118,164,180337,1,2,0:0:0:0:
97,131,180504,1,2,0:0:0:0:
93,90,180671,6,0,L|211:109,1,106.666666666667,10|2,0:0|0:0,0:0:0:0:
199,107,181171,2,0,L|318:125,1,106.666666666667,10|2,0:0|0:0,0:0:0:0:
304,122,181671,2,0,L|347:62,2,53.3333333333333,10|2|2,0:0|0:0|0:0,0:0:0:0:
304,122,182171,2,0,L|218:242,1,106.666666666667,10|2,0:0|0:0,0:0:0:0:
189,262,182671,1,10,0:0:0:0:
247,307,182837,1,2,0:0:0:0:
299,254,183004,1,2,0:0:0:0:
241,208,183171,2,0,L|206:179,5,26.6666666666667,8|8|8|8|8|8,0:0|0:0|0:0|0:0|0:0|0:0,0:0:0:0:
299,254,183671,6,0,L|419:340,1,106.666666666667,10|2,0:0|0:0,0:0:0:0:
385,316,184171,2,0,L|505:402,1,106.666666666667,10|2,0:0|0:0,0:0:0:0:
462,303,184671,5,10,0:0:0:0:
451,229,184837,1,2,0:0:0:0:
440,155,185004,1,2,0:0:0:0:
381,201,185171,1,10,0:0:0:0:
322,248,185338,1,2,0:0:0:0:
263,295,185504,1,2,0:0:0:0:
331,323,185671,1,10,0:0:0:0:
401,350,185838,1,2,0:0:0:0:
471,378,186004,1,2,0:0:0:0:
462,303,186171,2,0,L|457:265,5,26.6666666666667,8|8|8|8|8|8,0:0|0:0|0:0|0:0|0:0|0:0,0:0:0:0:
401,350,186671,6,0,L|283:331,1,106.666666666667,10|2,0:0|0:0,0:0:0:0:
296,334,187171,2,0,L|177:316,1,106.666666666667,10|2,0:0|0:0,0:0:0:0:
190,318,187671,2,0,L|147:378,2,53.3333333333333,10|2|2,0:0|0:0|0:0,0:0:0:0:
190,318,188171,2,0,L|174:212,1,106.666666666667,10|2,0:0|0:0,0:0:0:0:
161,138,188671,1,10,0:0:0:0:
87,148,188837,1,2,0:0:0:0:
99,221,189004,1,2,0:0:0:0:
174,212,189171,2,0,L|215:204,5,26.6666666666667,8|8|8|8|8|8,0:0|0:0|0:0|0:0|0:0|0:0,0:0:0:0:
99,221,189671,6,0,L|-21:135,1,106.666666666667,10|2,0:0|0:0,0:0:0:0:
12,158,190171,2,0,L|98:38,1,106.666666666667,10|2,0:0|0:0,0:0:0:0:
123,15,190671,5,10,0:0:0:0:
186,56,190837,1,2,0:0:0:0:
250,95,191004,1,2,0:0:0:0:
265,168,191171,1,10,0:0:0:0:
283,241,191338,1,2,0:0:0:0:
301,314,191504,1,2,0:0:0:0:
355,261,191671,1,10,0:0:0:0:
409,209,191837,1,2,0:0:0:0:
463,157,192004,1,2,0:0:0:0:
391,137,192171,2,0,L|342:125,5,26.6666666666667,10|8|8|8|8|8,0:0|0:0|0:0|0:0|0:0|0:0,0:0:0:0:
359,52,192671,6,0,L|228:81,1,133.333333333333,6|2,3:2|0:0,0:0:0:0:
365,130,193171,2,0,L|234:159,1,133.333333333333,10|2,0:0|0:0,0:0:0:0:
164,179,193671,1,10,0:0:0:0:
145,108,193837,1,2,0:0:0:0:
132,35,194004,1,2,3:2:0:0:
59,44,194171,6,0,L|84:174,1,133.333333333333,2|2,3:2|0:0,0:0:0:0:
101,246,194671,1,10,0:0:0:0:
103,252,194837,1,2,0:0:0:0:
105,258,195004,1,2,0:0:0:0:
43,313,195171,5,10,0:0:0:0:
119,336,195337,1,2,0:0:0:0:
187,294,195504,1,2,0:0:0:0:
200,215,195671,6,0,P|266:219|313:264,1,133.333333333333,6|2,3:2|0:0,0:0:0:0:
356,356,196171,2,0,P|401:308|405:243,1,133.333333333333,10|2,0:0|0:0,0:0:0:0:
386,172,196671,1,10,0:0:0:0:
383,165,196837,1,2,0:0:0:0:
381,158,197004,1,2,0:0:0:0:
474,111,197171,5,2,3:2:0:0:
382,122,197337,1,2,0:0:0:0:
322,49,197504,1,2,0:0:0:0:
234,116,197671,5,10,0:0:0:0:
270,154,197837,1,2,0:0:0:0:
235,194,198004,1,2,0:0:0:0:
195,157,198171,1,10,0:0:0:0:
501,337,198671,6,0,P|434:330|368:327,1,133.333333333333,6|2,3:2|0:0,0:0:0:0:
510,262,199171,2,0,P|443:255|377:252,1,133.333333333333,10|2,0:0|0:0,0:0:0:0:
303,247,199671,1,10,0:0:0:0:
298,319,199837,1,2,0:0:0:0:
224,315,200004,1,2,3:2:0:0:
228,241,200171,6,0,P|161:234|95:231,1,133.333333333333,2|2,3:2|0:0,0:0:0:0:
21,227,200671,1,10,0:0:0:0:
22,220,200837,1,2,0:0:0:0:
24,213,201004,1,2,0:0:0:0:
19,132,201171,5,10,0:0:0:0:
60,63,201337,1,2,0:0:0:0:
135,36,201504,1,2,0:0:0:0:
207,70,201671,6,0,P|248:68|312:40,1,93.3333304850261,6|2,3:2|3:2,0:0:0:0:
367,4,202004,1,2,3:2:0:0:
231,195,202171,2,0,P|299:171|376:64,1,186.666660970052,10|2,3:2|0:0,0:0:0:0:
440,44,202671,1,10,3:2:0:0:
503,149,202837,1,2,0:0:0:0:
383,216,203004,1,2,0:0:0:0:
498,323,203171,6,0,P|464:322|405:277,1,93.3333304850261,6|2,3:2|3:2,0:0:0:0:
383,216,203504,1,2,3:2:0:0:
399,384,203671,2,0,P|338:360|329:223,1,186.666660970052,10|2,3:2|0:0,0:0:0:0:
239,186,204171,1,8,3:2:0:0:
125,191,204337,1,2,0:0:0:0:
61,303,204504,1,2,0:0:0:0:
0,144,204671,6,0,P|28:109|81:101,1,93.3333304850261,6|2,3:2|3:2,0:0:0:0:
125,191,205004,1,2,3:2:0:0:
96,16,205171,2,0,P|160:27|197:138,1,186.666660970052,10|2,3:2|0:0,0:0:0:0:
125,191,205671,1,10,3:2:0:0:
203,296,205837,1,2,0:0:0:0:
332,247,206004,1,2,0:0:0:0:
329,130,206171,6,0,P|292:135|260:188,1,93.3333304850261,6|2,3:2|3:2,0:0:0:0:
332,247,206504,1,2,3:2:0:0:
449,125,206671,2,0,P|367:47|295:46,1,186.666660970052,10|2,3:2|0:0,0:0:0:0:
192,113,207171,1,10,3:2:0:0:
141,219,207337,1,2,3:2:0:0:
103,332,207504,1,6,3:2:0:0:
