osu file format v14

[General]
AudioFilename: audio.mp3
AudioLeadIn: 0
PreviewTime: -1
Countdown: 0
SampleSet: Normal
StackLeniency: 0.7
Mode: 0
LetterboxInBreaks: 0
WidescreenStoryboard: 0

[Editor]
Bookmarks: 10163,20363,29963,39563,49163,58763,68363,77963,87563,97163,106763,116363,125963,135563,145163,154763,164363,173963,183563,193163,202763,212363,221963,231563,241163,250763,260363
DistanceSpacing: 0.3
BeatDivisor: 4
GridSize: 4
TimelineZoom: 2.3

[Metadata]
Title:Inochi ni Kirawareteiru
TitleUnicode:命に嫌われている。
Artist:Zakuro
ArtistUnicode:柘榴
Creator:Emilia
Version:menhera
Source:
Tags:
BeatmapID:1899181
BeatmapSetID:910086

[Difficulty]
HPDrainRate:5
CircleSize:4
OverallDifficulty:8.9
ApproachRate:9.5
SliderMultiplier:1.7
SliderTickRate:1

[Events]
//Background and Video events
0,0,"63160215_p0.jpg",0,0
//Break Periods
2,123613,125438
2,164412,173138
//Storyboard Layer 0 (Background)
//Storyboard Layer 1 (Fail)
//Storyboard Layer 2 (Pass)
//Storyboard Layer 3 (Foreground)
//Storyboard Sound Samples

[TimingPoints]
1163,300,4,1,0,30,1,0
10763,-50,4,1,0,30,0,0
19163,-200,4,1,0,30,0,0
19463,-166.666666666667,4,1,0,30,0,0
19763,-142.857142857143,4,1,0,30,0,0
20063,-125,4,1,0,30,0,0
20363,-100,4,1,0,30,0,0
38363,-200,4,1,0,30,0,0
38663,-166.666666666667,4,1,0,30,0,0
38963,-142.857142857143,4,1,0,30,0,0
39263,-125,4,1,0,30,0,0
39563,-83.3333333333333,4,1,0,30,0,0
46763,-222.222222222221,4,1,0,30,0,0
49163,-83.3333333333333,4,1,0,30,0,0
57563,-83.3333333333333,4,1,0,30,0,1
57638,-83.3333333333333,4,1,0,30,0,0
58763,-76.9230769230769,4,1,0,30,0,1
67763,-76.9230769230769,4,1,0,30,0,0
68363,-76.9230769230769,4,1,0,30,0,1
77963,-50,4,1,0,30,0,0
81563,-83.3333333333333,4,1,0,30,0,0
87563,-100,4,1,0,30,0,0
135563,-83.3333333333333,4,1,0,30,0,0
143963,-83.3333333333333,4,1,0,30,0,1
144038,-83.3333333333333,4,1,0,30,0,0
145163,-83.3333333333333,4,1,0,30,0,1
154163,-83.3333333333333,4,1,0,30,0,0
154763,-83.3333333333333,4,1,0,30,0,1
164213,-83.3333333333333,4,1,0,30,0,0
173663,-200,4,1,0,30,0,0
183563,-166.666666666667,4,1,0,30,0,0
193163,-142.857142857143,4,1,0,30,0,0
202163,-125,4,1,0,30,0,0
202463,-100,4,1,0,30,0,0
202763,-90.9090909090909,4,1,0,30,0,1
211763,-90.9090909090909,4,1,0,30,0,0
212363,-90.9090909090909,4,1,0,30,0,1
216863,-90.9090909090909,4,1,0,30,0,0
217163,-90.9090909090909,4,1,0,30,0,1
217238,-90.9090909090909,4,1,0,30,0,0
218363,-90.9090909090909,4,1,0,30,0,1
218438,-90.9090909090909,4,1,0,30,0,0
219563,-90.9090909090909,4,1,0,30,0,1
219638,-90.9090909090909,4,1,0,30,0,0
220163,-90.9090909090909,4,1,0,30,0,1
220238,-90.9090909090909,4,1,0,30,0,0
220763,-90.9090909090909,4,1,0,30,0,1
220838,-90.9090909090909,4,1,0,30,0,0
221063,-90.9090909090909,4,1,0,30,0,1
221138,-90.9090909090909,4,1,0,30,0,0
221363,-90.9090909090909,4,1,0,30,0,1
221438,-90.9090909090909,4,1,0,30,0,0
221663,-90.9090909090909,4,1,0,30,0,1
221738,-90.9090909090909,4,1,0,30,0,0
221963,-90.9090909090909,4,1,0,30,0,1
222038,-90.9090909090909,4,1,0,30,0,0
250763,-125,4,1,0,30,0,0
260363,-142.857142857143,4,1,0,30,0,0

[Colours]
Combo1 : 82,82,82
Combo2 : 140,255,209
Combo3 : 91,153,255
Combo4 : 197,197,197

[HitObjects]
151,142,10163,37,0,0:0:0:0:
226,175,10313,1,0,0:0:0:0:
57,177,10463,2,0,P|129:130|198:118,1,127.5
174,119,10763,22,0,B|110:107|110:107|84:88|84:88|-9:68,1,170
130,21,11063,37,0,0:0:0:0:
130,21,11213,1,0,0:0:0:0:
254,99,11363,37,0,0:0:0:0:
254,99,11663,1,0,0:0:0:0:
323,46,11963,5,0,0:0:0:0:
323,46,12113,1,0,0:0:0:0:
382,198,12263,1,0,0:0:0:0:
382,198,12413,1,0,0:0:0:0:
458,151,12563,37,0,0:0:0:0:
458,151,12863,1,0,0:0:0:0:
215,53,13163,5,0,0:0:0:0:
215,53,13313,1,0,0:0:0:0:
101,191,13463,1,0,0:0:0:0:
101,191,13613,1,0,0:0:0:0:
17,150,13763,37,0,0:0:0:0:
17,150,14063,1,0,0:0:0:0:
122,350,14363,5,0,0:0:0:0:
122,350,14513,1,0,0:0:0:0:
230,250,14663,37,0,0:0:0:0:
230,250,14963,1,0,0:0:0:0:
230,250,15263,1,0,0:0:0:0:
435,325,15563,5,0,0:0:0:0:
435,325,15713,1,0,0:0:0:0:
391,174,15863,1,0,0:0:0:0:
391,174,16013,1,0,0:0:0:0:
468,217,16163,37,0,0:0:0:0:
468,217,16463,1,0,0:0:0:0:
341,377,16763,5,0,0:0:0:0:
341,377,16913,1,0,0:0:0:0:
170,296,17063,1,0,0:0:0:0:
170,296,17213,1,0,0:0:0:0:
98,348,17363,37,0,0:0:0:0:
98,348,17663,1,0,0:0:0:0:
191,148,17963,5,0,0:0:0:0:
191,148,18113,1,0,0:0:0:0:
270,233,18263,1,0,0:0:0:0:
270,233,18413,1,0,0:0:0:0:
248,320,18563,37,0,0:0:0:0:
248,320,18863,1,0,0:0:0:0:
144,370,19163,6,0,P|149:344|156:326,1,42.5
92,279,19463,38,0,P|131:255|155:250,1,50.9999984436036
149,136,19763,38,0,P|190:147|216:165,1,59.4999981842042
373,18,20063,38,0,P|380:67|375:93,1,68
411,264,20363,5,0,0:0:0:0:
372,282,20513,1,0,0:0:0:0:
252,327,20663,1,0,0:0:0:0:
125,312,20813,1,0,0:0:0:0:
155,232,20963,2,0,L|119:325,1,85
314,124,21263,2,0,L|328:207,1,85
43,120,21563,6,0,B|92:77|170:65|170:65|212:42,1,170
196,50,22013,1,0,0:0:0:0:
43,119,22163,1,0,0:0:0:0:
280,212,22313,2,0,P|252:252|199:306,1,85
51,308,22613,1,0,0:0:0:0:
92,86,22763,6,0,P|173:96|281:54,1,170
416,14,23213,1,0,0:0:0:0:
259,157,23363,1,0,0:0:0:0:
441,265,23513,2,0,P|421:216|392:170,1,85
207,271,23813,1,0,0:0:0:0:
450,122,23963,6,0,P|410:138|369:149,1,85
226,58,24263,2,0,P|184:47|145:30,1,85
120,198,24563,2,0,P|80:214|39:225,1,85
14,349,24788,1,0,0:0:0:0:
14,349,24863,2,0,B|87:338|118:294|187:289,1,170
339,324,25313,1,0,0:0:0:0:
173,190,25463,5,0,0:0:0:0:
183,166,25613,1,0,0:0:0:0:
415,62,25763,5,0,0:0:0:0:
405,38,25913,1,0,0:0:0:0:
421,232,26063,5,0,0:0:0:0:
431,256,26213,1,0,0:0:0:0:
244,314,26363,5,0,0:0:0:0:
234,338,26513,1,0,0:0:0:0:
93,162,26663,6,0,P|105:98|147:64,1,85
203,258,26963,2,0,P|191:194|149:160,1,85
330,328,27263,1,0,0:0:0:0:
430,280,27413,1,0,0:0:0:0:
499,124,27563,6,0,L|425:289,2,170
341,56,28313,1,0,0:0:0:0:
155,313,28463,1,0,0:0:0:0:
155,313,28538,1,0,0:0:0:0:
155,313,28613,2,0,L|253:273,1,85
266,259,29063,5,0,0:0:0:0:
306,244,29213,1,0,0:0:0:0:
374,193,29363,1,0,0:0:0:0:
425,67,29513,2,0,P|466:58|506:44,2,85
374,193,29963,5,0,0:0:0:0:
467,151,30113,2,0,P|381:143|300:86,1,170
307,246,30563,1,0,0:0:0:0:
188,201,30863,21,0,0:0:0:0:
188,201,31013,1,0,0:0:0:0:
90,372,31163,1,0,0:0:0:0:
90,372,31313,1,0,0:0:0:0:
78,242,31463,1,0,0:0:0:0:
78,242,31613,1,0,0:0:0:0:
29,166,31763,37,0,0:0:0:0:
29,166,32063,1,0,0:0:0:0:
29,166,32363,38,0,P|11:117|22:70,1,85
76,25,32663,21,0,0:0:0:0:
76,25,32813,1,0,0:0:0:0:
127,206,32963,1,0,0:0:0:0:
127,206,33113,1,0,0:0:0:0:
231,141,33263,1,0,0:0:0:0:
231,141,33413,1,0,0:0:0:0:
318,172,33563,1,0,0:0:0:0:
318,172,33713,1,0,0:0:0:0:
373,107,33863,37,0,0:0:0:0:
373,107,34163,1,0,0:0:0:0:
373,107,34463,38,0,P|416:88|460:91,1,85
428,169,34763,5,0,0:0:0:0:
470,243,35063,5,0,0:0:0:0:
470,243,35213,1,0,0:0:0:0:
351,370,35363,1,0,0:0:0:0:
351,370,35513,1,0,0:0:0:0:
512,331,35663,37,0,0:0:0:0:
512,331,35963,5,0,0:0:0:0:
512,331,36113,1,0,0:0:0:0:
305,255,36263,1,0,0:0:0:0:
305,255,36413,1,0,0:0:0:0:
377,320,36563,37,0,0:0:0:0:
377,320,36863,1,0,0:0:0:0:
377,320,37163,38,0,P|287:312|210:267,1,170
210,269,37613,2,0,B|250:257|250:257|204:397,1,170
131,296,38063,2,0,L|121:212,1,85
15,285,38363,22,0,P|47:268|67:266,1,42.5
111,203,38663,38,0,P|89:191|64:188,1,50.9999984436036
243,108,38963,38,0,P|250:170|246:192,1,59.4999981842042
396,363,39263,38,0,P|424:344|443:316,1,68
433,116,39563,5,0,0:0:0:0:
414,117,39638,1,0,0:0:0:0:
398,119,39713,1,0,0:0:0:0:
272,71,39863,2,0,B|248:113|248:113|222:185,1,101.999996887207
129,285,40088,1,0,0:0:0:0:
129,285,40163,2,0,P|185:310|260:329,1,101.999996887207
387,359,40388,1,0,0:0:0:0:
387,359,40464,2,0,P|368:309|337:262,1,101.999996887207
217,100,40763,5,0,0:0:0:0:
49,180,40913,1,0,0:0:0:0:
79,277,41063,1,0,0:0:0:0:
138,359,41213,1,0,0:0:0:0:
298,336,41363,2,0,P|273:291|259:242,1,101.999996887207
398,184,41663,2,0,P|422:139|436:90,1,101.999996887207
312,99,41888,5,0,0:0:0:0:
312,99,41963,2,0,P|287:153|252:195,1,101.999996887207
126,72,42263,1,0,0:0:0:0:
185,226,42413,1,0,0:0:0:0:
312,99,42563,2,0,P|287:153|252:195,1,101.999996887207
399,274,42863,1,0,0:0:0:0:
399,274,42938,1,0,0:0:0:0:
399,274,43013,1,0,0:0:0:0:
54,228,43163,6,0,B|124:241|124:241|175:328|175:328|256:334,1,203.999993774414
375,64,43613,6,0,B|305:77|305:77|254:164|254:164|223:167,1,203.999993774414
97,59,44063,5,0,0:0:0:0:
150,310,44213,5,0,0:0:0:0:
163,303,44288,1,0,0:0:0:0:
175,294,44363,1,0,0:0:0:0:
401,350,44513,2,0,L|394:208,1,101.999996887207
243,113,44813,2,0,L|250:-29,1,101.999996887207
66,104,45113,1,0,0:0:0:0:
231,220,45263,1,0,0:0:0:0:
231,220,45338,1,0,0:0:0:0:
231,220,45413,1,0,0:0:0:0:
489,249,45563,6,0,B|427:279|427:279|372:267|300:313,1,203.999993774414
160,38,46013,6,0,B|232:84|287:72|287:72|349:102,1,203.999993774414
439,53,46388,5,0,0:0:0:0:
439,53,46463,1,0,0:0:0:0:
481,221,46613,1,0,0:0:0:0:
347,333,46763,6,0,P|304:348|231:358,1,114.749996498108
256,200,47363,1,0,0:0:0:0:
256,200,47663,1,0,0:0:0:0:
165,50,47963,6,0,P|219:33|276:26,1,114.749996498108
256,200,48563,1,0,0:0:0:0:
370,46,48863,1,0,0:0:0:0:
155,142,49163,5,0,0:0:0:0:
70,13,49313,2,0,P|127:40|204:34,1,101.999996887207
187,247,49613,1,0,0:0:0:0:
280,303,49763,1,0,0:0:0:0:
262,187,49913,1,0,0:0:0:0:
153,373,50063,1,0,0:0:0:0:
255,180,50213,1,0,0:0:0:0:
350,380,50363,5,0,0:0:0:0:
146,363,50513,1,0,0:0:0:0:
230,284,50663,1,0,0:0:0:0:
52,376,50813,1,0,0:0:0:0:
207,185,50963,2,0,P|266:196|308:233,1,101.999996887207
333,327,51263,1,0,0:0:0:0:
461,188,51413,1,0,0:0:0:0:
461,188,51488,1,0,0:0:0:0:
461,188,51563,5,0,0:0:0:0:
295,117,51713,1,0,0:0:0:0:
368,22,51863,1,0,0:0:0:0:
192,114,52013,1,0,0:0:0:0:
214,229,52163,1,0,0:0:0:0:
81,125,52313,1,0,0:0:0:0:
154,330,52463,1,0,0:0:0:0:
222,230,52613,1,0,0:0:0:0:
61,378,52763,5,0,0:0:0:0:
281,318,52913,1,0,0:0:0:0:
177,115,53063,1,0,0:0:0:0:
149,320,53213,1,0,0:0:0:0:
266,155,53363,5,0,0:0:0:0:
39,73,53513,1,0,0:0:0:0:
266,155,53663,1,0,0:0:0:0:
39,73,53813,1,0,0:0:0:0:
343,69,53963,6,0,P|393:64|468:41,1,101.999996887207
168,314,54263,2,0,P|118:319|43:342,1,101.999996887207
133,104,54563,2,0,P|128:54|105:-20,1,101.999996887207
378,279,54863,2,0,P|383:329|406:404,1,101.999996887207
342,165,55163,6,0,L|351:63,1,101.999996887207
170,219,55463,2,0,L|160:320,1,101.999996887207
232,63,55763,5,0,0:0:0:0:
279,320,55913,1,0,0:0:0:0:
232,63,56063,1,0,0:0:0:0:
279,320,56213,1,0,0:0:0:0:
56,21,56363,6,0,P|122:9|174:14,1,101.999996887207
455,143,56663,2,0,P|389:131|337:136,1,101.999996887207
0,270,56963,2,0,P|66:258|118:263,1,101.999996887207
512,372,57263,2,0,P|446:360|394:365,1,101.999996887207
115,127,57563,5,0,0:0:0:0:
117,60,57638,1,0,0:0:0:0:
164,13,57713,1,0,0:0:0:0:
230,12,57788,1,0,0:0:0:0:
279,57,57863,1,0,0:0:0:0:
284,123,57938,1,0,0:0:0:0:
242,174,58013,1,0,0:0:0:0:
199,221,58088,1,0,0:0:0:0:
176,280,58163,5,0,0:0:0:0:
181,268,58238,1,0,0:0:0:0:
188,257,58313,1,0,0:0:0:0:
197,248,58388,1,0,0:0:0:0:
207,240,58463,1,0,0:0:0:0:
217,233,58538,1,0,0:0:0:0:
229,228,58613,1,0,0:0:0:0:
241,224,58688,1,0,0:0:0:0:
254,223,58763,5,0,0:0:0:0:
367,87,58913,1,0,0:0:0:0:
436,249,59063,1,0,0:0:0:0:
231,51,59213,1,0,0:0:0:0:
189,345,59363,1,0,0:0:0:0:
85,156,59513,2,0,P|51:116|26:44,1,110.499994941712
210,240,59813,1,0,0:0:0:0:
300,328,59963,6,0,B|347:421|296:244|445:241|463:255,1,220.999989883423
466,224,60338,1,0,0:0:0:0:
466,224,60413,2,0,P|419:179|399:102,1,110.499994941712
325,22,60713,1,0,0:0:0:0:
56,86,60863,6,0,B|102:157|161:25|258:135,1,220.999989883423
115,221,61313,1,0,0:0:0:0:
397,163,61463,1,0,0:0:0:0:
397,163,61613,1,0,0:0:0:0:
120,240,61763,1,0,0:0:0:0:
397,163,61913,1,0,0:0:0:0:
397,163,62063,1,0,0:0:0:0:
125,257,62213,1,0,0:0:0:0:
320,327,62363,6,0,P|373:311|417:278,1,110.499994941712
94,278,62663,6,0,P|138:311|191:327,1,110.499994941712
86,130,62963,6,0,L|129:68,1,55.2499974708558
173,261,63113,2,0,L|216:323,1,55.2499974708558
312,79,63263,2,0,L|343:33,1,55.2499974708558
416,289,63413,2,0,L|447:334,1,55.2499974708558
371,190,63563,6,0,B|345:280|256:286|256:286|267:189,1,220.999989883423
156,262,63938,1,0,0:0:0:0:
156,262,64013,1,0,0:0:0:0:
75,160,64163,1,0,0:0:0:0:
129,40,64313,1,0,0:0:0:0:
258,46,64463,1,0,0:0:0:0:
300,254,64613,1,0,0:0:0:0:
255,46,64763,1,0,0:0:0:0:
271,46,64838,1,0,0:0:0:0:
287,46,64913,1,0,0:0:0:0:
303,46,64988,1,0,0:0:0:0:
319,46,65063,6,0,B|360:55|423:36|468:55,1,110.499994941712
468,177,65363,1,0,0:0:0:0:
286,184,65513,1,0,0:0:0:0:
286,184,65588,1,0,0:0:0:0:
286,184,65663,6,0,B|206:209|204:282|204:282|171:171,1,220.999989883423
95,167,66113,1,0,0:0:0:0:
16,301,66263,1,0,0:0:0:0:
338,240,66413,1,0,0:0:0:0:
194,291,66563,1,0,0:0:0:0:
334,270,66713,2,0,P|303:315|287:368,1,110.499994941712
281,56,67013,1,0,0:0:0:0:
147,91,67163,1,0,0:0:0:0:
123,76,67238,1,0,0:0:0:0:
100,59,67313,1,0,0:0:0:0:
79,40,67388,1,0,0:0:0:0:
56,23,67463,5,0,0:0:0:0:
72,243,67613,1,0,0:0:0:0:
215,316,67763,5,0,0:0:0:0:
297,68,67913,1,0,0:0:0:0:
297,68,68063,2,0,B|293:119|293:119|304:133|304:133|304:197,1,110.499994941712
289,375,68363,5,0,0:0:0:0:
401,161,68513,1,0,0:0:0:0:
189,34,68663,1,0,0:0:0:0:
401,250,68813,1,0,0:0:0:0:
512,69,68963,5,0,0:0:0:0:
314,221,69113,1,0,0:0:0:0:
475,148,69263,1,0,0:0:0:0:
263,9,69413,1,0,0:0:0:0:
203,285,69563,5,0,0:0:0:0:
284,117,69713,1,0,0:0:0:0:
22,31,69863,6,0,P|42:121|41:168,1,110.499994941712
316,384,70163,2,0,P|321:329|336:276,1,110.499994941712
454,47,70463,1,0,0:0:0:0:
270,201,70613,1,0,0:0:0:0:
512,135,70763,5,0,0:0:0:0:
303,0,70913,2,0,P|320:108|315:138,1,110.499994941712
232,358,71213,1,0,0:0:0:0:
370,202,71363,5,0,0:0:0:0:
117,78,71513,1,0,0:0:0:0:
268,268,71663,1,0,0:0:0:0:
397,15,71813,1,0,0:0:0:0:
465,252,71963,5,0,0:0:0:0:
273,158,72113,1,0,0:0:0:0:
142,347,72263,2,0,P|61:358|21:383,1,110.499994941712
356,100,72563,2,0,P|407:122|462:124,1,110.499994941712
124,22,72863,1,0,0:0:0:0:
148,168,73013,1,0,0:0:0:0:
320,17,73163,5,0,0:0:0:0:
50,136,73313,1,0,0:0:0:0:
178,305,73463,2,0,P|169:270|171:242,1,55.2499974708558
238,55,73613,1,0,0:0:0:0:
299,347,73763,5,0,0:0:0:0:
91,239,73913,1,0,0:0:0:0:
340,91,74063,1,0,0:0:0:0:
418,283,74213,1,0,0:0:0:0:
512,53,74363,5,0,0:0:0:0:
296,182,74513,1,0,0:0:0:0:
182,83,74663,2,0,P|116:71|60:46,1,110.499994941712
8,12,74888,1,0,0:0:0:0:
8,12,74963,1,0,0:0:0:0:
295,57,75113,1,0,0:0:0:0:
121,260,75263,1,0,0:0:0:0:
207,367,75413,1,0,0:0:0:0:
179,97,75563,5,0,0:0:0:0:
77,342,75713,1,0,0:0:0:0:
307,168,75863,1,0,0:0:0:0:
94,51,76013,1,0,0:0:0:0:
94,51,76088,1,0,0:0:0:0:
94,51,76163,1,0,0:0:0:0:
237,224,76313,1,0,0:0:0:0:
406,10,76463,1,0,0:0:0:0:
213,113,76613,1,0,0:0:0:0:
357,384,76763,6,0,P|367:298|391:242,1,110.499994941712
88,21,77063,2,0,P|102:74|105:129,1,110.499994941712
81,319,77363,1,0,0:0:0:0:
307,165,77513,1,0,0:0:0:0:
207,99,77663,1,0,0:0:0:0:
275,384,77813,1,0,0:0:0:0:
413,190,77963,6,0,L|446:364,1,170
315,247,78413,1,0,0:0:0:0:
315,247,78563,1,0,0:0:0:0:
163,323,78863,1,0,0:0:0:0:
163,323,79163,1,0,0:0:0:0:
66,169,79313,1,0,0:0:0:0:
66,169,79463,1,0,0:0:0:0:
66,169,79763,1,0,0:0:0:0:
211,81,80063,5,0,0:0:0:0:
380,84,80363,1,0,0:0:0:0:
380,84,80513,1,0,0:0:0:0:
207,244,80663,1,0,0:0:0:0:
418,314,80813,1,0,0:0:0:0:
418,314,80963,1,0,0:0:0:0:
418,314,81263,1,0,0:0:0:0:
195,315,81563,5,0,0:0:0:0:
121,106,81863,1,0,0:0:0:0:
252,58,82013,1,0,0:0:0:0:
93,264,82163,1,0,0:0:0:0:
386,349,82313,1,0,0:0:0:0:
297,265,82463,1,0,0:0:0:0:
101,295,82613,2,0,L|236:291,1,101.999996887207
414,329,83063,5,0,0:0:0:0:
491,278,83213,1,0,0:0:0:0:
491,278,83363,1,0,0:0:0:0:
491,278,83513,1,0,0:0:0:0:
389,101,83663,1,0,0:0:0:0:
389,101,83963,1,0,0:0:0:0:
389,101,84263,1,0,0:0:0:0:
346,286,84563,2,0,P|299:266|249:215,1,101.999996887207
130,108,84863,2,0,P|177:88|227:37,1,101.999996887207
85,299,85163,5,0,0:0:0:0:
209,209,85313,1,0,0:0:0:0:
488,333,85463,1,0,0:0:0:0:
488,333,85763,1,0,0:0:0:0:
488,333,86063,1,0,0:0:0:0:
387,43,86363,6,0,B|334:52|334:52|290:73,1,101.999996887207
125,341,86663,2,0,B|178:332|178:332|221:310,1,101.999996887207
96,146,86963,1,0,0:0:0:0:
85,345,87113,1,0,0:0:0:0:
310,360,87263,2,0,L|329:259,1,101.999996887207
232,1,87563,5,0,0:0:0:0:
262,117,87713,1,0,0:0:0:0:
105,232,87863,1,0,0:0:0:0:
132,144,88013,1,0,0:0:0:0:
31,119,88163,6,0,P|89:124|196:76,1,170
275,126,88613,1,0,0:0:0:0:
347,37,88763,5,0,0:0:0:0:
347,37,88913,1,0,0:0:0:0:
470,100,89063,1,0,0:0:0:0:
470,100,89213,1,0,0:0:0:0:
454,198,89363,1,0,0:0:0:0:
454,198,89663,5,0,0:0:0:0:
454,198,89813,1,0,0:0:0:0:
496,343,89963,5,0,0:0:0:0:
496,343,90113,1,0,0:0:0:0:
331,237,90263,1,0,0:0:0:0:
331,237,90413,1,0,0:0:0:0:
243,305,90563,1,0,0:0:0:0:
73,384,90713,6,0,B|60:295|126:314|106:210,1,170
18,59,91163,2,0,P|87:65|189:5,1,170
175,21,91613,1,0,0:0:0:0:
41,161,91763,5,0,0:0:0:0:
41,161,92063,1,0,0:0:0:0:
153,329,92363,5,0,0:0:0:0:
184,248,92513,1,0,0:0:0:0:
238,384,92663,1,0,0:0:0:0:
55,294,92813,1,0,0:0:0:0:
215,165,92963,1,0,0:0:0:0:
298,298,93113,2,0,P|396:316|477:363,1,170
337,220,93563,5,0,0:0:0:0:
337,220,93713,1,0,0:0:0:0:
236,363,93863,1,0,0:0:0:0:
236,363,94013,1,0,0:0:0:0:
453,258,94163,5,0,0:0:0:0:
453,258,94463,1,0,0:0:0:0:
322,124,94763,5,0,0:0:0:0:
295,23,94913,1,0,0:0:0:0:
408,129,95063,1,0,0:0:0:0:
354,257,95213,1,0,0:0:0:0:
486,182,95363,5,0,0:0:0:0:
313,114,95513,1,0,0:0:0:0:
264,203,95663,1,0,0:0:0:0:
349,12,95813,1,0,0:0:0:0:
199,132,95963,5,0,0:0:0:0:
199,132,96113,1,0,0:0:0:0:
107,28,96263,1,0,0:0:0:0:
107,28,96413,1,0,0:0:0:0:
24,57,96563,5,0,0:0:0:0:
24,57,96863,1,0,0:0:0:0:
20,188,97163,6,0,B|67:170|144:248|210:205,1,170
110,298,97613,1,0,0:0:0:0:
246,152,97763,1,0,0:0:0:0:
246,152,97913,1,0,0:0:0:0:
246,152,98063,1,0,0:0:0:0:
340,237,98213,1,0,0:0:0:0:
381,320,98363,6,0,B|334:344|266:339|218:306,1,170
512,346,98813,1,0,0:0:0:0:
392,158,98963,1,0,0:0:0:0:
274,284,99113,1,0,0:0:0:0:
318,97,99263,2,0,P|278:82|236:79,1,85
84,183,99563,5,0,0:0:0:0:
176,253,99713,2,0,P|142:285|102:349,1,85
217,34,100013,1,0,0:0:0:0:
307,97,100163,2,0,L|400:92,1,85
262,202,100463,2,0,L|169:197,1,85
368,290,100763,2,0,L|461:295,1,85
200,330,101063,1,0,0:0:0:0:
69,111,101213,1,0,0:0:0:0:
234,71,101363,1,0,0:0:0:0:
58,240,101513,1,0,0:0:0:0:
223,279,101663,6,0,P|122:297|48:282,1,170
158,147,102113,1,0,0:0:0:0:
98,343,102263,1,0,0:0:0:0:
329,288,102413,2,0,L|381:326,1,42.5
307,118,102563,1,0,0:0:0:0:
234,299,102713,1,0,0:0:0:0:
461,212,102863,1,0,0:0:0:0:
279,50,103013,1,0,0:0:0:0:
96,244,103163,5,0,0:0:0:0:
96,244,103238,1,0,0:0:0:0:
96,244,103313,1,0,0:0:0:0:
214,321,103463,1,0,0:0:0:0:
338,180,103613,1,0,0:0:0:0:
338,349,103763,2,0,P|349:264|338:180,1,170
238,256,104213,1,0,0:0:0:0:
44,207,104363,6,0,B|121:211|121:211|164:226|164:226|239:233,1,170
247,52,104738,1,0,0:0:0:0:
247,52,104813,2,0,P|256:101|289:156,1,85
402,57,105113,1,0,0:0:0:0:
231,236,105263,1,0,0:0:0:0:
96,62,105413,1,0,0:0:0:0:
44,231,105563,1,0,0:0:0:0:
110,327,105713,1,0,0:0:0:0:
126,100,105863,2,0,B|169:105|244:85|296:91,1,170
270,181,106313,1,0,0:0:0:0:
455,43,106463,5,0,0:0:0:0:
464,168,106613,1,0,0:0:0:0:
387,304,106763,6,0,P|368:242|366:197,1,85
195,25,107063,2,0,P|188:66|173:106,1,85
13,283,107363,2,0,P|77:269|123:267,1,85
222,358,107663,1,0,0:0:0:0:
222,358,107813,1,0,0:0:0:0:
476,175,107963,6,0,P|409:184|310:121,1,170
342,38,108413,1,0,0:0:0:0:
108,206,108563,2,0,P|132:142|133:25,1,170
21,143,109013,1,0,0:0:0:0:
206,234,109163,6,0,P|263:214|308:215,1,85
33,285,109463,2,0,P|52:358|47:398,1,85
223,101,109763,2,0,P|242:28|237:-12,1,85
129,164,110063,1,0,0:0:0:0:
129,164,110213,1,0,0:0:0:0:
330,83,110363,5,0,0:0:0:0:
330,83,110663,1,0,0:0:0:0:
419,130,110813,1,0,0:0:0:0:
442,273,110963,2,0,P|439:329|412:370,1,85
264,314,111263,2,0,P|267:258|294:217,1,85
224,113,111563,6,0,P|221:57|194:16,1,85
46,72,111863,2,0,P|49:128|76:169,1,85
337,126,112163,2,0,P|387:115|440:119,1,85
270,203,112463,1,0,0:0:0:0:
270,203,112613,1,0,0:0:0:0:
114,291,112763,6,0,P|149:346|151:388,1,85
11,102,113063,2,0,P|26:37|61:4,1,85
371,148,113363,2,0,P|303:164|231:92,2,170
247,9,114113,5,0,0:0:0:0:
145,186,114263,2,0,P|69:200|31:223,1,85
292,384,114563,2,0,P|292:326|266:282,1,85
115,271,114863,1,0,0:0:0:0:
115,271,115013,1,0,0:0:0:0:
251,55,115163,6,0,P|223:122|202:138,1,85
432,13,115463,2,0,P|491:37|509:59,1,85
166,60,115763,2,0,P|90:80|-2:84,1,170
113,281,116363,5,0,0:0:0:0:
270,162,116513,1,0,0:0:0:0:
429,229,116663,2,0,P|357:272|297:339,1,170
193,305,117113,1,0,0:0:0:0:
201,92,117263,1,0,0:0:0:0:
73,201,117413,1,0,0:0:0:0:
212,180,117563,6,0,P|233:218|277:273,1,85
149,339,117863,2,0,P|128:301|84:246,1,85
141,44,118163,1,0,0:0:0:0:
272,44,118313,2,0,P|321:28|371:2,1,85
322,180,118613,1,0,0:0:0:0:
141,44,118763,6,0,B|116:83|116:83|118:178|69:230,1,170
263,238,119213,1,0,0:0:0:0:
366,45,119363,1,0,0:0:0:0:
366,45,119438,1,0,0:0:0:0:
366,45,119513,2,0,P|408:73|457:128,2,85
260,177,119963,2,0,P|218:205|169:260,1,85
423,303,120263,1,0,0:0:0:0:
277,43,120413,1,0,0:0:0:0:
247,287,120563,2,0,B|298:351|357:245|437:327,1,170
339,172,121013,1,0,0:0:0:0:
126,64,121163,5,0,0:0:0:0:
264,53,121313,1,0,0:0:0:0:
126,64,121463,2,0,B|107:109|107:109|97:176,1,85
195,267,121763,5,0,0:0:0:0:
57,278,121913,1,0,0:0:0:0:
195,267,122063,2,0,B|214:222|214:222|224:155,1,85
436,98,122363,6,0,B|399:78|399:78|367:49,1,85
365,289,122663,2,0,B|402:309|402:309|434:338,1,85
183,96,122963,2,0,B|145:75|145:75|113:46,1,85
64,184,123263,2,0,L|103:167,2,42.5
227,185,125963,5,0,0:0:0:0:
31,129,126113,2,0,P|108:131|195:82,1,170
240,18,126563,5,0,0:0:0:0:
240,18,126713,1,0,0:0:0:0:
317,80,126863,1,0,0:0:0:0:
317,80,127013,1,0,0:0:0:0:
466,46,127163,5,0,0:0:0:0:
466,46,127463,5,0,0:0:0:0:
466,46,127613,1,0,0:0:0:0:
385,207,127763,1,0,0:0:0:0:
385,207,127913,1,0,0:0:0:0:
420,293,128063,1,0,0:0:0:0:
420,293,128213,1,0,0:0:0:0:
366,370,128363,5,0,0:0:0:0:
480,224,128513,2,0,P|413:200|375:203,2,85
330,279,128963,5,0,0:0:0:0:
330,279,129113,1,0,0:0:0:0:
243,237,129263,1,0,0:0:0:0:
243,237,129413,1,0,0:0:0:0:
134,378,129563,5,0,0:0:0:0:
134,378,129713,1,0,0:0:0:0:
45,313,129863,1,0,0:0:0:0:
45,313,130013,1,0,0:0:0:0:
213,334,130163,1,0,0:0:0:0:
213,334,130313,1,0,0:0:0:0:
117,264,130463,5,0,0:0:0:0:
163,156,130613,1,0,0:0:0:0:
163,156,130688,1,0,0:0:0:0:
163,156,130763,5,0,0:0:0:0:
15,87,130913,2,0,P|83:82|195:30,1,170
260,88,131363,5,0,0:0:0:0:
260,88,131513,1,0,0:0:0:0:
341,21,131663,1,0,0:0:0:0:
341,21,131813,1,0,0:0:0:0:
482,90,131963,5,0,0:0:0:0:
482,90,132113,1,0,0:0:0:0:
315,166,132263,1,0,0:0:0:0:
315,166,132413,1,0,0:0:0:0:
382,300,132563,1,0,0:0:0:0:
382,300,132713,1,0,0:0:0:0:
356,384,132863,1,0,0:0:0:0:
356,384,133013,1,0,0:0:0:0:
473,270,133163,6,0,P|481:188|521:93,1,170
381,166,133613,1,0,0:0:0:0:
305,42,133763,2,0,P|366:12|405:15,1,85
222,164,134063,2,0,P|273:199|285:236,1,85
6,103,134363,6,0,P|71:108|183:62,1,170
89,18,134813,1,0,0:0:0:0:
152,170,134963,2,0,P|131:207|127:249,1,85
254,86,135263,2,0,P|250:44|229:8,1,85
85,280,135563,5,0,0:0:0:0:
85,280,135713,1,0,0:0:0:0:
297,366,135863,2,0,L|257:257,1,101.999996887207
275,60,136163,2,0,L|149:88,1,101.999996887207
46,180,136463,1,0,0:0:0:0:
157,334,136613,1,0,0:0:0:0:
227,204,136763,1,0,0:0:0:0:
227,204,136838,1,0,0:0:0:0:
227,204,136913,1,0,0:0:0:0:
428,162,137063,6,0,P|377:158|328:146,1,101.999996887207
185,37,137363,1,0,0:0:0:0:
42,138,137513,1,0,0:0:0:0:
185,37,137663,1,0,0:0:0:0:
33,286,137813,5,0,0:0:0:0:
45,277,137888,1,0,0:0:0:0:
57,268,137963,1,0,0:0:0:0:
98,149,138113,2,0,P|108:93|151:46,1,101.999996887207
271,91,138413,1,0,0:0:0:0:
480,155,138563,2,0,B|407:185|407:185|370:168|370:168|286:189,1,203.999993774414
420,298,139013,1,0,0:0:0:0:
285,293,139163,1,0,0:0:0:0:
110,328,139313,6,0,L|-7:329,1,101.999996887207
136,209,139613,2,0,L|253:208,1,101.999996887207
367,327,139913,2,0,L|250:328,1,101.999996887207
303,206,140213,1,0,0:0:0:0:
73,191,140363,5,0,0:0:0:0:
78,177,140438,1,0,0:0:0:0:
86,164,140513,1,0,0:0:0:0:
215,36,140663,2,0,P|252:38|334:51,1,101.999996887207
420,138,140963,2,0,P|383:140|301:153,1,101.999996887207
185,251,141263,2,0,P|222:253|304:266,1,101.999996887207
434,335,141563,5,0,0:0:0:0:
334,69,141713,2,0,B|378:81|378:81|456:82,2,101.999996887207
223,124,142163,1,0,0:0:0:0:
318,159,142313,1,0,0:0:0:0:
379,240,142463,1,0,0:0:0:0:
369,341,142613,1,0,0:0:0:0:
267,346,142763,6,0,L|88:238,2,203.999993774414
292,348,143438,1,0,0:0:0:0:
317,351,143513,2,0,P|380:337|439:311,1,101.999996887207
449,227,143813,1,0,0:0:0:0:
424,75,143963,5,0,0:0:0:0:
401,86,144038,1,0,0:0:0:0:
378,97,144113,1,0,0:0:0:0:
353,102,144188,1,0,0:0:0:0:
327,100,144263,1,0,0:0:0:0:
291,93,144338,1,0,0:0:0:0:
256,85,144413,1,0,0:0:0:0:
221,74,144488,1,0,0:0:0:0:
187,87,144563,6,0,L|129:42,1,50.9999984436036
37,174,144713,6,0,L|95:129,1,50.9999984436036
215,277,144863,6,0,L|174:245,1,50.9999984436036
38,362,145013,6,0,L|78:330,1,50.9999984436036
259,188,145163,5,0,0:0:0:0:
327,347,145313,1,0,0:0:0:0:
167,146,145463,1,0,0:0:0:0:
379,55,145613,1,0,0:0:0:0:
170,243,145763,1,0,0:0:0:0:
14,109,145913,2,0,P|107:113|207:43,1,203.999993774414
67,248,146363,6,0,P|86:328|80:366,1,101.999996887207
425,228,146663,2,0,P|343:166|227:179,1,203.999993774414
182,238,147113,1,0,0:0:0:0:
414,93,147263,2,0,P|481:86|534:53,1,101.999996887207
329,19,147563,5,0,0:0:0:0:
276,256,147713,1,0,0:0:0:0:
140,48,147863,2,0,P|209:19|251:22,1,101.999996887207
321,175,148163,1,0,0:0:0:0:
224,143,148313,1,0,0:0:0:0:
62,287,148463,2,0,P|85:360|79:407,1,101.999996887207
0,108,148763,6,0,P|86:120|191:30,1,203.999993774414
232,146,149213,1,0,0:0:0:0:
394,94,149363,2,0,P|389:34|359:-9,1,101.999996887207
281,261,149663,2,0,P|256:305|254:355,1,101.999996887207
512,209,149963,6,0,P|398:190|314:155,1,203.999993774414
217,210,150413,1,0,0:0:0:0:
291,41,150563,1,0,0:0:0:0:
279,295,150713,1,0,0:0:0:0:
75,179,150863,1,0,0:0:0:0:
163,132,151013,1,0,0:0:0:0:
0,7,151163,6,0,P|106:47|228:32,1,203.999993774414
329,0,151613,1,0,0:0:0:0:
435,156,151763,2,0,P|423:214|393:246,1,101.999996887207
213,359,152063,1,0,0:0:0:0:
198,253,152213,1,0,0:0:0:0:
313,112,152363,6,0,B|422:147|413:68|536:114,1,203.999993774414
304,4,152813,1,0,0:0:0:0:
163,138,152963,1,0,0:0:0:0:
26,103,153113,1,0,0:0:0:0:
114,225,153263,1,0,0:0:0:0:
84,369,153413,1,0,0:0:0:0:
235,204,153563,5,0,0:0:0:0:
203,112,153713,1,0,0:0:0:0:
375,16,153863,1,0,0:0:0:0:
349,112,154013,1,0,0:0:0:0:
471,293,154163,5,0,0:0:0:0:
472,305,154238,1,0,0:0:0:0:
476,317,154313,1,0,0:0:0:0:
481,329,154388,1,0,0:0:0:0:
503,355,154463,5,0,0:0:0:0:
449,320,154538,1,0,0:0:0:0:
389,301,154613,1,0,0:0:0:0:
325,299,154688,1,0,0:0:0:0:
264,315,154763,5,0,0:0:0:0:
131,147,154913,1,0,0:0:0:0:
51,338,155063,1,0,0:0:0:0:
291,62,155213,1,0,0:0:0:0:
371,354,155363,1,0,0:0:0:0:
133,42,155513,2,0,B|76:45|76:45|26:55,1,101.999996887207
354,128,155813,2,0,B|411:131|411:131|461:141,1,101.999996887207
366,256,156113,1,0,0:0:0:0:
238,78,156263,1,0,0:0:0:0:
366,256,156413,1,0,0:0:0:0:
97,301,156563,6,0,P|142:317|240:318,1,101.999996887207
300,261,156863,1,0,0:0:0:0:
300,261,156938,1,0,0:0:0:0:
300,261,157013,1,0,0:0:0:0:
176,47,157163,1,0,0:0:0:0:
179,343,157313,1,0,0:0:0:0:
176,47,157463,1,0,0:0:0:0:
206,355,157613,6,0,P|261:369|319:376,1,101.999996887207
437,299,157913,1,0,0:0:0:0:
371,80,158063,1,0,0:0:0:0:
73,57,158213,1,0,0:0:0:0:
371,80,158363,1,0,0:0:0:0:
73,210,158513,2,0,B|107:259|107:259|168:305,1,101.999996887207
272,362,158813,1,0,0:0:0:0:
366,323,158963,1,0,0:0:0:0:
280,267,159113,1,0,0:0:0:0:
288,76,159263,6,0,B|350:97|400:180|467:193,1,203.999993774414
454,292,159713,1,0,0:0:0:0:
421,42,159863,1,0,0:0:0:0:
275,179,160013,1,0,0:0:0:0:
421,42,160163,1,0,0:0:0:0:
118,73,160313,2,0,L|257:92,1,101.999996887207
156,193,160538,1,0,0:0:0:0:
156,193,160613,2,0,L|17:212,1,101.999996887207
118,311,160838,1,0,0:0:0:0:
118,311,160913,2,0,L|257:292,1,101.999996887207
411,236,161213,5,0,0:0:0:0:
422,213,161288,1,0,0:0:0:0:
433,190,161363,1,0,0:0:0:0:
260,83,161513,2,0,L|190:197,1,101.999996887207
423,33,161813,5,0,0:0:0:0:
223,29,161963,2,0,P|95:61|31:108,1,203.999993774414
161,129,162338,1,0,0:0:0:0:
161,129,162413,2,0,L|192:233,1,101.999996887207
66,317,162713,1,0,0:0:0:0:
284,105,162863,1,0,0:0:0:0:
346,328,163013,1,0,0:0:0:0:
469,191,163163,6,0,L|484:292,1,101.999996887207
255,221,163463,2,0,L|269:321,1,101.999996887207
42,191,163763,2,0,L|28:292,1,101.999996887207
348,37,164063,2,0,L|488:55,1,101.999996887207
256,192,173663,6,0,P|214:171|168:176,2,85
256,192,174863,6,0,P|298:213|344:208,2,85
256,192,176063,6,0,P|277:150|272:104,2,85
256,192,177263,6,0,P|235:234|240:280,2,85
371,119,178463,2,0,P|335:103|305:103,1,63.75
306,107,178763,6,0,L|212:124,1,85
137,101,179213,1,0,0:0:0:0:
75,50,179363,2,0,P|62:71|57:91,1,42.5
199,152,179663,2,0,P|212:131|217:111,1,42.5
98,179,179963,6,0,L|107:228,1,42.5
0,295,180263,2,0,P|-1:241|20:210,1,85
14,215,180863,2,0,P|32:181|29:142,1,63.75
29,150,181163,6,0,L|35:108,1,42.5
129,100,181463,2,0,L|122:141,1,42.5
220,64,181763,2,0,L|213:22,1,42.5
306,30,182063,2,0,L|312:71,1,42.5
428,106,182363,6,0,L|514:98,2,85
428,106,183263,1,0,0:0:0:0:
443,306,183563,6,0,P|371:340|331:336,1,101.999996887207
286,263,184013,2,0,P|214:297|174:293,1,101.999996887207
99,327,184463,1,0,0:0:0:0:
162,216,184613,1,0,0:0:0:0:
76,121,184763,1,0,0:0:0:0:
166,30,184913,1,0,0:0:0:0:
301,76,185063,6,0,L|351:111,1,50.9999984436036
390,197,185363,2,0,L|404:255,1,50.9999984436036
343,311,185663,2,0,L|357:369,1,50.9999984436036
220,257,185963,6,0,L|161:231,1,50.9999984436036
70,279,186263,1,0,0:0:0:0:
70,279,186413,1,0,0:0:0:0:
70,279,186563,2,0,B|58:246|81:197|66:155,1,101.999996887207
163,51,187013,2,0,L|221:49,1,50.9999984436036
164,139,187313,2,0,L|214:140,1,50.9999984436036
161,227,187613,1,0,0:0:0:0:
161,227,187763,2,0,L|281:227,1,101.999996887207
422,180,188213,6,0,L|444:113,2,50.9999984436036
200,94,188813,6,0,L|178:27,2,50.9999984436036
53,331,189413,6,0,L|68:282,2,50.9999984436036
328,330,190013,5,0,0:0:0:0:
328,330,190163,1,0,0:0:0:0:
328,330,190313,1,0,0:0:0:0:
458,260,190613,5,0,0:0:0:0:
458,260,190763,2,0,P|443:197|423:148,1,101.999996887207
325,93,191213,2,0,L|277:45,3,50.9999984436036
189,83,191813,1,0,0:0:0:0:
96,40,191963,1,0,0:0:0:0:
31,119,192113,1,0,0:0:0:0:
68,213,192263,1,0,0:0:0:0:
162,250,192413,2,0,L|185:295,1,50.9999984436036
316,332,193013,1,0,0:0:0:0:
447,300,193163,6,0,P|407:281|376:283,1,59.4999981842042
316,332,193463,1,0,0:0:0:0:
320,340,193613,1,0,0:0:0:0:
361,203,193763,6,0,P|324:228|310:255,1,59.4999981842042
316,332,194063,1,0,0:0:0:0:
320,340,194213,1,0,0:0:0:0:
175,305,194363,6,0,L|185:236,1,59.4999981842042
64,205,194663,2,0,L|55:263,1,59.4999981842042
131,375,194963,1,0,0:0:0:0:
131,375,195113,2,0,P|188:384|248:342,1,118.999996368408
336,370,195563,5,0,0:0:0:0:
427,265,195713,2,0,P|425:203|386:159,1,118.999996368408
379,82,196163,2,0,P|434:99|450:117,1,59.4999981842042
311,134,196463,1,0,0:0:0:0:
308,143,196613,1,0,0:0:0:0:
301,41,196763,6,0,P|343:1|366:-2,1,59.4999981842042
173,88,197063,2,0,P|160:31|167:9,1,59.4999981842042
308,143,197363,2,0,L|298:210,1,59.4999981842042
361,285,197663,1,0,0:0:0:0:
364,294,197813,1,0,0:0:0:0:
512,249,197963,6,0,P|458:211|390:224,1,118.999996368408
407,214,198413,1,0,0:0:0:0:
355,371,198563,2,0,P|396:365|427:342,1,59.4999981842042
257,280,198863,5,0,0:0:0:0:
261,287,199013,1,0,0:0:0:0:
206,349,199163,1,0,0:0:0:0:
201,355,199313,1,0,0:0:0:0:
118,320,199463,2,0,L|-6:307,1,118.999996368408
0,307,199913,1,0,0:0:0:0:
118,239,200063,2,0,P|168:257|182:274,1,59.4999981842042
270,374,200363,6,0,P|286:321|262:236,1,118.999996368408
275,259,200963,1,0,0:0:0:0:
186,132,201113,2,0,P|240:141|305:88,1,118.999996368408
322,35,201563,5,0,0:0:0:0:
512,155,201713,2,0,L|379:140,1,118.999996368408
337,204,202163,6,0,P|384:226|429:220,1,68
496,325,202463,6,0,P|460:353|402:349,1,85
211,320,202763,6,0,P|174:231|217:141,1,187.000005706787
374,67,203213,1,0,0:0:0:0:
285,231,203363,1,0,0:0:0:0:
147,41,203513,1,0,0:0:0:0:
206,167,203663,1,0,0:0:0:0:
80,308,203813,1,0,0:0:0:0:
170,332,203963,2,0,B|222:325|222:325|296:353|365:348,1,187.000005706787
405,168,204413,1,0,0:0:0:0:
405,168,204488,1,0,0:0:0:0:
405,168,204563,6,0,P|374:134|327:111,1,93.5000028533936
227,46,204863,1,0,0:0:0:0:
67,180,205013,2,0,P|82:129|118:61,1,93.5000028533936
332,127,205313,2,0,P|351:169|363:214,1,93.5000028533936
494,348,205613,1,0,0:0:0:0:
318,324,205763,6,0,P|279:298|221:279,1,93.5000028533936
99,338,206063,1,0,0:0:0:0:
121,181,206213,1,0,0:0:0:0:
333,94,206363,1,0,0:0:0:0:
333,94,206438,1,0,0:0:0:0:
333,94,206513,2,0,P|389:98|434:114,1,93.5000028533936
444,138,206738,1,0,0:0:0:0:
444,138,206813,2,0,P|425:188|398:232,1,93.5000028533936
237,336,207113,1,0,0:0:0:0:
181,178,207263,5,0,0:0:0:0:
181,178,207563,2,0,P|211:215|259:256,1,93.5000028533936
359,166,207863,1,0,0:0:0:0:
207,54,208013,1,0,0:0:0:0:
71,18,208163,2,0,L|21:6,2,46.7500014266968
43,180,208463,5,0,0:0:0:0:
43,180,208763,2,0,P|63:138|97:106,1,93.5000028533936
184,242,209063,1,0,0:0:0:0:
184,242,209138,1,0,0:0:0:0:
184,242,209213,1,0,0:0:0:0:
244,323,209363,2,0,P|288:309|326:282,2,93.5000028533936
79,180,209813,1,0,0:0:0:0:
328,94,209963,6,0,P|355:53|408:2,1,93.5000028533936
378,202,210263,2,0,P|352:241|320:275,1,93.5000028533936
215,293,210563,1,0,0:0:0:0:
376,350,210713,1,0,0:0:0:0:
266,177,210863,1,0,0:0:0:0:
266,177,210938,1,0,0:0:0:0:
266,177,211013,1,0,0:0:0:0:
147,147,211163,5,0,0:0:0:0:
93,258,211313,1,0,0:0:0:0:
93,368,211463,1,0,0:0:0:0:
93,368,211613,1,0,0:0:0:0:
286,322,211763,6,0,L|249:216,1,93.5000028533936
337,203,212063,6,0,L|367:291,1,93.5000028533936
196,368,212363,5,0,0:0:0:0:
349,112,212513,1,0,0:0:0:0:
149,2,212663,2,0,P|164:96|185:130,1,93.5000028533936
463,79,212963,2,0,P|335:64|258:17,1,187.000005706787
189,176,213413,1,0,0:0:0:0:
36,96,213563,5,0,0:0:0:0:
120,268,213713,1,0,0:0:0:0:
18,384,213863,2,0,P|28:306|53:276,1,93.5000028533936
202,154,214163,1,0,0:0:0:0:
237,249,214313,1,0,0:0:0:0:
321,104,214463,1,0,0:0:0:0:
105,28,214613,1,0,0:0:0:0:
424,70,214763,6,0,P|486:61|528:32,1,93.5000028533936
305,22,215063,1,0,0:0:0:0:
278,232,215213,1,0,0:0:0:0:
181,87,215363,1,0,0:0:0:0:
416,208,215513,1,0,0:0:0:0:
381,369,215663,1,0,0:0:0:0:
512,165,215813,1,0,0:0:0:0:
268,215,215963,6,0,P|194:194|136:201,1,93.5000028533936
1,51,216263,2,0,P|81:57|194:0,1,187.000005706787
258,67,216713,1,0,0:0:0:0:
461,3,216863,2,0,P|456:67|410:113,1,93.5000028533936
211,295,217163,5,0,0:0:0:0:
131,154,217313,1,0,0:0:0:0:
291,158,217463,1,0,0:0:0:0:
291,158,217613,1,0,0:0:0:0:
200,313,217763,5,0,0:0:0:0:
120,136,217913,1,0,0:0:0:0:
313,157,218063,1,0,0:0:0:0:
313,157,218213,1,0,0:0:0:0:
186,331,218363,5,0,0:0:0:0:
113,118,218513,1,0,0:0:0:0:
334,160,218663,1,0,0:0:0:0:
334,160,218813,1,0,0:0:0:0:
170,345,218963,5,0,0:0:0:0:
108,96,219113,1,0,0:0:0:0:
355,167,219263,1,0,0:0:0:0:
355,167,219413,1,0,0:0:0:0:
151,358,219563,5,0,0:0:0:0:
105,72,219713,1,0,0:0:0:0:
376,176,219863,1,0,0:0:0:0:
376,176,220013,1,0,0:0:0:0:
130,369,220163,5,0,0:0:0:0:
107,49,220313,1,0,0:0:0:0:
396,189,220463,1,0,0:0:0:0:
396,189,220613,1,0,0:0:0:0:
105,378,220763,5,0,0:0:0:0:
112,25,220913,1,0,0:0:0:0:
414,206,221063,1,0,0:0:0:0:
414,206,221213,1,0,0:0:0:0:
80,384,221363,5,0,0:0:0:0:
120,0,221513,1,0,0:0:0:0:
432,226,221663,1,0,0:0:0:0:
432,226,221813,1,0,0:0:0:0:
232,319,221963,6,0,B|179:288|168:201|83:156,1,187.000005706787
245,65,222413,1,0,0:0:0:0:
88,323,222563,1,0,0:0:0:0:
280,234,222713,1,0,0:0:0:0:
478,240,222863,2,0,P|441:281|385:323,1,93.5000028533936
268,125,223163,6,0,P|310:143|359:178,1,93.5000028533936
212,313,223463,1,0,0:0:0:0:
142,78,223613,1,0,0:0:0:0:
66,252,223763,1,0,0:0:0:0:
66,252,223838,1,0,0:0:0:0:
66,252,223913,2,0,L|73:148,1,93.5000028533936
248,52,224213,5,0,0:0:0:0:
436,148,224363,1,0,0:0:0:0:
138,302,224513,1,0,0:0:0:0:
208,76,224663,1,0,0:0:0:0:
396,172,224813,1,0,0:0:0:0:
98,326,224963,1,0,0:0:0:0:
74,83,225113,6,0,B|96:127|96:127|155:184,1,93.5000028533936
224,278,225413,5,0,0:0:0:0:
357,312,225563,1,0,0:0:0:0:
304,94,225713,1,0,0:0:0:0:
113,216,225863,2,0,P|92:271|55:333,1,93.5000028533936
200,105,226163,2,0,P|221:160|258:222,1,93.5000028533936
376,45,226463,2,0,P|355:100|318:162,1,93.5000028533936
488,335,226763,5,0,0:0:0:0:
396,314,226913,1,0,0:0:0:0:
306,340,227063,1,0,0:0:0:0:
246,267,227213,1,0,0:0:0:0:
157,297,227363,2,0,P|114:293|42:346,1,93.5000028533936
52,100,227663,2,0,P|95:96|167:149,1,93.5000028533936
291,50,227963,5,0,0:0:0:0:
460,199,228113,1,0,0:0:0:0:
435,65,228263,2,0,L|482:32,2,46.7500014266968
348,215,228563,1,0,0:0:0:0:
344,228,228638,1,0,0:0:0:0:
341,241,228713,2,0,L|312:348,1,93.5000028533936
146,252,229013,1,0,0:0:0:0:
11,137,229163,6,0,B|49:149|49:149|145:113|205:130,1,187.000005706787
124,29,229613,1,0,0:0:0:0:
374,137,229763,2,0,B|336:149|336:149|240:113|180:130,1,187.000005706787
124,355,230213,1,0,0:0:0:0:
206,281,230363,6,0,P|113:272|28:308,1,187.000005706787
38,284,230738,1,0,0:0:0:0:
37,241,230813,1,0,0:0:0:0:
25,200,230888,1,0,0:0:0:0:
20,148,230963,1,0,0:0:0:0:
48,94,231038,1,0,0:0:0:0:
111,78,231113,1,0,0:0:0:0:
151,129,231188,1,0,0:0:0:0:
124,188,231263,1,0,0:0:0:0:
161,232,231338,1,0,0:0:0:0:
223,211,231413,1,0,0:0:0:0:
512,173,231563,6,0,B|417:191|431:119|322:149,1,187.000005706787
339,356,232013,1,0,0:0:0:0:
255,0,232163,2,0,P|238:77|247:113,1,93.5000028533936
311,242,232463,1,0,0:0:0:0:
222,219,232613,1,0,0:0:0:0:
0,384,232763,6,0,P|89:344|194:351,1,187.000005706787
176,346,233213,1,0,0:0:0:0:
53,148,233363,2,0,B|38:123|38:123|48:34,1,93.5000028533936
256,0,233663,2,0,B|271:25|271:25|261:114,1,93.5000028533936
512,340,233963,6,0,P|437:349|341:258,1,187.000005706787
431,187,234413,1,0,0:0:0:0:
193,256,234563,2,0,P|253:233|306:242,1,93.5000028533936
111,11,234863,2,0,P|195:39|219:72,1,93.5000028533936
46,375,235163,6,0,P|71:295|58:174,1,187.000005706787
64,193,235613,1,0,0:0:0:0:
439,88,235763,2,0,P|409:41|271:53,1,187.000005706787
348,111,236213,1,0,0:0:0:0:
0,125,236363,6,0,B|70:114|70:114|100:97|100:97|185:84,1,187.000005706787
258,253,236813,1,0,0:0:0:0:
215,0,236963,2,0,P|301:27|325:52,1,93.5000028533936
416,217,237263,1,0,0:0:0:0:
395,138,237413,1,0,0:0:0:0:
261,384,237563,6,0,P|266:287|309:187,1,187.000005706787
298,204,238013,1,0,0:0:0:0:
88,143,238163,1,0,0:0:0:0:
393,46,238313,2,0,P|474:71|497:98,1,93.5000028533936
336,322,238613,1,0,0:0:0:0:
212,150,238763,6,0,B|182:90|226:29|226:29|199:70|149:75,1,187.000005706787
291,192,239213,1,0,0:0:0:0:
67,57,239363,1,0,0:0:0:0:
86,140,239513,1,0,0:0:0:0:
0,364,239663,2,0,P|61:343|108:345,1,93.5000028533936
418,211,239963,6,0,B|367:132|278:158|278:158|289:201,1,187.000005706787
284,181,240413,1,0,0:0:0:0:
512,297,240563,1,0,0:0:0:0:
496,296,240638,1,0,0:0:0:0:
481,301,240713,1,0,0:0:0:0:
469,311,240788,1,0,0:0:0:0:
442,363,240863,5,0,0:0:0:0:
481,320,240938,1,0,0:0:0:0:
502,266,241013,1,0,0:0:0:0:
501,208,241088,1,0,0:0:0:0:
479,155,241163,5,0,0:0:0:0:
310,73,241613,5,0,0:0:0:0:
128,111,242063,2,0,L|335:106,1,187.000005706787
199,224,242513,1,0,0:0:0:0:
199,224,242663,1,0,0:0:0:0:
199,224,242963,6,0,P|221:277|324:224,1,187.000005706787
323,240,243563,1,0,0:0:0:0:
138,330,244013,1,0,0:0:0:0:
55,158,244463,1,0,0:0:0:0:
55,158,244763,1,0,0:0:0:0:
55,158,245063,6,0,B|76:84|161:46|218:79,1,187.000005706787
199,71,245663,1,0,0:0:0:0:
443,81,245963,2,0,B|381:97|327:147|327:147|267:159,1,187.000005706787
275,157,246413,1,0,0:0:0:0:
451,266,246863,1,0,0:0:0:0:
244,292,247163,6,0,P|283:303|443:295,1,187.000005706787
296,220,247613,1,0,0:0:0:0:
95,319,248063,1,0,0:0:0:0:
97,303,248363,6,0,B|88:245|121:155|167:124,1,187.000005706787
160,132,248963,1,0,0:0:0:0:
226,65,249263,1,0,0:0:0:0:
464,172,249563,6,0,P|454:226|428:285,1,93.5000028533936
311,318,249863,2,0,P|326:274|334:228,1,93.5000028533936
174,63,250163,2,0,P|184:117|210:176,1,93.5000028533936
102,255,250463,2,0,P|92:201|66:142,1,93.5000028533936
17,366,250763,6,0,P|111:341|160:344,1,136
233,374,251213,1,0,0:0:0:0:
233,374,251363,1,0,0:0:0:0:
307,322,251663,5,0,0:0:0:0:
447,372,251963,5,0,0:0:0:0:
406,297,252263,5,0,0:0:0:0:
484,140,252413,5,0,0:0:0:0:
484,140,252563,1,0,0:0:0:0:
397,157,252863,5,0,0:0:0:0:
166,15,253163,6,0,P|217:13|296:55,1,136
135,97,253613,1,0,0:0:0:0:
6,26,253763,5,0,0:0:0:0:
6,26,254063,1,0,0:0:0:0:
6,26,254363,1,0,0:0:0:0:
6,26,254663,1,0,0:0:0:0:
6,26,254963,1,0,0:0:0:0:
50,98,255263,5,0,0:0:0:0:
222,296,255563,6,0,P|136:312|89:352,1,136
25,298,256013,1,0,0:0:0:0:
253,373,256163,5,0,0:0:0:0:
253,373,256463,1,0,0:0:0:0:
328,336,256763,5,0,0:0:0:0:
328,336,257063,1,0,0:0:0:0:
477,374,257213,5,0,0:0:0:0:
477,374,257363,1,0,0:0:0:0:
402,222,257663,5,0,0:0:0:0:
480,52,257963,5,0,0:0:0:0:
480,52,258263,1,0,0:0:0:0:
291,7,258413,5,0,0:0:0:0:
291,7,258563,1,0,0:0:0:0:
356,67,258863,5,0,0:0:0:0:
356,67,259163,1,0,0:0:0:0:
356,67,259463,1,0,0:0:0:0:
356,67,259763,5,0,0:0:0:0:
210,44,259913,1,0,0:0:0:0:
65,22,260063,1,0,0:0:0:0:
91,192,260363,5,0,0:0:0:0:
60,324,260513,1,0,0:0:0:0:
217,260,260663,1,0,0:0:0:0:
217,260,260963,1,0,0:0:0:0:
217,260,261263,1,0,0:0:0:0:
217,260,261563,1,0,0:0:0:0:
324,307,261713,2,0,L|259:358,1,59.4999981842042
454,346,262163,6,0,B|465:310|465:310|485:273|485:273|489:233,1,118.999996368408
437,189,262763,6,0,L|518:178,1,59.4999981842042
436,95,263063,1,0,0:0:0:0:
304,259,263363,1,0,0:0:0:0:
434,277,263663,1,0,0:0:0:0:
368,70,263963,6,0,B|325:98|325:98|308:103|308:103|246:137,1,118.999996368408
155,42,264563,6,0,L|153:106,1,59.4999981842042
201,207,264863,1,0,0:0:0:0:
76,161,265013,1,0,0:0:0:0:
76,161,265163,6,0,B|66:210|66:210|68:220|68:220|62:283,1,118.999996368408
123,340,265613,1,0,0:0:0:0:
294,238,266063,1,0,0:0:0:0:
294,238,266363,6,0,L|286:118,1,118.999996368408
376,21,266813,1,0,0:0:0:0:
473,172,267263,1,0,0:0:0:0:
471,184,267563,6,0,B|460:229|460:229|421:258|395:300,1,118.999996368408
401,286,268163,1,0,0:0:0:0:
478,363,268463,1,0,0:0:0:0:
165,337,268763,6,0,B|134:302|151:256|126:208,1,118.999996368408
347,47,269363,6,0,B|378:82|361:128|386:176,1,118.999996368408
