osu file format v14

[General]
AudioFilename: audio.mp3
AudioLeadIn: 0
PreviewTime: 105928
Countdown: 0
SampleSet: Soft
StackLeniency: 0.7
Mode: 0
LetterboxInBreaks: 0
WidescreenStoryboard: 0

[Editor]
Bookmarks: 1565,48110,83019,106292
DistanceSpacing: 0.2
BeatDivisor: 4
GridSize: 8
TimelineZoom: 1

[Metadata]
Title:We Are the Crystal Gems (Change Your Mind Version)
TitleUnicode:We Are the Crystal Gems (Change Your Mind Version)
Artist:Zach Callison
ArtistUnicode:Zach Callison
Creator:X4D
Version:Starlight
Source:Steven Universe
Tags:penguiness intro su opening cartoon network cn rebecca sugar diamond days aivi & surasshu ost volume 2 original soundtrack
BeatmapID:1911772
BeatmapSetID:915387

[Difficulty]
HPDrainRate:5.5
CircleSize:3.8
OverallDifficulty:8.5
ApproachRate:9
SliderMultiplier:1.4
SliderTickRate:1

[Events]
//Background and Video events
0,0,"hiatusmode.jpg",0,0
//Break Periods
//Storyboard Layer 0 (Background)
//Storyboard Layer 1 (Fail)
//Storyboard Layer 2 (Pass)
//Storyboard Layer 3 (Foreground)
//Storyboard Layer 4 (Overlay)
//Storyboard Sound Samples

[TimingPoints]
1565,363.636363636364,4,2,1,85,1,0
1565,-83.3333333333333,4,2,1,85,0,0
12837,-83.3333333333333,4,2,1,5,0,0
12928,-83.3333333333333,4,2,1,85,0,0
13110,-83.3333333333333,4,2,1,5,0,0
13201,-83.3333333333333,4,2,1,85,0,0
16019,-83.3333333333333,4,2,1,5,0,0
16110,-83.3333333333333,4,2,1,85,0,0
24474,-83.3333333333333,4,2,1,5,0,0
24565,-83.3333333333333,4,2,1,85,0,0
24746,-83.3333333333333,4,2,1,5,0,0
24837,-83.3333333333333,4,2,1,85,0,0
29565,-66.6666666666667,4,2,1,85,0,0
30655,-83.3333333333333,4,2,1,85,0,0
35383,-66.6666666666667,4,2,1,85,0,0
36474,-83.3333333333333,4,2,1,85,0,0
42655,-83.3333333333333,4,2,1,45,0,0
48110,-83.3333333333333,4,2,1,85,0,0
48383,-83.3333333333333,4,2,1,5,0,0
48474,-83.3333333333333,4,2,1,85,0,0
49837,-83.3333333333333,4,2,1,5,0,0
49928,-83.3333333333333,4,2,1,85,0,0
51292,-83.3333333333333,4,2,1,5,0,0
51383,-83.3333333333333,4,2,1,85,0,0
54201,-83.3333333333333,4,2,1,5,0,0
54292,-83.3333333333333,4,2,1,85,0,0
55655,-83.3333333333333,4,2,1,5,0,0
55746,-83.3333333333333,4,2,1,85,0,0
57110,-83.3333333333333,4,2,1,5,0,0
57201,-83.3333333333333,4,2,1,85,0,0
59383,-83.3333333333333,4,2,1,5,0,0
59474,-83.3333333333333,4,2,1,85,0,0
61110,-83.3333333333333,4,2,1,5,0,0
61201,-83.3333333333333,4,2,1,85,0,0
62565,-83.3333333333333,4,2,1,5,0,0
62655,-83.3333333333333,4,2,1,85,0,0
64019,-83.3333333333333,4,2,1,5,0,0
64110,-83.3333333333333,4,2,1,85,0,0
66928,-83.3333333333333,4,2,1,5,0,0
67019,-83.3333333333333,4,2,1,85,0,0
69837,-83.3333333333333,4,2,1,5,0,0
69928,-83.3333333333333,4,2,1,85,0,0
72746,-83.3333333333333,4,2,1,5,0,0
72837,-83.3333333333333,4,2,1,85,0,0
74201,-83.3333333333333,4,2,1,5,0,0
74292,-83.3333333333333,4,2,1,85,0,0
75655,-83.3333333333333,4,2,1,5,0,0
75746,-83.3333333333333,4,2,1,85,0,0
82655,-83.3333333333333,4,2,1,5,0,0
82746,-83.3333333333333,4,2,1,85,0,0
82928,-83.3333333333333,4,2,1,5,0,0
83019,-83.3333333333333,4,2,1,85,0,0
87746,-66.6666666666667,4,2,1,85,0,0
88837,-83.3333333333333,4,2,1,85,0,0
93565,-66.6666666666667,4,2,1,85,0,0
94655,-83.3333333333333,4,2,1,85,0,0
103383,-133.333333333333,4,2,1,85,0,0
103746,-133.333333333333,4,2,1,45,0,0
106292,-74.0740740740741,4,2,1,85,0,1
117565,-74.0740740740741,4,2,1,5,0,0
117656,-74.0740740740741,4,2,1,85,0,0
117837,-74.0740740740741,4,2,1,5,0,0
117928,-74.0740740740741,4,2,1,85,0,0
120201,-74.0740740740741,4,2,1,40,0,0

[Colours]
Combo1 : 82,102,45
Combo2 : 167,167,167
Combo3 : 248,148,238
Combo4 : 90,112,186

[HitObjects]
92,37,1565,6,0,P|149:34|207:127,1,167.999994873047,4|8,0:0|0:0,0:0:0:0:
112,202,2110,2,0,L|121:99,1,83.9999974365235,8|0,2:3|0:0,0:0:0:0:
182,257,2474,1,8,0:0:0:0:
225,132,2655,2,0,P|263:118|329:132,1,83.9999974365235,10|0,2:3|0:0,0:0:0:0:
494,202,3019,6,0,B|403:194|426:254|326:251,1,167.999994873047,8|8,2:3|0:0,0:0:0:0:
182,257,3565,2,0,P|222:281|243:316,1,83.9999974365235,8|0,2:3|0:0,0:0:0:0:
94,280,3928,2,0,P|94:233|114:197,1,83.9999974365235,8|8,0:0|2:3,0:0:0:0:
158,345,4292,1,0,0:0:0:0:
11,334,4474,6,0,L|2:146,1,167.999994873047,2|8,0:0|0:0,0:0:0:0:
21,24,5019,2,0,P|61:48|82:83,1,83.9999974365235,8|0,2:3|0:0,0:0:0:0:
24,149,5383,1,8,0:0:0:0:
194,196,5565,2,0,L|110:200,1,83.9999974365235,10|0,2:3|0:0,0:0:0:0:
229,116,5928,6,0,B|274:138|274:138|286:262,2,167.999994873047,8|8|0,2:3|0:0|0:0,0:0:0:0:
228,318,6837,1,8,2:3:0:0:
433,140,7019,1,8,0:0:0:0:
194,196,7201,1,8,0:0:0:0:
467,229,7383,6,0,P|514:180|493:71,1,167.999994873047,4|8,0:0|0:0,0:0:0:0:
343,49,7928,2,0,L|245:56,1,83.9999974365235,8|0,2:3|0:0,0:0:0:0:
341,141,8292,1,8,0:0:0:0:
194,196,8474,2,0,L|292:203,1,83.9999974365235,10|0,2:3|0:0,0:0:0:0:
389,275,8837,5,8,2:3:0:0:
358,352,9019,2,0,P|319:322|306:278,1,83.9999974365235,0|8,0:0|0:0,0:0:0:0:
417,201,9383,2,0,P|410:249|378:283,1,83.9999974365235,8|0,2:3|0:0,0:0:0:0:
277,201,9746,1,8,0:0:0:0:
382,363,9928,2,0,L|471:357,1,83.9999974365235,8|0,2:3|0:0,0:0:0:0:
259,187,10292,6,0,B|231:167|231:167|224:314,1,167.999994873047,2|8,0:0|0:0,0:0:0:0:
344,226,10837,2,0,B|340:142,1,83.9999974365235,8|0,2:3|0:0,0:0:0:0:
401,73,11201,1,8,0:0:0:0:
274,8,11383,2,0,B|270:91,1,83.9999974365235,10|0,2:3|0:0,0:0:0:0:
72,238,11746,5,8,2:3:0:0:
160,64,11928,1,8,2:3:0:0:
174,285,12110,5,8,0:0:0:0:
76,92,12292,1,8,2:3:0:0:
68,348,12474,5,8,0:0:0:0:
189,167,12655,1,8,0:0:0:0:
189,167,12746,2,0,L|239:171,1,41.9999987182618,8|2,0:0|3:0,0:0:0:0:
320,324,12928,1,8,0:0:0:0:
320,324,13019,2,0,L|370:320,1,41.9999987182618,8|0,0:0|0:0,0:0:0:0:
489,161,13201,6,0,B|449:142|449:142|403:189|427:269,1,167.999994873047,4|8,0:0|0:0,0:0:0:0:
489,355,13746,2,0,L|393:345,1,83.9999974365235,8|0,2:3|0:0,0:0:0:0:
211,352,14110,1,8,0:0:0:0:
324,197,14292,2,0,L|314:101,1,83.9999974365235,10|0,2:3|0:0,0:0:0:0:
122,43,14655,5,8,2:3:0:0:
227,225,14837,1,0,0:0:0:0:
293,31,15019,1,8,0:0:0:0:
143,166,15201,1,8,2:3:0:0:
312,276,15383,5,0,0:0:0:0:
207,94,15565,1,8,0:0:0:0:
149,315,15746,2,0,P|101:315|15:326,1,125.999996154785,8|0,2:3|0:0,0:0:0:0:
4,311,16110,6,0,B|11:253|11:253|-4:202|-4:202|4:113,1,167.999994873047,2|8,0:0|0:0,0:0:0:0:
79,60,16655,2,0,P|117:50|169:62,1,83.9999974365235,8|0,2:3|0:0,0:0:0:0:
243,148,17019,1,8,0:0:0:0:
127,236,17201,2,0,L|121:140,1,83.9999974365235,10|0,2:3|0:0,0:0:0:0:
393,245,17565,5,8,2:3:0:0:
243,148,17746,1,8,2:3:0:0:
415,158,17928,1,8,0:0:0:0:
253,285,18110,1,8,2:3:0:0:
468,364,18292,2,0,L|472:258,1,83.9999974365235,0|8,0:0|2:3,0:0:0:0:
275,45,18655,5,8,0:0:0:0:
393,245,18837,1,8,0:0:0:0:
449,16,19019,6,0,B|359:9|383:76|271:66,1,167.999994873047,4|8,0:0|0:0,0:0:0:0:
186,14,19565,2,0,P|200:67|202:117,1,83.9999974365235,8|0,2:3|0:0,0:0:0:0:
96,73,19928,1,8,0:0:0:0:
149,196,20110,2,0,P|135:249|133:299,1,83.9999974365235,10|0,2:3|0:0,0:0:0:0:
371,333,20474,6,0,B|341:295|341:295|194:311,1,167.999994873047,8|8,2:3|0:0,0:0:0:0:
75,225,21019,2,0,P|115:243|133:283,1,83.9999974365235,8|0,2:3|0:0,0:0:0:0:
27,347,21383,1,8,0:0:0:0:
35,155,21565,1,8,2:3:0:0:
14,356,21746,1,0,0:0:0:0:
166,176,21928,6,0,B|235:179|235:179|269:201|269:201|356:204,1,167.999994873047,2|8,0:0|0:0,0:0:0:0:
311,38,22474,2,0,L|294:128,1,83.9999974365235,8|0,2:3|0:0,0:0:0:0:
396,258,22837,1,8,0:0:0:0:
442,144,23019,2,0,L|426:61,1,83.9999974365235,10|0,2:3|0:0,0:0:0:0:
321,328,23383,5,8,2:3:0:0:
480,285,23565,1,8,2:3:0:0:
270,232,23746,5,8,0:0:0:0:
432,355,23928,1,8,2:3:0:0:
185,353,24110,5,8,0:0:0:0:
318,157,24292,1,8,0:0:0:0:
318,157,24383,2,0,L|309:109,1,41.9999987182618,8|2,0:0|3:0,0:0:0:0:
439,313,24565,1,8,0:0:0:0:
439,313,24656,2,0,L|430:361,1,41.9999987182618,8|0,0:0|0:0,0:0:0:0:
454,108,24837,6,0,B|459:62|459:62|388:45|410:93|324:75,1,167.999994873047,6|8,0:0|0:0,0:0:0:0:
212,30,25383,2,0,L|112:37,1,83.9999974365235,8|0,2:3|0:0,0:0:0:0:
193,127,25746,1,8,2:3:0:0:
30,192,25928,2,0,L|130:199,1,83.9999974365235,8|0,0:0|0:0,0:0:0:0:
330,246,26292,6,0,B|253:238|266:306|177:298,1,167.999994873047,2|8,0:0|0:0,0:0:0:0:
72,324,26837,1,8,2:3:0:0:
193,127,27019,2,0,P|197:176|190:233,1,83.9999974365235,2|8,0:0|2:3,0:0:0:0:
67,64,27383,1,8,0:0:0:0:
113,197,27565,1,8,2:3:0:0:
241,40,27746,6,0,P|297:20|396:67,1,167.999994873047,2|8,0:0|0:0,0:0:0:0:
338,220,28292,2,0,P|335:178|339:136,1,83.9999974365235,8|0,2:3|0:0,0:0:0:0:
391,61,28655,1,8,2:3:0:0:
451,205,28837,2,0,P|453:246|449:288,1,83.9999974365235,8|0,0:0|0:0,0:0:0:0:
304,350,29201,1,8,2:3:0:0:
397,369,29383,1,8,2:3:0:0:
246,247,29565,6,0,B|215:226|175:223|175:223|149:238,1,105.000004005432,2|8,2:3|0:0,0:0:0:0:
144,246,29837,1,8,0:0:0:0:
139,255,29928,1,8,2:3:0:0:
1,327,30110,6,0,B|36:352|36:352|4:271|79:266|38:182,1,210.000008010865,2|8,2:3|0:0,0:0:0:0:
58,105,30565,1,8,0:0:0:0:
63,96,30655,6,0,P|125:78|215:130,1,167.999994873047,6|8,0:0|0:0,0:0:0:0:
265,216,31201,2,0,L|259:318,1,83.9999974365235,8|0,2:3|0:0,0:0:0:0:
186,351,31565,1,8,2:3:0:0:
354,259,31746,2,0,L|348:157,1,83.9999974365235,8|0,0:0|0:0,0:0:0:0:
366,21,32110,6,0,B|278:15|303:79|197:68,1,167.999994873047,2|8,0:0|0:0,0:0:0:0:
86,20,32655,1,8,2:3:0:0:
133,160,32837,2,0,P|177:152|242:151,1,83.9999974365235,2|8,0:0|2:3,0:0:0:0:
366,281,33201,1,8,0:0:0:0:
260,232,33383,1,8,2:3:0:0:
470,178,33565,6,0,B|472:246|472:246|450:296|450:296|451:372,1,167.999994873047,2|8,0:0|0:0,0:0:0:0:
283,323,34110,2,0,L|183:328,1,83.9999974365235,8|0,2:3|0:0,0:0:0:0:
104,259,34474,1,8,2:3:0:0:
264,148,34655,2,0,L|259:248,1,83.9999974365235,8|0,0:0|0:0,0:0:0:0:
154,95,35019,1,8,2:3:0:0:
240,58,35201,1,8,2:3:0:0:
53,36,35383,6,0,B|66:52|66:52|58:148,1,105.000004005432,2|8,2:3|0:0,0:0:0:0:
54,145,35655,1,8,0:0:0:0:
49,153,35746,1,8,2:3:0:0:
18,289,35928,6,0,B|44:251|100:250|100:250|131:311|199:302,1,210.000008010865,2|8,2:3|0:0,0:0:0:0:
278,329,36383,1,8,0:0:0:0:
284,337,36474,6,0,B|275:135,1,167.999994873047,6|8,0:0|0:0,0:0:0:0:
240,58,37019,2,0,P|281:43|332:49,1,83.9999974365235,8|0,2:3|0:0,0:0:0:0:
411,65,37383,1,8,2:3:0:0:
400,197,37565,2,0,P|367:170|348:133,1,83.9999974365235,8|0,0:0|0:0,0:0:0:0:
492,249,37928,6,0,B|464:286|464:286|331:277,1,167.999994873047,2|8,0:0|0:0,0:0:0:0:
400,197,38474,1,8,2:3:0:0:
243,104,38655,2,0,P|228:150|232:191,1,83.9999974365235,2|8,0:0|2:3,0:0:0:0:
425,360,39019,1,8,0:0:0:0:
317,194,39201,1,8,2:3:0:0:
201,332,39383,6,0,L|17:344,1,167.999994873047,2|8,0:0|0:0,0:0:0:0:
99,172,39928,2,0,P|133:205|149:243,1,83.9999974365235,8|0,2:3|0:0,0:0:0:0:
49,255,40292,1,8,2:3:0:0:
8,85,40474,2,0,L|126:94,1,83.9999974365235,8|0,0:0|0:0,0:0:0:0:
350,51,40837,5,2,0:0:0:0:
203,149,41019,1,0,0:0:0:0:
424,156,41201,1,8,0:0:0:0:
239,66,41383,1,8,2:3:0:0:
328,244,41565,5,0,0:0:0:0:
434,22,41746,1,8,2:3:0:0:
345,266,41928,1,8,0:0:0:0:
239,66,42110,1,8,2:3:0:0:
438,248,42292,5,2,0:0:0:0:
256,192,42383,12,10,45201,2:3:0:0:
256,192,45292,12,10,47383,3:0:0:0:
213,343,48110,6,0,L|196:204,1,125.999996154785,4|0,0:0|0:0,0:0:0:0:
197,217,48474,2,0,P|235:194|279:194,1,83.9999974365235,8|8,0:0|2:3,0:0:0:0:
356,242,48837,1,0,0:0:0:0:
262,109,49019,2,0,P|303:111|337:134,1,83.9999974365235,8|10,0:0|2:3,0:0:0:0:
356,242,49383,1,0,0:0:0:0:
425,159,49565,6,0,P|414:81|404:26,1,125.999996154785,8|0,2:3|0:0,0:0:0:0:
405,34,49928,2,0,L|303:21,1,83.9999974365235,8|8,0:0|2:3,0:0:0:0:
262,109,50292,1,0,0:0:0:0:
356,242,50474,2,0,L|342:139,2,83.9999974365235,8|8|0,0:0|2:3|0:0,0:0:0:0:
287,322,51019,6,0,B|258:299|258:299|208:297|173:340,1,125.999996154785,2|0,0:0|0:0,0:0:0:0:
153,360,51383,2,0,P|158:304|146:269,1,83.9999974365235,8|8,0:0|2:3,0:0:0:0:
9,224,51746,1,0,0:0:0:0:
117,106,51928,2,0,B|213:86|181:155|276:138,1,167.999994873047,8|0,0:0|0:0,0:0:0:0:
469,44,52474,5,8,2:3:0:0:
301,17,52655,1,8,2:3:0:0:
451,209,52837,2,0,L|440:113,1,83.9999974365235,8|8,0:0|2:3,0:0:0:0:
330,257,53201,1,0,0:0:0:0:
431,335,53383,1,8,2:3:0:0:
347,155,53565,5,8,0:0:0:0:
259,356,53746,1,8,0:0:0:0:
175,191,53928,6,0,P|108:211|85:278,1,125.999996154785,8|0,2:3|0:0,0:0:0:0:
84,257,54292,2,0,L|92:357,1,83.9999974365235,8|8,0:0|2:3,0:0:0:0:
171,375,54655,1,0,0:0:0:0:
249,231,54837,2,0,L|255:147,1,83.9999974365235,8|10,0:0|2:3,0:0:0:0:
166,267,55201,1,0,0:0:0:0:
344,300,55383,6,0,L|336:165,1,125.999996154785,8|0,2:3|0:0,0:0:0:0:
336,174,55746,2,0,P|381:146|430:155,1,83.9999974365235,8|8,0:0|2:3,0:0:0:0:
488,212,56110,1,0,0:0:0:0:
408,54,56292,2,0,L|513:60,2,83.9999974365235,8|8|0,0:0|2:3|0:0,0:0:0:0:
272,44,56837,6,0,B|246:22|246:22|191:22|156:66,1,125.999996154785,2|0,0:0|0:0,0:0:0:0:
132,55,57201,2,0,P|141:115|128:157,1,83.9999974365235,8|8,0:0|2:3,0:0:0:0:
40,188,57565,1,0,0:0:0:0:
200,244,57746,2,0,L|282:228,2,83.9999974365235,8|10|0,0:0|2:3|0:0,0:0:0:0:
379,324,58292,5,8,2:3:0:0:
285,130,58474,1,8,2:3:0:0:
275,359,58655,5,8,0:0:0:0:
371,185,58837,1,8,2:3:0:0:
461,364,59019,5,8,0:0:0:0:
457,130,59201,1,8,0:0:0:0:
457,130,59292,2,0,L|392:118,1,41.9999987182618,8|2,0:0|3:0,0:0:0:0:
283,228,59474,1,8,0:0:0:0:
255,234,59564,1,8,0:0:0:0:
227,239,59655,1,8,0:0:0:0:
200,244,59746,6,0,B|108:235|139:296|26:288,1,167.999994873047,4|8,0:0|0:0,0:0:0:0:
101,150,60292,2,0,P|123:185|124:228,1,83.9999974365235,8|0,2:3|0:0,0:0:0:0:
17,171,60655,1,8,0:0:0:0:
17,171,60837,2,0,L|23:33,1,125.999996154785,10|0,2:3|0:0,0:0:0:0:
39,58,61201,6,0,P|88:81|190:35,1,167.999994873047,8|8,2:3|0:0,0:0:0:0:
263,88,61746,2,0,L|360:92,1,83.9999974365235,8|0,2:3|0:0,0:0:0:0:
480,72,62110,1,8,0:0:0:0:
480,72,62292,2,0,P|436:107|469:188,1,125.999996154785,8|0,2:3|0:0,0:0:0:0:
462,181,62655,6,0,B|506:175|506:175|488:302,1,167.999994873047,2|8,0:0|0:0,0:0:0:0:
409,372,63201,2,0,P|352:331|253:370,1,167.999994873047,8|8,2:3|0:0,0:0:0:0:
166,294,63746,2,0,L|168:168,1,125.999996154785,10|0,2:3|0:0,0:0:0:0:
157,151,64110,6,0,L|156:59,1,83.9999974365235,8|8,2:3|2:3,0:0:0:0:
250,119,64474,1,8,0:0:0:0:
250,119,64655,2,0,B|286:97|327:127|327:127|341:171|387:186,1,167.999994873047,8|8,2:3|2:3,0:0:0:0:
418,102,65201,1,8,0:0:0:0:
266,208,65383,1,8,0:0:0:0:
461,343,65565,6,0,L|468:165,1,167.999994873047,4|8,0:0|0:0,0:0:0:0:
457,30,66110,2,0,P|411:23|373:34,1,83.9999974365235,8|0,2:3|0:0,0:0:0:0:
301,130,66474,1,8,0:0:0:0:
301,130,66655,2,0,P|234:126|165:123,1,125.999996154785,10|0,2:3|0:0,0:0:0:0:
161,139,67019,6,0,B|127:137|127:137|80:198|121:266,1,167.999994873047,8|8,2:3|0:0,0:0:0:0:
205,318,67565,2,0,P|252:315|301:313,1,83.9999974365235,8|0,2:3|0:0,0:0:0:0:
394,211,67928,1,8,0:0:0:0:
394,211,68110,2,0,P|346:208|297:206,1,83.9999974365235,8|0,2:3|0:0,0:0:0:0:
478,262,68474,6,0,B|519:245|530:184|505:150|505:150|474:153|450:143,1,167.999994873047,2|8,0:0|0:0,0:0:0:0:
384,43,69019,2,0,L|394:219,1,167.999994873047,8|8,2:3|0:0,0:0:0:0:
330,318,69565,2,0,P|287:305|218:342,1,125.999996154785,10|0,2:3|0:0,0:0:0:0:
211,357,69928,5,8,2:3:0:0:
260,201,70110,1,8,2:3:0:0:
79,260,70292,1,8,0:0:0:0:
256,289,70474,1,8,2:3:0:0:
85,138,70655,5,8,0:0:0:0:
121,368,70837,2,0,L|37:364,1,83.9999974365235,8|2,0:0|3:0,0:0:0:0:
178,243,71201,1,8,0:0:0:0:
330,318,71383,6,0,B|369:320|369:320|407:256|363:198,1,167.999994873047,4|8,0:0|0:0,0:0:0:0:
277,30,71928,2,0,L|289:209,1,167.999994873047,8|8,2:3|0:0,0:0:0:0:
235,312,72474,2,0,P|194:323|126:278,1,125.999996154785,10|0,2:3|0:0,0:0:0:0:
121,260,72837,6,0,L|114:148,1,83.9999974365235,8|0,2:3|0:0,0:0:0:0:
69,94,73201,1,8,0:0:0:0:
202,178,73383,2,0,L|369:188,1,167.999994873047,8|8,2:3|0:0,0:0:0:0:
440,132,73928,2,0,P|419:191|443:253,1,125.999996154785,8|0,2:3|0:0,0:0:0:0:
458,257,74292,6,0,B|371:253|412:328|297:321,1,167.999994873047,2|8,0:0|0:0,0:0:0:0:
198,369,74837,2,0,B|237:348|237:348|220:194,1,167.999994873047,8|8,2:3|0:0,0:0:0:0:
139,126,75383,2,0,B|108:112|108:112|102:211,1,125.999996154785,10|0,2:3|0:0,0:0:0:0:
85,216,75746,6,0,P|48:228|-2:224,2,83.9999974365235,8|8|8,2:3|2:3|0:0,0:0:0:0:
133,302,76292,2,0,P|216:296|296:321,1,167.999994873047,8|8,2:3|2:3,0:0:0:0:
457,189,76837,1,8,0:0:0:0:
280,225,77019,1,8,0:0:0:0:
475,300,77201,6,0,L|479:124,1,167.999994873047,4|8,0:0|0:0,0:0:0:0:
416,43,77746,2,0,P|367:41|314:148,1,167.999994873047,8|8,2:3|0:0,0:0:0:0:
375,222,78292,2,0,L|373:305,1,83.9999974365235,10|0,2:3|0:0,0:0:0:0:
277,361,78655,6,0,B|255:324|255:324|111:317,1,167.999994873047,8|8,2:3|0:0,0:0:0:0:
43,373,79201,2,0,P|30:334|29:285,1,83.9999974365235,8|0,2:3|0:0,0:0:0:0:
98,195,79565,1,8,0:0:0:0:
98,195,79746,2,0,P|111:156|112:107,1,83.9999974365235,8|0,2:3|0:0,0:0:0:0:
3,16,80110,6,0,B|63:10|63:10|115:26|115:26|206:16,1,167.999994873047,4|8,0:0|0:0,0:0:0:0:
305,124,80655,2,0,P|247:93|133:140,1,167.999994873047,8|8,2:3|0:0,0:0:0:0:
98,195,81201,2,0,L|103:289,1,83.9999974365235,10|0,2:3|0:0,0:0:0:0:
325,318,81565,5,8,2:3:0:0:
198,244,81746,1,8,2:3:0:0:
370,231,81928,5,8,0:0:0:0:
185,328,82110,1,8,2:3:0:0:
457,335,82292,5,8,0:0:0:0:
339,150,82474,1,8,0:0:0:0:
339,150,82565,2,0,L|343:93,1,41.9999987182618,8|2,0:0|3:0,0:0:0:0:
198,244,82746,1,8,0:0:0:0:
198,244,82837,2,0,L|202:301,1,41.9999987182618,8|0,0:0|0:0,0:0:0:0:
126,78,83019,6,0,B|83:63|83:63|30:116|60:201,1,167.999994873047,6|8,0:0|0:0,0:0:0:0:
119,323,83565,2,0,L|114:239,1,83.9999974365235,8|0,2:3|0:0,0:0:0:0:
167,157,83928,1,8,2:3:0:0:
264,257,84110,2,0,L|259:340,1,83.9999974365235,8|0,0:0|0:0,0:0:0:0:
389,180,84474,6,0,B|298:164|323:241|219:221,1,167.999994873047,2|8,0:0|0:0,0:0:0:0:
272,110,85019,1,8,2:3:0:0:
381,267,85201,2,0,P|446:267|485:269,1,83.9999974365235,2|8,0:0|2:3,0:0:0:0:
264,257,85565,1,8,0:0:0:0:
389,180,85746,1,8,2:3:0:0:
167,157,85928,6,0,L|161:328,1,167.999994873047,2|8,0:0|0:0,0:0:0:0:
10,273,86474,2,0,P|42:244|95:235,1,83.9999974365235,8|0,2:3|0:0,0:0:0:0:
85,322,86837,1,8,2:3:0:0:
156,186,87019,2,0,P|124:157|71:148,1,83.9999974365235,8|0,0:0|0:0,0:0:0:0:
7,89,87383,1,8,2:3:0:0:
22,77,87746,6,0,B|86:70|65:118|134:108,1,105.000004005432,2|8,2:3|0:0,0:0:0:0:
128,107,88019,1,8,0:0:0:0:
138,104,88110,1,8,2:3:0:0:
247,23,88292,6,0,B|247:49|241:75|241:75|269:134|269:134|253:185|262:245,1,210.000008010865,2|8,2:3|0:0,0:0:0:0:
318,305,88746,1,8,0:0:0:0:
328,302,88837,6,0,P|405:301|469:371,1,167.999994873047,6|8,0:0|0:0,0:0:0:0:
494,249,89383,2,0,P|481:202|485:149,1,83.9999974365235,8|0,2:3|0:0,0:0:0:0:
507,79,89746,1,8,2:3:0:0:
392,133,89928,2,0,P|391:174|379:214,1,83.9999974365235,8|0,0:0|0:0,0:0:0:0:
177,284,90292,6,0,B|204:318|204:318|347:299,1,167.999994873047,2|8,0:0|0:0,0:0:0:0:
250,205,90837,1,8,2:3:0:0:
89,335,91019,2,0,P|84:277|86:232,1,83.9999974365235,2|8,0:0|2:3,0:0:0:0:
126,77,91383,1,8,0:0:0:0:
163,189,91565,1,8,2:3:0:0:
1,52,91746,6,0,B|94:37|55:111|174:92,1,167.999994873047,2|8,0:0|0:0,0:0:0:0:
333,56,92292,2,0,L|222:40,1,83.9999974365235,8|0,2:3|0:0,0:0:0:0:
385,125,92655,1,8,2:3:0:0:
274,231,92837,2,0,L|357:219,1,83.9999974365235,8|0,0:0|0:0,0:0:0:0:
409,288,93201,1,8,2:3:0:0:
394,300,93565,6,0,B|345:298|346:331|287:322,1,105.000004005432,2|8,2:3|0:0,0:0:0:0:
283,318,93837,1,8,0:0:0:0:
274,311,93928,1,8,2:3:0:0:
164,327,94110,6,0,B|136:342|122:378|122:378|110:221,1,210.000008010865,2|8,2:3|0:0,0:0:0:0:
161,160,94565,1,8,0:0:0:0:
170,153,94655,6,0,B|265:142|227:215|324:199,1,167.999994873047,6|8,0:0|0:0,0:0:0:0:
458,123,95201,2,0,P|388:118|350:134,1,83.9999974365235,8|0,2:3|0:0,0:0:0:0:
419,217,95565,1,8,2:3:0:0:
310,35,95746,2,0,P|380:30|418:46,1,83.9999974365235,8|0,0:0|0:0,0:0:0:0:
401,238,96110,6,0,B|365:270|365:270|220:260,1,167.999994873047,2|8,0:0|0:0,0:0:0:0:
99,293,96655,1,0,0:0:0:0:
166,87,96837,2,0,P|175:130|181:178,1,83.9999974365235,2|8,0:0|2:3,0:0:0:0:
183,348,97201,1,8,0:0:0:0:
110,209,97383,1,8,2:3:0:0:
274,304,97565,6,0,B|332:307|332:307|377:335|377:335|437:339,1,167.999994873047,2|8,0:0|0:0,0:0:0:0:
481,259,98110,2,0,L|475:163,1,83.9999974365235,8|0,2:3|0:0,0:0:0:0:
488,75,98474,1,8,2:3:0:0:
386,204,98655,2,0,L|302:198,1,83.9999974365235,8|0,0:0|0:0,0:0:0:0:
107,89,99019,5,2,0:0:0:0:
274,75,99201,1,0,0:0:0:0:
141,202,99383,1,8,0:0:0:0:
168,37,99565,1,8,2:3:0:0:
268,255,99746,5,0,0:0:0:0:
52,198,99928,1,8,2:3:0:0:
226,148,100110,1,8,0:0:0:0:
223,353,100292,1,8,2:3:0:0:
27,288,100474,6,0,L|33:82,1,167.999994873047,2|8,0:0|0:0,0:0:0:0:
101,43,101019,2,0,P|149:38|185:58,1,83.9999974365235,8|0,2:3|0:0,0:0:0:0:
226,148,101383,1,8,2:3:0:0:
226,148,101565,2,0,P|274:153|310:133,1,83.9999974365235,8|0,0:0|0:0,0:0:0:0:
403,44,101928,6,0,L|399:151,1,83.9999974365235,2|0,0:0|0:0,0:0:0:0:
396,135,102201,1,8,2:3:0:0:
397,143,102292,1,8,0:0:0:0:
466,231,102474,2,0,P|418:226|382:246,1,83.9999974365235,8|2,2:3|0:0,0:0:0:0:
383,248,102746,2,0,L|377:304,1,41.9999987182618,0|8,0:0|2:3,0:0:0:0:
304,363,103019,1,8,0:0:0:0:
255,234,103201,5,8,2:3:0:0:
255,234,103383,2,0,L|141:242,3,105.000004005432,10|2|10|2,2:3|3:0|2:3|3:0,0:0:0:0:
130,149,104655,5,0,2:3:0:0:
130,149,104746,1,0,2:3:0:0:
130,149,104837,2,0,L|16:141,2,105.000004005432,10|2|2,2:3|3:0|3:0,0:0:0:0:
130,149,106292,6,0,P|184:85|296:111,1,189.000000720978,6|8,0:0|0:0,0:0:0:0:
375,218,106837,2,0,L|277:209,1,94.5000003604889,8|0,2:3|0:0,0:0:0:0:
458,137,107201,1,8,0:0:0:0:
337,314,107383,1,10,2:3:0:0:
280,96,107565,1,0,0:0:0:0:
423,337,107746,6,0,L|414:239,1,94.5000003604889,8|0,2:3|0:0,0:0:0:0:
477,111,108110,1,8,0:0:0:0:
264,257,108292,2,0,L|169:248,1,94.5000003604889,8|0,2:3|0:0,0:0:0:0:
48,181,108655,1,8,0:0:0:0:
241,151,108837,1,8,2:3:0:0:
70,306,109019,1,8,2:3:0:0:
221,70,109201,6,0,B|272:61|272:61|350:104|325:195,1,189.000000720978,2|8,0:0|0:0,0:0:0:0:
251,294,109746,2,0,P|302:282|351:293,1,94.5000003604889,8|0,2:3|0:0,0:0:0:0:
488,364,110110,2,0,P|441:371|396:359,1,94.5000003604889,8|10,0:0|2:3,0:0:0:0:
494,244,110474,1,0,0:0:0:0:
328,69,110655,5,8,2:3:0:0:
360,232,110837,1,8,2:3:0:0:
426,56,111019,5,8,0:0:0:0:
296,158,111201,1,8,2:3:0:0:
236,14,111383,5,0,0:0:0:0:
409,160,111565,1,8,2:3:0:0:
185,251,111746,5,8,0:0:0:0:
339,39,111928,1,8,0:0:0:0:
304,319,112110,6,0,B|405:303|374:379|487:359,1,189.000000720978,6|8,0:0|0:0,0:0:0:0:
409,160,112655,2,0,L|404:254,1,94.5000003604889,8|0,2:3|0:0,0:0:0:0:
490,20,113019,1,8,0:0:0:0:
281,106,113201,1,10,2:3:0:0:
443,173,113383,1,0,0:0:0:0:
326,31,113565,5,8,2:3:0:0:
193,213,113746,2,0,L|64:205,1,94.5000003604889,0|8,0:0|0:0,0:0:0:0:
374,253,114110,5,8,2:3:0:0:
218,139,114292,1,0,0:0:0:0:
477,184,114474,5,8,0:0:0:0:
255,277,114655,1,8,2:3:0:0:
455,342,114837,1,8,2:3:0:0:
240,362,115019,6,0,P|176:308|209:199,1,189.000000720978,2|8,0:0|0:0,0:0:0:0:
308,182,115565,1,8,2:3:0:0:
111,151,115746,2,0,P|41:158|2:165,1,94.5000003604889,0|8,0:0|0:0,0:0:0:0:
228,63,116110,2,0,P|298:70|337:77,1,94.5000003604889,10|0,2:3|0:0,0:0:0:0:
255,277,116474,5,8,2:3:0:0:
218,139,116655,1,8,2:3:0:0:
373,281,116837,5,8,0:0:0:0:
167,252,117019,1,8,2:3:0:0:
337,101,117201,5,8,0:0:0:0:
311,351,117383,1,8,0:0:0:0:
311,351,117474,2,0,L|253:360,1,47.2500001802444,8|2,0:0|3:0,0:0:0:0:
120,244,117655,1,8,0:0:0:0:
120,244,117746,2,0,L|178:253,1,47.2500001802444,8|0,0:0|0:0,0:0:0:0:
31,370,117928,5,4,0:0:0:0:
256,192,118019,12,2,120201,0:0:0:0:
