osu file format v14

[General]
AudioFilename: audio.mp3
AudioLeadIn: 0
PreviewTime: 34638
Countdown: 0
SampleSet: Normal
StackLeniency: 0.7
Mode: 0
LetterboxInBreaks: 0
WidescreenStoryboard: 1

[Editor]
Bookmarks: 820,3729,6638,16820,18274,21183,24092,34274,35729,40092,41547,44456,45910,47365,63365,75001
DistanceSpacing: 1
BeatDivisor: 4
GridSize: 32
TimelineZoom: 1

[Metadata]
Title:Be Wherever You Are
TitleUnicode:Be Wherever You Are
Artist:Zach Callison
ArtistUnicode:Zach Callison
Creator:Penguiness
Version:Hard
Source:Steven Universe
Tags:Aivi & Surasshu, ost, original soundtrack, english, cartoon
BeatmapID:1708784
BeatmapSetID:814769

[Difficulty]
HPDrainRate:5
CircleSize:4
OverallDifficulty:6
ApproachRate:7
SliderMultiplier:1.4
SliderTickRate:1

[Events]
//Background and Video events
0,0,"DFDESJ-XgAAVzM0.jpg",0,0
Video,592,"video.mp4"
//Break Periods
//Storyboard Layer 0 (Background)
//Storyboard Layer 1 (Fail)
//Storyboard Layer 2 (Pass)
//Storyboard Layer 3 (Foreground)
//Storyboard Sound Samples

[TimingPoints]
820,363.636363636364,4,1,1,35,1,0
820,-83.3333333333333,4,1,1,35,0,0
6638,-80,4,1,1,35,0,0
75729,882.352941176471,4,1,1,30,1,0
75729,-66.6666666666667,4,1,1,30,0,0
76611,1013.08569016463,4,1,1,30,1,0
76611,-66.6666666666667,4,1,1,30,0,0
77624,1034.48275862069,4,1,1,30,1,0
77624,-57.1428571428571,4,1,1,30,0,0
78658,1000,4,1,1,30,1,0
78658,-63.6942675159236,4,1,1,30,0,0
79658,902.255639097744,4,1,1,30,1,0
79658,-200,4,1,1,30,0,0

[Colours]
Combo1 : 0,174,87
Combo2 : 0,188,242
Combo3 : 255,255,255
Combo4 : 157,60,255

[HitObjects]
337,366,820,6,0,L|331:190,1,167.999994873047,8|0,2:2|2:2,2:2:0:0:
254,166,1365,2,0,P|286:129|336:113,1,83.9999974365235,0|0,2:2|2:2,2:2:0:0:
396,144,1729,2,0,P|399:102|384:64,2,83.9999974365235,0|0|0,2:2|2:2|2:2,2:2:0:0:
473,181,2274,6,0,P|407:228|332:199,1,167.999994873047,8|0,2:2|2:2,2:2:0:0:
254,166,2820,1,0,2:2:0:0:
186,117,3001,2,0,P|171:167|191:224,1,83.9999974365235,0|0,2:2|2:2,2:2:0:0:
243,248,3365,2,0,P|209:272|168:279,1,83.9999974365235,0|0,2:2|2:2,2:2:0:0:
100,229,3729,6,0,P|83:273|174:365,1,167.999994873047,10|0,2:2|2:2,2:2:0:0:
230,348,4274,2,0,L|318:350,1,83.9999974365235,2|0,2:2|2:2,2:2:0:0:
362,282,4638,2,0,P|389:314|398:355,2,83.9999974365235,0|8|0,2:2|2:2|2:2,2:2:0:0:
278,272,5183,6,0,P|307:221|423:223,1,167.999994873047,10|0,2:2|2:2,2:2:0:0:
462,276,5729,2,0,P|488:233|423:132,1,167.999994873047,2|0,2:2|2:2,2:2:0:0:
357,120,6274,6,0,L|243:112,1,83.9999974365235,8|0,2:2|2:2,2:2:0:0:
199,162,6638,2,0,P|152:109|36:145,2,175,8|2|0,2:2|2:2|2:2,2:2:0:0:
114,184,7547,2,0,L|118:282,1,87.5,0|2,2:2|2:2,2:2:0:0:
185,326,7910,1,0,2:2:0:0:
271,337,8092,6,0,P|327:355|383:336,1,87.5,8|0,2:2|2:2,2:2:0:0:
411,284,8456,2,0,P|398:226|354:187,1,87.5,2|0,2:2|2:2,2:2:0:0:
293,193,8820,2,0,P|249:232|237:290,1,87.5,0|0,2:2|2:2,2:2:0:0:
185,326,9183,2,0,P|141:328|101:312,1,87.5,2|0,2:2|2:2,2:2:0:0:
68,230,9547,6,0,P|97:172|219:166,1,175,8|2,2:2|2:2,2:2:0:0:
273,108,10092,2,0,L|364:109,1,87.5,0|0,2:2|2:2,2:2:0:0:
430,162,10456,2,0,P|447:113|435:62,2,87.5,0|2|0,2:2|2:2|2:2,2:2:0:0:
349,195,11001,6,0,L|345:285,1,87.5,8|0,2:2|2:2,2:2:0:0:
284,346,11365,2,0,P|348:368|433:289,2,175,2|0|2,2:2|2:2|2:2,2:2:0:0:
207,303,12274,1,0,2:2:0:0:
141,244,12456,6,0,B|116:154|162:161|138:62,1,175,8|2,2:2|2:2,2:2:0:0:
206,13,13001,1,0,2:2:0:0:
284,52,13183,2,0,L|385:57,1,87.5,0|0,2:2|2:2,2:2:0:0:
447,11,13547,2,0,P|457:58|433:121,1,87.5,2|0,2:2|2:2,2:2:0:0:
373,141,13910,6,0,P|348:185|405:294,1,175,8|2,2:2|2:2,2:2:0:0:
347,363,14456,2,0,B|254:385|264:343|167:364,1,175,0|0,2:2|2:2,2:2:0:0:
107,305,15001,2,0,L|112:212,1,87.5,2|0,2:2|2:2,2:2:0:0:
166,148,15365,6,0,P|193:99|309:101,1,175,8|2,2:2|2:2,2:2:0:0:
332,177,15910,2,0,P|304:225|188:223,1,175,0|0,2:2|2:2,2:2:0:0:
111,217,16456,2,0,L|10:225,2,87.5,2|0|4,2:2|2:2|2:2,2:2:0:0:
437,343,17547,6,0,P|443:276|431:241,1,87.5,2|0,2:2|2:2,2:2:0:0:
372,198,17910,2,0,P|366:131|378:96,1,87.5,2|0,2:2|2:2,2:2:0:0:
458,101,18274,6,0,P|427:46|374:25,1,87.5,8|0,2:2|2:2,2:2:0:0:
320,42,18638,2,0,B|227:19|228:61|134:39,2,175,2|0|2,2:2|2:2|2:2,2:2:0:0:
371,112,19547,1,0,2:2:0:0:
345,195,19729,6,0,P|302:228|193:182,1,175,8|2,2:2|2:2,2:2:0:0:
143,121,20274,2,0,P|115:161|113:216,1,87.5,0|0,2:2|2:2,2:2:0:0:
154,274,20638,2,0,L|147:361,2,87.5,0|2|0,2:2|2:2|2:2,2:2:0:0:
231,232,21183,6,0,P|288:190|391:241,1,175,8|2,2:2|2:2,2:2:0:0:
452,271,21729,2,0,B|482:176|428:189|453:89,1,175,6|0,2:2|2:2,2:2:0:0:
393,33,22274,2,0,L|292:34,1,87.5,2|0,2:2|2:2,2:2:0:0:
238,90,22638,6,0,L|150:90,2,87.5,8|0|2,2:2|2:2|2:2,2:2:0:0:
319,122,23183,1,6,2:2:0:0:
250,176,23365,2,0,P|228:229|231:264,1,87.5,0|0,2:2|2:2,2:2:0:0:
295,316,23729,2,0,P|351:308|380:288,1,87.5,2|0,2:2|2:2,2:2:0:0:
451,336,24092,6,0,B|472:241|430:252|454:157,1,175,8|2,2:2|2:2,2:2:0:0:
508,95,24638,2,0,P|463:77|402:92,1,87.5,0|0,2:2|2:2,2:2:0:0:
369,148,25001,2,0,P|344:112|339:69,2,87.5,0|2|0,2:2|2:2|2:2,2:2:0:0:
310,213,25547,6,0,P|355:247|334:364,1,175,8|2,2:2|2:2,2:2:0:0:
281,294,26092,1,0,2:2:0:0:
203,334,26274,2,0,L|104:329,1,87.5,0|0,2:2|2:2,2:2:0:0:
121,241,26638,2,0,L|208:245,1,87.5,2|0,2:2|2:2,2:2:0:0:
281,294,27001,6,0,B|312:197|255:214|288:107,1,175,8|2,2:2|2:2,2:2:0:0:
363,160,27547,2,0,P|367:97|348:61,1,87.5,0|0,2:2|2:2,2:2:0:0:
279,36,27910,2,0,P|222:65|200:99,1,87.5,0|2,2:2|2:2,2:2:0:0:
192,169,28274,1,0,2:2:0:0:
106,151,28456,6,0,P|53:164|25:275,1,175,8|2,2:2|2:2,2:2:0:0:
86,328,29001,2,0,B|174:356|169:300|278:339,1,175,0|0,2:2|2:2,2:2:0:0:
342,357,29547,2,0,P|340:306|315:266,1,87.5,2|0,2:2|2:2,2:2:0:0:
377,204,29910,6,0,L|381:109,1,87.5,8|0,2:2|2:2,2:2:0:0:
293,105,30274,2,0,L|289:192,1,87.5,2|0,2:2|2:2,2:2:0:0:
322,274,30638,2,0,P|274:279|223:249,1,87.5,0|0,2:2|2:2,2:2:0:0:
152,250,31001,2,0,P|171:205|223:176,1,87.5,2|0,2:2|2:2,2:2:0:0:
289,192,31365,6,0,P|272:132|157:114,1,175,8|2,2:2|2:2,2:2:0:0:
99,154,31910,2,0,P|86:94|111:40,1,87.5,0|0,2:2|2:2,2:2:0:0:
165,20,32274,1,0,2:2:0:0:
252,25,32456,2,0,L|351:16,1,87.5,2|0,2:2|2:2,2:2:0:0:
420,50,32820,6,0,B|448:137|398:141|432:229,1,175,8|2,2:2|2:2,2:2:0:0:
392,301,33365,2,0,P|339:322|287:309,1,87.5,0|0,2:2|2:2,2:2:0:0:
335,234,33729,2,0,P|326:182|335:108,2,87.5,0|2|0,2:2|2:2|2:2,2:2:0:0:
249,255,34274,6,0,P|191:235|143:252,1,87.5,8|0,2:2|2:2,2:2:0:0:
192,323,34638,2,0,P|134:321|86:210,2,175,2|0|2,2:2|2:2|2:2,2:2:0:0:
277,340,35547,1,0,2:2:0:0:
336,275,35729,6,0,L|328:187,2,87.5,8|0|2,2:2|2:2|2:2,2:2:0:0:
402,332,36274,1,0,2:2:0:0:
421,246,36456,2,0,L|413:158,1,87.5,0|0,2:2|2:2,2:2:0:0:
444,76,36820,2,0,P|419:26|363:0,1,87.5,2|0,2:2|2:2,2:2:0:0:
356,87,37183,6,0,P|307:109|183:70,1,175,8|2,2:2|2:2,2:2:0:0:
108,101,37729,2,0,B|85:203|129:180|100:302,1,175,0|0,2:2|2:2,2:2:0:0:
60,349,38274,2,0,P|118:361|164:343,1,87.5,2|0,2:2|2:2,2:2:0:0:
194,281,38638,5,8,2:2:0:0:
280,294,38820,2,0,L|371:287,1,87.5,0|2,2:2|2:2,2:2:0:0:
430,348,39183,2,0,P|452:302|384:202,1,175,0|0,2:2|2:2,2:2:0:0:
305,212,39729,2,0,P|326:147|367:118,2,87.5,2|0|4,2:2|2:2|2:2,2:2:0:0:
6,28,40820,6,0,P|64:49|113:38,1,87.5,2|0,2:2|2:2,2:2:0:0:
171,19,41183,2,0,P|213:11|255:23,1,87.5,2|0,2:2|2:2,2:2:0:0:
208,97,41547,6,0,L|206:203,1,87.5,8|0,2:2|2:2,2:2:0:0:
293,192,41910,2,0,L|294:104,2,87.5,2|0|0,2:2|2:2|2:2,2:2:0:0:
245,266,42456,1,0,2:2:0:0:
285,343,42638,2,0,P|320:306|333:254,1,87.5,2|0,2:2|2:2,2:2:0:0:
293,192,43001,6,0,P|364:189|423:277,1,175,8|2,2:2|2:2,2:2:0:0:
468,341,43547,1,0,2:2:0:0:
508,263,43729,2,0,L|512:164,1,87.5,0|0,2:2|2:2,2:2:0:0:
432,137,44092,2,0,L|428:38,1,87.5,2|0,2:2|2:2,2:2:0:0:
344,24,44456,6,0,P|326:80|199:68,1,175,8|2,2:2|2:2,2:2:0:0:
147,48,45001,2,0,B|119:151|179:131|137:257,1,175,2|0,2:2|2:2,2:2:0:0:
188,298,45547,2,0,L|296:290,1,87.5,2|0,2:2|2:2,2:2:0:0:
353,328,45910,6,0,P|360:285|349:244,1,87.5,8|0,2:2|2:2,2:2:0:0:
268,207,46274,2,0,P|312:164|366:154,1,87.5,2|0,2:2|2:2,2:2:0:0:
416,190,46638,2,0,L|516:183,1,87.5,2|0,2:2|2:2,2:2:0:0:
495,96,47001,2,0,L|407:102,1,87.5,2|0,2:2|2:2,2:2:0:0:
326,68,47365,6,0,P|277:43|175:117,1,175,8|2,2:2|2:2,2:2:0:0:
261,130,47910,2,0,B|290:223|246:216|276:304,1,175,0|0,2:2|2:2,2:2:0:0:
201,350,48456,2,0,L|98:344,1,87.5,2|0,2:2|2:2,2:2:0:0:
49,284,48820,6,0,P|29:237|39:188,1,87.5,8|0,2:2|2:2,2:2:0:0:
98,143,49183,2,0,P|154:146|192:269,2,175,2|2|2,2:2|2:2|2:2,2:2:0:0:
14,115,50092,1,0,2:2:0:0:
78,56,50274,6,0,B|175:35|163:83|274:54,1,175,8|2,2:2|2:2,2:2:0:0:
328,16,50820,2,0,P|338:62|324:107,1,87.5,0|0,2:2|2:2,2:2:0:0:
251,143,51183,2,0,L|248:239,1,87.5,0|2,2:2|2:2,2:2:0:0:
297,303,51547,1,0,2:2:0:0:
209,306,51729,6,0,L|118:308,1,87.5,8|0,2:2|2:2,2:2:0:0:
38,335,52092,2,0,P|38:280|69:237,1,87.5,2|2,2:2|2:2,2:2:0:0:
136,223,52456,2,0,L|145:126,1,87.5,0|0,2:2|2:2,2:2:0:0:
99,59,52820,2,0,P|161:49|209:70,1,87.5,10|0,2:2|2:2,2:2:0:0:
231,129,53183,6,0,P|293:139|341:118,1,87.5,8|0,2:2|2:2,2:2:0:0:
395,170,53547,2,0,P|398:102|309:45,2,175,2|0|2,2:2|2:2|2:2,2:2:0:0:
322,220,54456,1,0,2:2:0:0:
274,294,54638,6,0,P|211:313|164:299,1,87.5,8|0,2:2|2:2,2:2:0:0:
117,261,55001,2,0,P|98:198|112:151,1,87.5,2|0,2:2|2:2,2:2:0:0:
150,104,55365,2,0,P|213:85|260:99,1,87.5,0|0,2:2|2:2,2:2:0:0:
307,137,55729,2,0,P|326:200|312:246,1,87.5,2|0,2:2|2:2,2:2:0:0:
239,193,56092,6,0,P|241:253|340:308,1,175,8|2,2:2|2:2,2:2:0:0:
407,353,56638,2,0,B|430:267|382:273|413:167,1,175,0|0,2:2|2:2,2:2:0:0:
494,161,57183,2,0,P|468:116|404:95,1,87.5,2|0,2:2|2:2,2:2:0:0:
351,113,57547,6,0,L|248:107,1,87.5,8|0,2:2|2:2,2:2:0:0:
185,147,57910,2,0,B|86:161|109:121|8:142,2,175,2|0|2,2:2|2:2|2:2,2:2:0:0:
255,199,58820,1,0,2:2:0:0:
338,238,59001,6,0,P|342:174|256:106,1,175,8|2,2:2|2:2,2:2:0:0:
185,147,59547,1,0,2:2:0:0:
114,199,59729,2,0,L|26:203,1,87.5,0|0,2:2|2:2,2:2:0:0:
17,116,60092,2,0,L|104:111,1,87.5,2|0,2:2|2:2,2:2:0:0:
185,147,60456,6,0,P|201:205|115:286,1,175,8|2,2:2|2:2,2:2:0:0:
168,363,61001,2,0,B|260:336|257:384|371:359,1,175,0|0,2:2|2:2,2:2:0:0:
393,293,61547,2,0,L|397:197,1,87.5,2|0,2:2|2:2,2:2:0:0:
473,163,61910,6,0,P|437:129|321:162,1,175,8|2,2:2|2:2,2:2:0:0:
261,216,62456,2,0,B|160:235|187:188|56:218,1,175,0|0,2:2|2:2,2:2:0:0:
10,252,63001,2,0,P|2:203|21:155,2,87.5,2|0|4,2:2|2:2|2:2,2:2:0:0:
353,182,64092,6,0,L|342:285,1,87.5,2|0,2:2|2:2,2:2:0:0:
430,283,64456,2,0,L|439:195,1,87.5,2|0,2:2|2:2,2:2:0:0:
407,113,64820,6,0,P|365:95|298:113,1,87.5,8|0,2:2|2:2,2:2:0:0:
267,165,65183,2,0,P|236:100|307:12,2,175,2|0|2,2:2|2:2|2:2,2:2:0:0:
353,182,66092,1,0,2:2:0:0:
293,246,66274,6,0,B|201:274|213:233|120:252,1,175,8|2,2:2|2:2,2:2:0:0:
41,211,66820,2,0,P|33:270|69:327,1,87.5,0|0,2:2|2:2,2:2:0:0:
117,339,67183,1,0,2:2:0:0:
204,335,67365,2,0,L|313:343,1,87.5,2|0,2:2|2:2,2:2:0:0:
367,296,67729,6,0,P|377:225|280:159,1,175,8|2,2:2|2:2,2:2:0:0:
222,187,68274,2,0,B|121:208|151:164|46:189,1,175,0|0,2:2|2:2,2:2:0:0:
11,267,68820,2,0,L|19:358,1,87.5,2|0,2:2|2:2,2:2:0:0:
106,350,69183,6,0,L|98:262,1,87.5,8|0,2:2|2:2,2:2:0:0:
49,188,69547,2,0,P|8:133|62:38,2,175,2|0|2,2:2|2:2|2:2,2:2:0:0:
98,262,70456,1,0,2:2:0:0:
185,262,70638,6,0,P|239:247|297:263,1,87.5,8|0,2:2|2:2,2:2:0:0:
347,291,71001,2,0,P|401:306|459:290,1,87.5,2|0,2:2|2:2,2:2:0:0:
501,248,71365,2,0,P|516:194|500:136,1,87.5,0|0,2:2|2:2,2:2:0:0:
458,94,71729,2,0,P|404:79|346:95,1,87.5,2|0,2:2|2:2,2:2:0:0:
305,138,72092,6,0,B|201:154|221:109|102:140,1,175,8|2,2:2|2:2,2:2:0:0:
60,80,72638,2,0,P|43:129|122:222,1,175,0|0,2:2|2:2,2:2:0:0:
176,277,73183,2,0,L|279:269,1,87.5,2|0,2:2|2:2,2:2:0:0:
320,336,73547,6,0,P|345:292|282:188,1,175,8|2,2:2|2:2,2:2:0:0:
229,131,74092,2,0,B|136:111|151:153|56:132,1,175,0|0,2:2|2:2,2:2:0:0:
10,207,74638,2,0,L|17:304,2,87.5,2|0|4,2:2|2:2|2:2,2:2:0:0:
229,131,75729,6,0,L|102:116,1,105.000004005432,0|0,2:2|2:2,2:2:0:0:
91,197,76611,2,0,P|45:145|42:100,1,105.000004005432,2|0,2:2|2:2,2:2:0:0:
176,189,77624,2,0,P|154:254|92:287,2,122.500001168251,2|0|2,2:2|2:2|2:2,2:2:0:0:
253,52,79658,6,0,L|108:36,1,140,2|4,2:2|2:2,2:2:0:0:
