osu file format v14

[General]
AudioFilename: audio.mp3
AudioLeadIn: 0
PreviewTime: -1
Countdown: 0
SampleSet: Normal
StackLeniency: 0.7
Mode: 0
LetterboxInBreaks: 1
WidescreenStoryboard: 0

[Editor]
Bookmarks: 15889,35089,65809,73489,108049,138769,159889,190609
DistanceSpacing: 1.2
BeatDivisor: 4
GridSize: 8
TimelineZoom: 1

[Metadata]
Title:Rewrite The Stars
TitleUnicode:Rewrite The Stars
Artist:Zac Efron & Zendaya
ArtistUnicode:Zac Efron & Zendaya
Creator:AlienGo
Version:Constellation
Source:The Greatest Showman
Tags:OST Soundtrack Duet Pop wy
BeatmapID:1987277
BeatmapSetID:951596

[Difficulty]
HPDrainRate:6
CircleSize:4
OverallDifficulty:8
ApproachRate:9
SliderMultiplier:1.4
SliderTickRate:1

[Events]
//Background and Video events
0,0,"Rewritethestars.jpg",0,0
//Break Periods
2,65993,70953
2,190793,197793
//Storyboard Layer 0 (Background)
//Storyboard Layer 1 (Fail)
//Storyboard Layer 2 (Pass)
//Storyboard Layer 3 (Foreground)
//Storyboard Sound Samples

[TimingPoints]
513,480,4,1,0,100,1,0
108033,-100,4,1,0,100,0,1
138753,-66.6666666666667,4,1,0,100,0,1
159873,-100,4,1,0,100,0,1
190593,-100,4,1,0,100,0,0
211713,-125,4,1,0,100,0,0
213153,-166.666666666667,4,1,0,100,0,0

[HitObjects]
112,48,673,5,0,0:0:0:0:
256,160,913,1,0,0:0:0:0:
112,144,1153,1,0,0:0:0:0:
240,48,1393,1,0,0:0:0:0:
160,224,1713,2,0,P|224:272|288:272,1,140
128,224,4513,6,0,P|160:256|192:256,1,70
336,192,4993,2,0,P|368:160|416:160,2,70
304,304,5713,1,0,0:0:0:0:
304,304,5953,2,0,P|400:272|400:400,1,210
368,336,6913,2,0,P|368:272|368:176,1,140
384,64,8433,5,0,0:0:0:0:
288,144,8673,1,0,0:0:0:0:
288,32,8913,1,0,0:0:0:0:
384,160,9153,1,0,0:0:0:0:
192,160,9633,2,0,P|224:224|288:240,1,140
384,144,12153,6,0,P|352:112|320:112,1,70
144,160,12633,2,0,P|176:208|240:208,1,105
224,128,13233,1,0,0:0:0:0:
240,304,13473,1,0,0:0:0:0:
240,304,13713,2,0,B|336:272|336:336|448:288,1,210
368,208,14673,1,0,0:0:0:0:
256,192,14913,12,0,15873,0:0:0:0:
192,96,16113,5,0,0:0:0:0:
96,192,16353,2,0,P|144:224|176:224,1,70
352,160,16833,1,0,0:0:0:0:
256,224,17073,2,0,P|256:192|224:144,1,70
160,224,17553,2,0,P|96:224|64:160,1,140
64,32,18273,6,0,L|128:64,1,70
240,208,18753,2,0,L|176:176,1,70
48,117,19233,1,0,0:0:0:0:
80,208,19473,2,0,P|128:256|128:336,1,140
48,304,20193,1,0,0:0:0:0:
128,144,20433,6,0,P|128:80|192:16,1,140
208,208,21153,1,0,0:0:0:0:
213,112,21393,2,0,P|273:145|304:208,2,140,0|0|0,0:3|0:3|0:3,0:3:0:0:
112,352,22833,2,0,P|96:288|128:208,1,140
336,48,24033,6,0,L|272:80,1,70
160,144,24513,1,0,0:0:0:0:
288,160,24753,1,0,0:0:0:0:
192,48,24993,1,0,0:0:0:0:
352,80,25233,2,0,P|384:112|384:208,1,140
288,288,25953,1,0,0:0:0:0:
384,208,26193,1,0,0:0:0:0:
224,128,26433,2,0,P|224:160|256:192,1,70
384,208,26913,1,0,0:0:0:0:
400,32,27153,6,0,P|368:96|304:128,1,140
304,32,27873,1,0,0:0:0:0:
304,128,28113,2,0,P|240:96|208:32,1,140
208,160,28833,1,0,0:0:0:0:
208,32,29073,2,0,P|176:96|112:128,3,140
112,32,30753,1,0,0:0:0:0:
256,192,30993,12,0,33153,0:0:0:0:
336,112,34113,6,0,L|352:32,1,70
320,192,34593,1,0,0:0:0:0:
160,288,35073,2,0,P|224:192|256:160,1,140
448,96,35793,2,0,P|384:192|352:224,1,140
160,240,36513,1,0,0:0:0:0:
304,96,36753,2,0,P|240:96|176:192,1,140
384,320,37953,5,0,0:0:0:0:
288,112,38193,1,0,0:0:0:0:
288,240,38433,1,0,0:0:0:0:
368,160,38673,2,0,P|352:64|240:32,1,210
160,272,39633,2,0,P|224:240|288:112,1,210
320,288,40593,2,0,P|288:224|160:160,1,210
32,192,41793,5,0,0:0:0:0:
224,160,42033,1,0,0:0:0:0:
96,320,42273,2,0,P|112:240|176:192,2,140
296,176,43473,2,0,P|288:248|240:304,1,140
240,112,44193,1,0,0:0:0:0:
256,32,44433,2,0,P|160:96|192:176,1,210
288,272,45633,5,0,0:0:0:0:
240,112,45873,1,0,0:0:0:0:
384,144,46113,1,0,0:0:0:0:
288,272,46353,2,0,P|224:272|224:208,1,140
320,96,47073,1,0,0:0:0:0:
96,128,47313,2,0,P|160:96|224:128,1,140
288,224,48033,1,0,0:0:0:0:
160,176,48273,2,0,P|192:240|160:304,1,140
96,64,49473,5,0,0:0:0:0:
208,112,49713,1,0,0:0:0:0:
320,64,49953,1,0,0:0:0:0:
416,144,50193,2,0,P|352:176|288:144,1,140
192,48,51153,5,0,0:0:0:0:
112,144,51393,1,0,0:0:0:0:
192,224,51633,1,0,0:0:0:0:
128,64,51873,1,0,0:0:0:0:
272,128,52113,2,0,P|288:64|368:32,1,140
352,96,53313,5,0,0:0:0:0:
336,208,53553,1,0,0:0:0:0:
448,96,53793,1,0,0:0:0:0:
400,256,54033,2,0,P|336:288|272:256,2,140
416,48,55473,1,0,0:0:0:0:
256,192,55713,1,0,0:0:0:0:
256,192,55953,2,0,P|288:160|384:144,1,140
512,192,56913,5,0,0:0:0:0:
320,136,57153,1,0,0:0:0:0:
440,88,57393,1,0,0:0:0:0:
352,248,57633,1,0,0:0:0:0:
160,160,58113,2,0,P|224:64|256:32,1,140
352,224,58833,2,0,P|288:320|256:352,1,140
288,160,59553,1,0,0:0:0:0:
320,64,59793,2,0,P|256:64|192:160,1,140
208,240,60993,5,0,0:0:0:0:
416,192,61233,1,0,0:0:0:0:
320,288,61473,1,0,0:0:0:0:
352,160,61713,2,0,P|352:64|256:32,1,210
192,208,62673,2,0,P|256:176|288:112,1,140
192,112,63393,1,0,0:0:0:0:
336,256,63633,2,0,P|336:96|176:128,1,350
272,176,65313,5,0,0:0:0:0:
272,176,65553,1,0,0:0:0:0:
160,272,65793,1,0,0:0:0:0:
256,192,71553,12,0,73233,0:0:0:0:
192,192,73473,5,0,0:0:0:0:
192,192,73713,1,0,0:0:0:0:
256,320,73953,1,0,0:0:0:0:
256,128,74193,1,0,0:0:0:0:
336,288,74433,2,0,P|304:240|240:224,1,105
80,224,75153,1,0,0:0:0:0:
128,128,75393,6,0,L|160:192,1,70
256,256,75873,1,0,0:0:0:0:
384,128,76113,2,0,L|352:192,1,70
256,256,76593,1,0,0:0:0:0:
256,112,76833,1,0,0:0:0:0:
160,224,77073,1,0,0:0:0:0:
176,240,77193,1,0,0:0:0:0:
192,256,77313,6,0,L|256:256,1,70
416,96,77793,1,0,0:0:0:0:
432,96,77913,1,0,0:0:0:0:
400,112,78033,2,0,L|368:176,1,70
336,256,78513,1,0,0:0:0:0:
176,160,78753,1,0,0:0:0:0:
128,304,78993,2,0,P|160:272|192:272,2,70
128,336,79593,1,0,0:0:0:0:
160,352,79713,5,0,0:0:0:0:
304,304,79953,1,0,0:0:0:0:
176,192,80193,2,0,P|144:160|144:128,1,70
208,32,80673,1,0,0:0:0:0:
304,176,80913,1,0,0:0:0:0:
304,160,81033,1,0,0:0:0:0:
304,144,81153,2,0,P|272:112|240:112,1,70
80,128,81633,1,0,0:0:0:0:
80,144,81753,1,0,0:0:0:0:
80,160,81873,2,0,L|23:209,1,70
160,336,82473,6,0,P|224:272|320:272,1,175
448,336,83793,1,0,0:0:0:0:
304,112,84273,1,0,0:0:0:0:
400,192,84513,1,0,0:0:0:0:
304,288,84753,1,0,0:0:0:0:
304,272,84873,1,0,0:0:0:0:
288,256,84993,2,0,P|256:224|256:192,1,70
240,64,85473,1,0,0:0:0:0:
256,48,85593,1,0,0:0:0:0:
224,80,85713,2,0,L|288:48,2,70
96,160,86433,6,0,L|192:192,1,70
288,224,86913,1,0,0:0:0:0:
192,48,87273,1,0,0:0:0:0:
368,256,87633,2,0,P|336:304|304:320,1,70
144,256,88113,2,0,L|176:288,1,35
240,336,88353,1,0,0:0:0:0:
176,144,88593,1,0,0:0:0:0:
192,128,88713,1,0,0:0:0:0:
208,112,88833,6,0,L|304:112,1,70
248,224,89313,1,0,0:0:0:0:
336,176,89553,2,0,P|368:144|376:96,1,70
336,288,90033,6,0,L|368:288,3,17.5
384,288,90273,2,0,B|384:352|352:368,1,70
288,176,90753,2,0,P|287:141|303:96,2,70
368,288,91473,1,0,0:0:0:0:
208,304,91713,6,0,P|176:304|128:256,2,70
368,160,92433,1,0,0:0:0:0:
384,128,92553,1,0,0:0:0:0:
400,96,92673,1,0,0:0:0:0:
224,160,92913,1,0,0:0:0:0:
208,192,93033,1,0,0:0:0:0:
192,224,93153,1,0,0:0:0:0:
368,160,93393,5,0,0:0:0:0:
288,272,93873,2,0,L|320:272,3,17.5
256,272,94113,2,0,P|224:272|176:240,1,70
192,80,94833,1,0,0:0:0:0:
224,80,94953,1,0,0:0:0:0:
256,80,95073,1,0,0:0:0:0:
416,208,95313,2,0,P|384:240|352:240,1,70
336,240,95673,1,0,0:0:0:0:
304,240,95793,1,0,0:0:0:0:
352,112,96033,5,0,0:0:0:0:
368,336,96273,1,0,0:0:0:0:
336,320,96393,1,0,0:0:0:0:
320,288,96513,2,0,P|288:256|256:256,1,70
240,256,96873,1,0,0:0:0:0:
224,272,96993,1,0,0:0:0:0:
112,352,97233,2,0,P|80:320|80:288,1,70
144,176,97713,2,0,L|176:176,3,17.5
192,176,97953,2,0,P|224:144|224:112,1,70
112,32,98433,6,0,L|144:96,1,70
336,208,98913,2,0,L|288:128,1,70
192,48,99393,1,0,0:0:0:0:
160,208,99633,1,0,0:0:0:0:
288,112,99873,1,0,0:0:0:0:
80,160,100113,2,0,B|112:96|176:128|208:64,2,140
112,336,101553,2,0,L|144:336,3,17.5
160,336,101793,2,0,P|192:336|224:304,1,70
192,160,102273,6,0,L|256:208,1,70
272,224,102633,1,0,0:0:0:0:
304,224,102753,2,0,L|272:288,1,70
288,128,103233,1,0,0:0:0:0:
160,256,103473,2,0,P|128:256|96:224,2,70
384,192,104193,6,0,B|448:192|512:256|352:320,1,210
256,192,105633,1,0,0:0:0:0:
128,192,106113,2,0,B|64:192|0:128|160:64,1,210
288,16,107073,1,0,0:0:0:0:
144,64,107313,1,0,0:0:0:0:
256,160,107553,6,0,P|256:224|192:256,1,140
168,256,108153,1,0,0:0:0:0:
136,240,108273,1,0,0:0:0:0:
120,216,108393,1,0,0:0:0:0:
112,184,108513,1,0,0:0:0:0:
224,32,108753,2,0,L|224:128,1,70
224,224,109233,1,0,0:0:0:0:
352,224,109473,2,0,L|352:128,1,70
192,64,109953,5,0,0:0:0:0:
224,64,110073,1,0,0:0:0:0:
256,64,110193,1,0,0:0:0:0:
288,64,110313,1,0,0:0:0:0:
320,64,110433,1,0,0:0:0:0:
392,192,110673,2,0,L|296:192,1,70
200,192,111153,1,0,0:0:0:0:
32,320,111393,6,0,L|128:320,1,70
128,320,111753,1,0,0:0:0:0:
160,320,111873,1,0,0:0:0:0:
320,224,112113,1,0,0:0:0:0:
320,192,112233,1,0,0:0:0:0:
320,160,112353,1,0,0:0:0:0:
128,64,112593,2,0,L|128:160,1,70
296,192,113073,1,0,0:0:0:0:
416,32,113313,1,0,0:0:0:0:
448,272,113553,5,0,0:0:0:0:
416,288,113673,1,0,0:0:0:0:
384,288,113793,2,0,P|352:288|320:320,1,70
288,336,114153,1,0,0:0:0:0:
256,320,114273,1,0,0:0:0:0:
96,256,114513,1,0,0:0:0:0:
176,48,114753,1,0,0:0:0:0:
168,72,114873,1,0,0:0:0:0:
152,88,114993,2,0,P|120:88|88:56,2,70
368,16,115713,5,0,0:0:0:0:
368,48,115833,1,0,0:0:0:0:
368,80,115953,1,0,0:0:0:0:
368,112,116073,1,0,0:0:0:0:
368,144,116193,2,0,L|432:176,2,70
336,144,116793,1,0,0:0:0:0:
312,160,116913,1,0,0:0:0:0:
288,176,117033,1,0,0:0:0:0:
256,176,117153,1,0,0:0:0:0:
72,104,117393,5,0,0:0:0:0:
96,128,117513,1,0,0:0:0:0:
128,128,117633,2,0,P|160:128|192:96,1,70
200,72,117993,1,0,0:0:0:0:
216,48,118113,2,0,P|248:48|280:80,1,70
288,96,118473,1,0,0:0:0:0:
288,120,118593,1,0,0:0:0:0:
160,200,118833,2,0,L|128:200,3,17.5
128,200,119073,1,0,0:0:0:0:
80,312,119313,2,0,L|43:348,1,35
192,296,119553,6,0,P|224:296|256:264,1,70
272,240,119913,1,0,0:0:0:0:
280,208,120033,1,0,0:0:0:0:
288,184,120153,1,0,0:0:0:0:
296,152,120273,2,0,P|328:120|360:120,1,70
208,80,120753,2,0,L|176:80,3,17.5
168,80,120993,1,0,0:0:0:0:
320,120,121233,2,0,L|320:152,1,17.5
320,168,121353,2,0,L|320:200,1,17.5
320,216,121473,2,0,B|288:248|256:248|256:280|288:312|320:312,1,140
464,312,122193,5,0,0:0:0:0:
400,160,122433,1,0,0:0:0:0:
384,176,122553,1,0,0:0:0:0:
360,176,122673,1,0,0:0:0:0:
264,96,122913,1,0,0:0:0:0:
144,240,123153,1,0,0:0:0:0:
144,224,123273,1,0,0:0:0:0:
144,208,123393,2,0,P|112:176|80:176,1,70
72,184,123753,1,0,0:0:0:0:
80,200,123873,1,0,0:0:0:0:
256,120,124113,6,0,P|288:88|296:56,1,70
312,48,124473,1,0,0:0:0:0:
328,72,124593,1,0,0:0:0:0:
360,88,124713,1,0,0:0:0:0:
392,88,124833,1,0,0:0:0:0:
224,56,125073,1,0,0:0:0:0:
88,200,125313,2,0,L|40:176,2,35
328,216,125793,6,0,P|294:238|259:239,1,70
296,135,126273,2,0,L|272:160,1,35
416,184,126513,2,0,L|440:208,1,35
328,312,126753,1,0,0:0:0:0:
192,256,126993,1,0,0:0:0:0:
184,224,127113,1,0,0:0:0:0:
192,192,127233,2,0,P|191:153|160:160,1,70
136,160,127593,1,0,0:0:0:0:
104,144,127713,1,0,0:0:0:0:
8,32,127953,6,0,L|8:96,1,70
64,272,128433,2,0,L|96:208,1,70
224,72,128913,1,0,0:0:0:0:
208,96,129033,1,0,0:0:0:0:
208,120,129153,2,0,P|240:152|240:184,1,70
232,200,129513,1,0,0:0:0:0:
208,208,129633,1,0,0:0:0:0:
64,88,129873,1,0,0:0:0:0:
176,184,130113,2,0,L|208:216,2,35
64,88,130593,6,0,P|128:56|208:96,1,140
216,104,131193,1,0,0:0:0:0:
240,128,131313,1,0,0:0:0:0:
264,152,131433,1,0,0:0:0:0:
288,184,131553,2,0,P|224:184|256:184,1,70
192,184,131913,1,0,0:0:0:0:
160,200,132033,1,0,0:0:0:0:
160,168,132153,1,0,0:0:0:0:
160,136,132273,2,0,P|128:136|96:104,1,70
200,16,132753,5,0,0:0:0:0:
240,32,132873,1,0,0:0:0:0:
280,24,132993,2,0,P|248:56|248:88,1,70
392,184,133473,2,0,L|360:152,1,35
232,160,133713,2,0,L|264:224,3,70
176,248,134673,5,0,0:0:0:0:
168,224,134793,1,0,0:0:0:0:
160,192,134913,2,0,P|152:144|232:80,1,140
192,80,135513,1,0,0:0:0:0:
160,80,135633,2,0,L|224:80,1,70
328,248,136113,2,0,L|232:248,1,70
160,160,136593,1,0,0:0:0:0:
256,192,136833,12,0,138033,0:0:0:0:
256,192,138273,6,0,P|288:160|320:160,1,70
384,224,138753,1,0,0:0:0:0:
139,205,138993,1,0,0:0:0:0:
120,192,139113,1,0,0:0:0:0:
96,192,139233,1,0,0:0:0:0:
320,144,139473,1,0,0:0:0:0:
232,24,139713,2,0,P|173:90|173:122,1,105.000004005432
264,312,140193,1,0,0:0:0:0:
80,208,140433,2,0,B|-68:191|3:-109|214:92|121:314|361:-80|477:170,1,630.000024032594
447,334,142113,1,0,0:0:0:0:
342,223,142353,2,0,P|310:191|213:213,1,105.000004005432
116,93,142833,5,0,0:0:0:0:
136,92,142953,1,0,0:0:0:0:
152,72,143073,1,0,0:0:0:0:
48,272,143313,1,0,0:0:0:0:
272,128,143553,2,0,P|304:128|363:195,1,105.000004005432
137,322,144033,1,0,0:0:0:0:
63,63,144273,2,0,B|63:127|63:127|141:25|159:286|352:256|372:-1|96:6|138:328,1,630.000024032594
136,328,145953,1,0,0:0:0:0:
280,200,146193,2,0,L|312:168,2,35
88,208,146673,2,0,L|56:240,2,35
240,16,147153,5,0,0:0:0:0:
96,96,147393,1,0,0:0:0:0:
360,64,147633,2,0,L|360:200,1,105.000004005432
224,160,148113,2,0,B|160:112|160:112|88:160|144:240|224:304|224:304|304:240|360:160|280:112|280:112|224:160,1,630.000024032594
48,320,149793,1,0,0:0:0:0:
232,288,150033,1,0,0:0:0:0:
256,256,150153,1,0,0:0:0:0:
288,224,150273,1,0,0:0:0:0:
384,48,150513,2,0,L|456:128,1,105.000004005432
216,96,150993,2,0,L|120:176,1,105.000004005432
72,72,151473,5,0,0:0:0:0:
112,256,151713,1,0,0:0:0:0:
312,280,151953,2,0,P|360:280|400:240,2,105.000004005432
128,224,152673,2,0,P|80:192|64:144,1,105.000004005432
224,96,153153,2,0,P|272:128|288:176,1,105.000004005432
256,344,153633,2,0,P|208:312|192:264,1,105.000004005432
208,104,154113,6,0,L|280:104,1,52.5000020027161
168,224,154353,2,0,L|208:264,1,52.5000020027161
56,264,154593,2,0,L|56:336,1,52.5000020027161
32,152,154833,2,0,L|-8:112,1,52.5000020027161
144,53,155073,2,0,L|144:80,7,26.2500010013581
256,125,155553,2,0,L|256:152,7,26.2500010013581
400,224,156033,2,0,P|440:224|496:176,2,105.000004005432
256,192,156753,12,0,158673,0:0:0:0:
160,128,158913,5,0,0:0:0:0:
256,64,159153,1,0,0:0:0:0:
352,128,159393,2,0,P|384:224|288:280,1,210.000008010865
152,184,160113,1,0,0:0:0:0:
152,152,160233,1,0,0:0:0:0:
152,120,160353,1,0,0:0:0:0:
384,32,160593,6,0,L|384:96,1,70
384,128,160953,1,0,0:0:0:0:
384,160,161073,1,0,0:0:0:0:
384,192,161193,1,0,0:0:0:0:
384,224,161313,1,0,0:0:0:0:
216,272,161553,2,0,L|280:336,1,70
96,192,162033,1,0,0:0:0:0:
96,160,162153,1,0,0:0:0:0:
96,128,162273,2,0,P|128:96|160:96,1,70
328,112,162753,6,0,P|296:144|264:144,1,70
160,64,163233,1,0,0:0:0:0:
24,104,163473,2,0,P|56:136|56:168,2,70
24,64,164073,1,0,0:0:0:0:
32,32,164193,2,0,P|96:32|128:32,1,70
296,32,164673,2,0,P|264:64|264:96,1,70
248,232,165153,1,0,0:0:0:0:
376,168,165393,6,0,P|408:136|440:136,2,70
512,128,166113,1,0,0:0:0:0:
368,304,166353,1,0,0:0:0:0:
216,216,166593,1,0,0:0:0:0:
208,184,166713,1,0,0:0:0:0:
184,160,166833,1,0,0:0:0:0:
152,168,166953,1,0,0:0:0:0:
128,184,167073,2,0,P|96:184|96:152,2,70
296,80,167793,5,0,0:0:0:0:
328,48,167913,1,0,0:0:0:0:
360,16,168033,2,0,L|424:48,1,70
456,240,168513,2,0,P|429:218|421:185,1,70
312,264,168993,1,0,0:0:0:0:
224,160,169233,1,0,0:0:0:0:
192,160,169353,1,0,0:0:0:0:
168,176,169473,2,0,P|136:208|136:240,1,70
144,256,169833,1,0,0:0:0:0:
168,280,169953,1,0,0:0:0:0:
352,280,170193,1,0,0:0:0:0:
264,160,170433,6,0,P|264:128|296:96,1,70
424,120,170913,2,0,P|456:88|456:56,1,70
424,40,171273,1,0,0:0:0:0:
384,40,171393,1,0,0:0:0:0:
192,128,171633,1,0,0:0:0:0:
192,96,171753,1,0,0:0:0:0:
192,64,171873,2,0,L|96:64,1,70
64,224,172353,2,0,L|64:128,1,70
64,24,172833,1,0,0:0:0:0:
176,128,173073,2,0,L|208:160,2,35
0,128,173553,5,0,0:0:0:0:
96,224,173793,1,0,0:0:0:0:
224,128,174033,1,0,0:0:0:0:
120,40,174273,1,0,0:0:0:0:
352,64,174513,1,0,0:0:0:0:
352,64,174753,1,0,0:0:0:0:
224,128,174993,2,0,P|256:160|224:192,1,70
104,264,175473,1,0,0:0:0:0:
72,264,175593,1,0,0:0:0:0:
40,264,175713,2,0,P|40:328|40:360,1,70
200,304,176193,5,0,0:0:0:0:
320,160,176433,1,0,0:0:0:0:
272,248,176673,2,0,P|240:216|208:216,1,70
184,200,177033,1,0,0:0:0:0:
184,168,177153,2,0,L|216:104,1,70
232,80,177513,1,0,0:0:0:0:
264,64,177633,1,0,0:0:0:0:
416,208,177873,1,0,0:0:0:0:
288,296,178113,6,0,L|224:232,1,70
312,192,178593,1,0,0:0:0:0:
136,216,178833,2,0,L|168:152,1,70
304,32,179313,1,0,0:0:0:0:
336,32,179433,1,0,0:0:0:0:
368,32,179553,2,0,P|400:64|400:96,1,70
320,288,180033,2,0,P|288:256|288:224,1,70
336,72,180513,2,0,P|304:40|272:40,1,70
240,40,180873,1,0,0:0:0:0:
208,40,180993,1,0,0:0:0:0:
64,160,181233,5,0,0:0:0:0:
96,160,181353,1,0,0:0:0:0:
128,160,181473,2,0,L|192:160,2,70
0,256,182193,1,0,0:0:0:0:
0,160,182433,2,0,P|64:192|96:256,1,140
96,368,183153,1,0,0:0:0:0:
264,272,183393,2,0,P|296:240|296:208,1,70
296,184,183753,1,0,0:0:0:0:
296,152,183873,1,0,0:0:0:0:
224,32,184113,6,0,L|288:96,1,70
416,104,184593,2,0,L|448:72,1,35
448,192,184833,2,0,L|384:256,1,70
320,320,185313,1,0,0:0:0:0:
320,160,185553,1,0,0:0:0:0:
192,256,185793,2,0,P|160:256|128:224,2,70
320,192,186513,1,0,0:0:0:0:
352,192,186633,1,0,0:0:0:0:
384,192,186753,2,0,P|416:192|448:224,1,70
472,248,187113,1,0,0:0:0:0:
480,224,187233,2,0,P|480:192|512:160,1,70
408,40,187713,6,0,P|408:72|376:104,1,70
216,208,188193,1,0,0:0:0:0:
160,96,188433,1,0,0:0:0:0:
256,192,188673,12,0,190353,0:0:0:0:
256,192,190593,5,0,0:0:0:0:
224,192,198393,5,0,0:0:0:0:
256,96,198633,1,0,0:0:0:0:
352,96,198873,1,0,0:0:0:0:
416,192,199113,2,0,P|352:224|288:224,1,105
128,96,202233,5,0,0:0:0:0:
256,96,202473,1,0,0:0:0:0:
352,32,202713,1,0,0:0:0:0:
360,160,202953,2,0,L|408:240,1,70
288,304,203433,1,0,0:0:0:0:
224,192,203673,2,0,P|192:128|64:160,1,210
136,192,204633,2,0,L|224:64,1,140
288,192,206193,5,0,0:0:0:0:
256,288,206433,1,0,0:0:0:0:
152,288,206673,1,0,0:0:0:0:
96,192,206913,2,0,P|128:160|192:160,1,105
224,168,207393,2,0,P|288:168|384:136,1,140
384,288,210033,5,0,0:0:0:0:
384,288,210193,1,0,0:0:0:0:
160,352,210513,1,0,0:0:0:0:
160,256,210833,2,0,P|160:192|128:192,1,93.3333333333333
160,128,211393,1,0,0:0:0:0:
288,192,211793,2,0,P|320:256|448:248,1,196
232,184,213033,1,0,0:0:0:0:
376,200,213313,2,0,P|384:264|360:304,1,104.999996795654
