osu file format v14

[General]
AudioFilename: audio.mp3
AudioLeadIn: 0
PreviewTime: 125837
Countdown: 1
SampleSet: Normal
StackLeniency: 0.7
Mode: 1
LetterboxInBreaks: 0
WidescreenStoryboard: 0

[Editor]
Bookmarks: 3025,16739,44168,57908,71622,85337,99051,112765,126479,153908,167622,181337,195051,208765,236194,249908,277337,291051,304765,318479,332194,345908,359622,373337
DistanceSpacing: 1
BeatDivisor: 4
GridSize: 4
TimelineZoom: 1.700003

[Metadata]
Title:Missing Opus feat. cold kiss
TitleUnicode:Missing Opus feat. cold kiss
Artist:ZYTOKINE
ArtistUnicode:ZYTOKINE
Creator:Nepuri
Version:Magnum Opus
Source:東方紅魔郷 ~ the Embodiment of Scarlet Devil.
Tags:Koumakyou フランドール・スカーレット Flandre Scarlet TH6 Touhou Project Extra Stage Boss U.N.オーエンは彼女なのか? Owen was her? 隣人 Linjin CYTOKINE 高橋菜々 Nana Takahashi gold* CK-0024P C82 ZUN 上海アリス幻樂団 Team Shanghai Alice
BeatmapID:1555538
BeatmapSetID:737090

[Difficulty]
HPDrainRate:5
CircleSize:5
OverallDifficulty:5.5
ApproachRate:5
SliderMultiplier:1.4
SliderTickRate:2

[Events]
//Background and Video events
0,0,"Flandre.png",0,20
//Break Periods
//Storyboard Layer 0 (Background)
//Storyboard Layer 1 (Fail)
//Storyboard Layer 2 (Pass)
//Storyboard Layer 3 (Foreground)
//Storyboard Sound Samples

[TimingPoints]
1337,428.571428571429,4,1,0,60,1,0
1337,-133.333333333333,4,1,0,60,0,0
16765,-117.647058823529,4,1,0,75,0,0
40765,-116.279069767442,4,1,0,75,0,0
40979,-114.942528735632,4,1,0,75,0,0
41194,-113.636363636364,4,1,0,75,0,0
41408,-112.359550561798,4,1,0,75,0,0
41515,-111.731843575419,4,1,0,75,0,0
41622,-111.111111111111,4,1,0,75,0,0
41837,-108.108108108108,4,1,0,75,0,0
42051,-105.263157894737,4,1,0,75,0,0
42265,-102.564102564103,4,1,0,75,0,0
42479,-100,4,1,0,75,0,0
44087,-100,4,1,0,60,0,0
45908,-100,4,1,0,65,0,0
47622,-100,4,1,0,70,0,0
49337,-100,4,1,0,75,0,0
51051,-100,4,1,0,80,0,0
57694,-99.009900990099,4,1,0,80,0,0
57908,-98.0392156862745,4,1,0,80,0,0
59408,-97.0873786407767,4,1,0,80,0,0
59622,-96.1538461538461,4,1,0,80,0,0
61122,-95.2380952380952,4,1,0,80,0,0
61337,-94.3396226415094,4,1,0,80,0,0
62837,-93.4579439252336,4,1,0,80,0,0
63051,-92.5925925925926,4,1,0,80,0,0
64551,-91.743119266055,4,1,0,80,0,0
64765,-90.9090909090909,4,1,0,80,0,0
66265,-90.0900900900901,4,1,0,80,0,0
66479,-89.2857142857143,4,1,0,80,0,0
67979,-88.4955752212389,4,1,0,80,0,0
68194,-87.719298245614,4,1,0,80,0,0
69694,-86.9565217391304,4,1,0,80,0,0
69908,-86.2068965517241,4,1,0,80,0,0
71622,-83.3333333333333,4,1,0,80,0,0
71837,-86.9565217391304,4,1,0,70,0,0
72265,-90.9090909090909,4,1,0,70,0,0
85229,-90.9090909090909,4,1,0,80,0,0
99265,-90.9090909090909,4,1,0,70,0,0
112658,-90.9090909090909,4,1,0,80,0,0
121122,-90.0900900900901,4,1,0,80,0,0
121337,-89.2857142857143,4,1,0,80,0,0
122837,-88.4955752212389,4,1,0,80,0,0
123051,-87.719298245614,4,1,0,80,0,0
124551,-86.9565217391304,4,1,0,80,0,0
124765,-86.2068965517241,4,1,0,80,0,0
126479,-83.3333333333333,4,1,0,80,0,1
153908,-83.3333333333333,4,1,0,80,0,0
154337,-86.9565217391304,4,1,0,80,0,0
154551,-88.8888888888889,4,1,0,80,0,0
154765,-90.9090909090909,4,1,0,80,0,0
167729,-90.9090909090909,4,1,0,65,0,0
169337,-90.9090909090909,4,1,0,70,0,0
171051,-90.9090909090909,4,1,0,75,0,0
172765,-90.9090909090909,4,1,0,80,0,0
181551,-90.9090909090909,4,1,0,70,0,0
194944,-90.9090909090909,4,1,0,80,0,0
203408,-90.0900900900901,4,1,0,80,0,0
203622,-89.2857142857143,4,1,0,80,0,0
205122,-88.4955752212389,4,1,0,80,0,0
205337,-87.719298245614,4,1,0,80,0,0
206837,-86.9565217391304,4,1,0,80,0,0
207051,-86.2068965517241,4,1,0,80,0,0
208765,-83.3333333333333,4,1,0,80,0,1
236194,-83.3333333333333,4,1,0,80,0,0
236622,-86.9565217391304,4,1,0,80,0,0
236837,-88.8888888888889,4,1,0,80,0,0
237051,-90.9090909090909,4,1,0,80,0,0
250122,-95.2380952380952,4,1,0,70,0,0
250551,-100,4,1,0,70,0,0
273908,-99.009900990099,4,1,0,75,0,0
274122,-98.0392156862745,4,1,0,75,0,0
274337,-97.0873786407767,4,1,0,75,0,0
274551,-96.1538461538461,4,1,0,75,0,0
274658,-95.6937799043062,4,1,0,75,0,0
274765,-95.2380952380952,4,1,0,75,0,0
274979,-94.3396226415094,4,1,0,75,0,0
275194,-93.4579439252336,4,1,0,75,0,0
275408,-92.5925925925926,4,1,0,75,0,0
275622,-90.9090909090909,4,1,0,75,0,0
277229,-90.9090909090909,4,1,0,80,0,0
285694,-90.0900900900901,4,1,0,80,0,0
285908,-89.2857142857143,4,1,0,80,0,0
287408,-88.4955752212389,4,1,0,80,0,0
287622,-87.719298245614,4,1,0,80,0,0
289122,-86.9565217391304,4,1,0,80,0,0
289337,-86.2068965517241,4,1,0,80,0,0
291051,-85.4700854700855,4,1,0,80,0,0
292765,-100,4,1,0,80,0,0
297908,-90.9090909090909,4,1,0,80,0,0
301337,-90.0900900900901,4,1,0,80,0,0
301551,-89.2857142857143,4,1,0,80,0,0
301765,-88.4955752212389,4,1,0,80,0,0
301979,-87.719298245614,4,1,0,80,0,0
302194,-86.9565217391304,4,1,0,80,0,0
302408,-86.2068965517241,4,1,0,80,0,0
302622,-85.4700854700855,4,1,0,80,0,0
302837,-84.7457627118644,4,1,0,80,0,0
303051,-83.3333333333333,4,1,0,80,0,0
304765,-83.3333333333333,4,1,0,80,0,1
318479,-83.3333333333333,4,1,0,80,0,0
318908,-86.9565217391304,4,1,0,80,0,0
319122,-88.8888888888889,4,1,0,80,0,0
319337,-90.9090909090909,4,1,0,80,0,0
332515,-93.4579439252336,4,1,0,70,0,0
332837,-96.1538461538461,4,1,0,65,0,0
333051,-98.0392156862745,4,1,0,65,0,0
333372,-100,4,1,0,65,0,0
335622,-100,4,1,0,70,0,0
337337,-100,4,1,0,75,0,0
339051,-100,4,1,0,80,0,0
345694,-99.009900990099,4,1,0,80,0,0
345908,-98.0392156862745,4,1,0,80,0,0
347408,-97.0873786407767,4,1,0,80,0,0
347622,-96.1538461538461,4,1,0,80,0,0
349122,-95.2380952380952,4,1,0,80,0,0
349337,-94.3396226415094,4,1,0,80,0,0
350837,-93.4579439252336,4,1,0,80,0,0
351051,-92.5925925925926,4,1,0,80,0,0
352551,-91.743119266055,4,1,0,80,0,0
352765,-90.9090909090909,4,1,0,80,0,0
354265,-90.0900900900901,4,1,0,80,0,0
354479,-89.2857142857143,4,1,0,80,0,0
355979,-88.4955752212389,4,1,0,80,0,0
356194,-87.719298245614,4,1,0,80,0,0
357694,-86.9565217391304,4,1,0,80,0,0
357908,-86.2068965517241,4,1,0,80,0,0
359622,-85.4700854700855,4,1,0,80,0,0
360051,-89.2857142857143,4,1,0,80,0,0
360479,-93.4579439252336,4,1,0,80,0,0
360908,-98.0392156862745,4,1,0,80,0,0
361337,-100,4,1,0,80,0,0

[HitObjects]
256,192,1337,12,0,2837,0:0:0:0:
320,280,3051,5,0,0:0:0:0:
136,220,3694,1,0,0:0:0:0:
324,156,4337,1,0,0:0:0:0:
196,196,4765,1,0,0:0:0:0:
392,140,5408,1,8,0:0:0:0:
204,196,6051,1,0,0:0:0:0:
336,156,6479,1,8,0:0:0:0:
144,216,7122,1,8,0:0:0:0:
336,156,7765,1,8,0:0:0:0:
208,196,8194,1,0,0:0:0:0:
404,136,8837,1,8,0:0:0:0:
216,192,9479,1,0,0:0:0:0:
340,156,9908,1,8,0:0:0:0:
160,204,10551,1,0,0:0:0:0:
376,148,11194,1,0,0:0:0:0:
220,184,11622,1,8,0:0:0:0:
92,344,12265,1,0,0:0:0:0:
216,192,12908,1,8,0:0:0:0:
136,300,13337,1,8,0:0:0:0:
256,136,13979,1,8,0:0:0:0:
140,292,14622,1,8,0:0:0:0:
220,184,15051,1,0,0:0:0:0:
100,344,15694,1,0,0:0:0:0:
220,184,16337,1,8,0:0:0:0:
144,284,16765,1,12,0:0:0:0:
268,240,17194,1,0,0:0:0:0:
152,284,17622,1,8,0:0:0:0:
268,240,18051,1,0,0:0:0:0:
152,284,18479,1,8,0:0:0:0:
272,236,18908,1,8,0:0:0:0:
156,284,19337,1,0,0:0:0:0:
280,232,19765,1,0,0:0:0:0:
160,284,20194,1,8,0:0:0:0:
284,232,20622,1,8,0:0:0:0:
168,276,21051,1,0,0:0:0:0:
288,232,21479,1,8,0:0:0:0:
172,276,21908,1,8,0:0:0:0:
296,228,22337,1,0,0:0:0:0:
184,272,22765,1,8,0:0:0:0:
428,176,23622,1,8,0:0:0:0:
312,220,24051,1,8,0:0:0:0:
196,268,24479,1,0,0:0:0:0:
312,220,24908,1,0,0:0:0:0:
200,264,25337,1,8,0:0:0:0:
340,216,25765,1,8,0:0:0:0:
244,120,26194,1,8,0:0:0:0:
340,220,26622,1,0,0:0:0:0:
244,120,27051,1,8,0:0:0:0:
336,216,27479,1,8,0:0:0:0:
208,244,27908,1,0,0:0:0:0:
84,264,28337,1,8,0:0:0:0:
212,244,28765,1,8,0:0:0:0:
92,260,29194,1,0,0:0:0:0:
216,244,29622,1,8,0:0:0:0:
188,248,30479,1,8,0:0:0:0:
188,248,30908,1,0,0:0:0:0:
132,220,31122,1,0,0:0:0:0:
188,248,31337,1,8,0:0:0:0:
188,248,31765,1,0,0:0:0:0:
188,248,32194,1,8,0:0:0:0:
188,248,32622,1,8,0:0:0:0:
140,224,32837,1,0,0:0:0:0:
188,248,33051,1,8,0:0:0:0:
304,184,33479,1,0,0:0:0:0:
172,204,33908,5,8,0:0:0:0:
296,188,34337,1,8,0:0:0:0:
244,204,34551,1,8,0:0:0:0:
176,204,34765,1,0,0:0:0:0:
332,184,35194,1,0,0:0:0:0:
168,204,35622,1,8,0:0:0:0:
128,260,35837,1,0,0:0:0:0:
296,188,36051,1,8,0:0:0:0:
168,204,36479,1,8,0:0:0:0:
152,228,37337,1,8,0:0:0:0:
152,228,37765,1,8,0:0:0:0:
152,228,37979,1,8,0:0:0:0:
152,228,38194,1,0,0:0:0:0:
152,228,38622,1,0,0:0:0:0:
152,228,38837,1,0,0:0:0:0:
152,228,39051,1,8,0:0:0:0:
152,228,39265,1,0,0:0:0:0:
152,228,39479,1,8,0:0:0:0:
152,228,39908,1,0,0:0:0:0:
152,228,40122,1,8,0:0:0:0:
152,228,40337,1,0,0:0:0:0:
152,228,40765,1,8,0:0:0:0:
152,228,40979,1,0,0:0:0:0:
152,228,41194,1,8,0:0:0:0:
152,228,41408,1,0,0:0:0:0:
172,228,41515,1,0,0:0:0:0:
152,228,41622,1,8,0:0:0:0:
152,228,41837,1,0,0:0:0:0:
152,228,42051,1,8,0:0:0:0:
152,228,42265,1,8,0:0:0:0:
152,228,42479,1,12,0:0:0:0:
152,228,44194,1,12,0:0:0:0:
252,228,44515,1,8,0:0:0:0:
372,252,44837,1,8,0:0:0:0:
448,268,45051,1,0,0:0:0:0:
508,280,45372,1,0,0:0:0:0:
508,280,45694,1,0,0:0:0:0:
444,256,45908,1,8,0:0:0:0:
336,216,46229,1,8,0:0:0:0:
336,216,46551,1,8,0:0:0:0:
336,216,46765,1,0,0:0:0:0:
336,216,47087,1,0,0:0:0:0:
336,216,47408,1,0,0:0:0:0:
336,216,47622,1,8,0:0:0:0:
336,216,47944,1,8,0:0:0:0:
336,216,48265,1,8,0:0:0:0:
336,216,48479,1,0,0:0:0:0:
336,216,48801,1,0,0:0:0:0:
336,216,49122,1,0,0:0:0:0:
336,216,49337,1,8,0:0:0:0:
336,216,49658,1,8,0:0:0:0:
336,216,49979,1,8,0:0:0:0:
336,216,50194,1,0,0:0:0:0:
336,216,50515,1,0,0:0:0:0:
336,216,50837,1,0,0:0:0:0:
272,200,51051,1,8,0:0:0:0:
272,200,51265,1,0,0:0:0:0:
272,200,51372,1,8,0:0:0:0:
272,200,51587,1,0,0:0:0:0:
272,200,51694,1,8,0:0:0:0:
272,200,51908,1,0,0:0:0:0:
272,200,52229,1,0,0:0:0:0:
272,200,52551,1,0,0:0:0:0:
272,200,52765,1,8,0:0:0:0:
272,200,52979,1,0,0:0:0:0:
272,200,53087,1,8,0:0:0:0:
272,200,53301,1,0,0:0:0:0:
272,200,53408,1,8,0:0:0:0:
272,200,53622,1,0,0:0:0:0:
272,200,53944,1,0,0:0:0:0:
272,200,54265,1,0,0:0:0:0:
272,200,54479,1,8,0:0:0:0:
272,200,54694,1,0,0:0:0:0:
272,200,54801,1,8,0:0:0:0:
272,200,55015,1,0,0:0:0:0:
272,200,55122,1,8,0:0:0:0:
272,200,55337,1,0,0:0:0:0:
272,200,55658,1,0,0:0:0:0:
272,200,55979,1,0,0:0:0:0:
272,200,56194,1,12,0:0:0:0:
236,148,56408,1,0,0:0:0:0:
252,172,56515,1,8,0:0:0:0:
252,172,56729,1,0,0:0:0:0:
252,172,56837,1,8,0:0:0:0:
252,172,56944,1,8,0:0:0:0:
252,172,57051,1,0,0:0:0:0:
252,172,57372,1,0,0:0:0:0:
252,172,57694,1,0,0:0:0:0:
252,172,57908,1,12,0:0:0:0:
312,184,58122,1,0,0:0:0:0:
340,188,58229,1,8,0:0:0:0:
340,188,58444,1,0,0:0:0:0:
340,188,58551,1,8,0:0:0:0:
340,188,58765,1,8,0:0:0:0:
288,152,59087,1,8,0:0:0:0:
328,180,59194,1,0,0:0:0:0:
340,188,59408,1,8,0:0:0:0:
396,184,59622,1,8,0:0:0:0:
452,152,59837,1,0,0:0:0:0:
452,152,59944,1,8,0:0:0:0:
452,152,60158,1,0,0:0:0:0:
416,148,60265,1,8,0:0:0:0:
364,176,60479,1,8,0:0:0:0:
276,220,60801,1,8,0:0:0:0:
248,232,60908,1,0,0:0:0:0:
248,232,61122,1,8,0:0:0:0:
248,232,61337,1,8,0:0:0:0:
248,232,61551,1,0,0:0:0:0:
248,232,61658,1,8,0:0:0:0:
248,232,61872,1,0,0:0:0:0:
248,232,61979,1,8,0:0:0:0:
248,232,62194,1,8,0:0:0:0:
204,176,62408,1,0,0:0:0:0:
248,232,62515,1,8,0:0:0:0:
236,216,62622,1,0,0:0:0:0:
188,172,62837,1,8,0:0:0:0:
212,112,63051,1,8,0:0:0:0:
212,112,63265,1,0,0:0:0:0:
212,112,63372,1,8,0:0:0:0:
212,112,63587,1,0,0:0:0:0:
212,112,63694,1,8,0:0:0:0:
212,112,63908,1,8,0:0:0:0:
212,112,64122,1,0,0:0:0:0:
212,112,64229,1,8,0:0:0:0:
212,112,64337,1,0,0:0:0:0:
212,112,64551,1,8,0:0:0:0:
188,256,64765,1,8,0:0:0:0:
244,240,64979,1,0,0:0:0:0:
272,232,65087,1,8,0:0:0:0:
328,220,65301,1,0,0:0:0:0:
328,220,65408,1,8,0:0:0:0:
328,220,65515,1,8,0:0:0:0:
328,220,65622,1,0,0:0:0:0:
328,220,65837,1,0,0:0:0:0:
328,220,65944,1,8,0:0:0:0:
328,220,66051,1,0,0:0:0:0:
328,220,66265,1,8,0:0:0:0:
328,220,66479,1,8,0:0:0:0:
328,220,66694,1,0,0:0:0:0:
308,200,66801,1,8,0:0:0:0:
264,152,67015,1,0,0:0:0:0:
248,132,67122,1,8,0:0:0:0:
232,116,67229,1,8,0:0:0:0:
212,100,67337,1,0,0:0:0:0:
212,100,67551,1,0,0:0:0:0:
212,100,67658,1,8,0:0:0:0:
188,84,67765,1,0,0:0:0:0:
188,84,67979,1,8,0:0:0:0:
188,84,68194,1,8,0:0:0:0:
188,84,68408,1,0,0:0:0:0:
176,52,68515,1,8,0:0:0:0:
148,52,68622,1,8,0:0:0:0:
116,84,68729,1,0,0:0:0:0:
112,52,68837,1,8,0:0:0:0:
112,52,68944,1,0,0:0:0:0:
112,52,69051,1,8,0:0:0:0:
108,116,69265,1,0,0:0:0:0:
108,148,69372,1,8,0:0:0:0:
108,148,69479,1,0,0:0:0:0:
108,148,69694,1,8,0:0:0:0:
240,160,69908,5,8,0:0:0:0:
240,160,70015,1,8,0:0:0:0:
240,160,70122,1,0,0:0:0:0:
240,160,70229,1,8,0:0:0:0:
240,160,70337,1,8,0:0:0:0:
240,160,70444,1,0,0:0:0:0:
240,160,70551,1,8,0:0:0:0:
240,160,70658,1,0,0:0:0:0:
240,160,70765,1,8,0:0:0:0:
240,160,70979,1,0,0:0:0:0:
240,160,71087,1,8,0:0:0:0:
196,144,71194,1,8,0:0:0:0:
240,160,71301,1,0,0:0:0:0:
240,160,71408,1,8,0:0:0:0:
240,160,71622,1,12,0:0:0:0:
76,124,72051,1,0,0:0:0:0:
224,44,72479,1,0,0:0:0:0:
84,128,72908,1,0,0:0:0:0:
220,52,73337,1,0,0:0:0:0:
80,144,73765,1,0,0:0:0:0:
160,92,73979,1,8,0:0:0:0:
160,92,74194,1,0,0:0:0:0:
216,136,74408,1,8,0:0:0:0:
240,160,74515,1,0,0:0:0:0:
320,224,74837,1,8,0:0:0:0:
320,224,75051,1,0,0:0:0:0:
200,144,75479,1,0,0:0:0:0:
80,68,75908,1,0,0:0:0:0:
204,144,76337,1,0,0:0:0:0:
80,72,76765,1,0,0:0:0:0:
212,152,77194,1,0,0:0:0:0:
148,112,77408,1,8,0:0:0:0:
208,156,77622,1,8,0:0:0:0:
156,116,77837,1,8,0:0:0:0:
180,136,77944,1,0,0:0:0:0:
180,136,78265,1,0,0:0:0:0:
100,164,78479,1,8,0:0:0:0:
248,264,78908,1,0,0:0:0:0:
172,136,79337,1,0,0:0:0:0:
248,268,79765,1,0,0:0:0:0:
172,140,80194,1,0,0:0:0:0:
244,264,80622,1,0,0:0:0:0:
208,196,80837,1,8,0:0:0:0:
240,260,81051,1,8,0:0:0:0:
212,196,81265,1,8,0:0:0:0:
224,224,81372,1,8,0:0:0:0:
268,320,81694,1,0,0:0:0:0:
240,260,81908,1,8,0:0:0:0:
216,124,82337,1,0,0:0:0:0:
276,260,82765,1,0,0:0:0:0:
224,116,83194,1,0,0:0:0:0:
272,252,83622,1,0,0:0:0:0:
220,104,84051,1,0,0:0:0:0:
244,172,84265,1,8,0:0:0:0:
216,96,84479,1,8,0:0:0:0:
244,176,84694,1,8,0:0:0:0:
232,132,84801,1,0,0:0:0:0:
232,132,85122,1,0,0:0:0:0:
232,132,85337,1,12,0:0:0:0:
220,204,85551,1,0,0:0:0:0:
220,204,85658,1,8,0:0:0:0:
220,204,85872,1,0,0:0:0:0:
220,204,85979,1,8,0:0:0:0:
220,204,86194,1,8,0:0:0:0:
220,204,86515,1,8,0:0:0:0:
324,256,86837,1,8,0:0:0:0:
260,224,87051,1,8,0:0:0:0:
196,192,87265,1,0,0:0:0:0:
224,208,87372,1,8,0:0:0:0:
224,208,87587,1,0,0:0:0:0:
224,208,87694,1,8,0:0:0:0:
232,148,87908,1,8,0:0:0:0:
232,148,88229,1,8,0:0:0:0:
232,148,88551,1,8,0:0:0:0:
232,148,88765,1,8,0:0:0:0:
232,148,88979,1,0,0:0:0:0:
232,148,89087,1,8,0:0:0:0:
232,148,89301,1,0,0:0:0:0:
232,148,89408,1,8,0:0:0:0:
204,148,89515,1,8,0:0:0:0:
232,148,89622,1,0,0:0:0:0:
232,148,89944,1,8,0:0:0:0:
232,148,90265,1,8,0:0:0:0:
200,212,90479,1,8,0:0:0:0:
232,148,90694,1,0,0:0:0:0:
220,172,90801,1,8,0:0:0:0:
220,172,91015,1,0,0:0:0:0:
220,172,91122,1,8,0:0:0:0:
196,152,91229,1,8,0:0:0:0:
220,172,91337,1,0,0:0:0:0:
220,172,91658,1,8,0:0:0:0:
220,172,91979,1,8,0:0:0:0:
148,136,92194,1,8,0:0:0:0:
224,172,92408,1,0,0:0:0:0:
180,152,92515,1,8,0:0:0:0:
180,152,92729,1,0,0:0:0:0:
180,152,92837,1,8,0:0:0:0:
168,128,92944,1,8,0:0:0:0:
180,152,93051,1,0,0:0:0:0:
180,152,93372,1,8,0:0:0:0:
160,160,93479,1,0,0:0:0:0:
180,152,93694,1,8,0:0:0:0:
180,152,93908,1,8,0:0:0:0:
180,152,94122,1,0,0:0:0:0:
180,152,94229,1,8,0:0:0:0:
180,152,94444,1,0,0:0:0:0:
180,152,94551,1,8,0:0:0:0:
156,172,94658,1,8,0:0:0:0:
180,152,94765,1,0,0:0:0:0:
180,152,95087,1,8,0:0:0:0:
148,128,95194,1,0,0:0:0:0:
180,152,95408,1,8,0:0:0:0:
180,152,95622,1,8,0:0:0:0:
224,192,95837,1,0,0:0:0:0:
240,208,95944,1,8,0:0:0:0:
272,240,96158,1,0,0:0:0:0:
288,252,96265,1,8,0:0:0:0:
256,224,96372,1,8,0:0:0:0:
304,268,96479,1,0,0:0:0:0:
320,196,96694,1,0,0:0:0:0:
332,152,96801,1,8,0:0:0:0:
344,100,96908,1,0,0:0:0:0:
344,100,97122,1,8,0:0:0:0:
288,148,97337,1,8,0:0:0:0:
236,188,97551,1,0,0:0:0:0:
212,208,97658,1,8,0:0:0:0:
188,228,97765,1,8,0:0:0:0:
164,252,97872,1,0,0:0:0:0:
164,252,97979,1,8,0:0:0:0:
164,252,98087,1,0,0:0:0:0:
164,252,98194,1,8,0:0:0:0:
164,252,98408,1,0,0:0:0:0:
164,252,98515,1,8,0:0:0:0:
164,252,98622,1,0,0:0:0:0:
164,252,98837,1,8,0:0:0:0:
164,252,99051,1,12,0:0:0:0:
224,120,99479,1,0,0:0:0:0:
204,184,99694,1,0,0:0:0:0:
204,184,99908,1,0,0:0:0:0:
204,184,100337,1,0,0:0:0:0:
204,184,100765,1,0,0:0:0:0:
204,184,101194,1,0,0:0:0:0:
204,184,101408,1,8,0:0:0:0:
204,184,101622,1,8,0:0:0:0:
204,184,101837,1,0,0:0:0:0:
204,184,101944,1,0,0:0:0:0:
204,184,102265,1,8,0:0:0:0:
204,184,102479,1,0,0:0:0:0:
316,280,102908,1,0,0:0:0:0:
208,192,103122,1,0,0:0:0:0:
208,192,103337,1,0,0:0:0:0:
320,284,103765,1,0,0:0:0:0:
212,192,104194,1,0,0:0:0:0:
324,284,104622,1,0,0:0:0:0:
268,244,104837,1,8,0:0:0:0:
320,280,105051,1,0,0:0:0:0:
264,240,105265,1,8,0:0:0:0:
288,256,105372,1,0,0:0:0:0:
288,256,105694,1,0,0:0:0:0:
288,256,105908,1,8,0:0:0:0:
168,164,106337,1,0,0:0:0:0:
228,212,106551,1,0,0:0:0:0:
228,212,106765,1,0,0:0:0:0:
228,212,107194,1,0,0:0:0:0:
228,212,107622,1,0,0:0:0:0:
228,212,108051,1,0,0:0:0:0:
228,212,108265,1,8,0:0:0:0:
228,212,108479,1,8,0:0:0:0:
228,212,108694,1,8,0:0:0:0:
228,212,108801,1,8,0:0:0:0:
228,212,109122,1,0,0:0:0:0:
228,212,109337,1,8,0:0:0:0:
116,112,109765,1,0,0:0:0:0:
168,160,109979,1,0,0:0:0:0:
220,200,110194,1,0,0:0:0:0:
100,108,110622,1,0,0:0:0:0:
220,200,111051,1,0,0:0:0:0:
100,108,111479,1,0,0:0:0:0:
160,156,111694,1,8,0:0:0:0:
220,200,111908,1,8,0:0:0:0:
164,156,112122,1,8,0:0:0:0:
196,184,112229,1,0,0:0:0:0:
196,184,112551,1,0,0:0:0:0:
196,184,112765,1,12,0:0:0:0:
220,204,112979,1,0,0:0:0:0:
220,204,113087,1,8,0:0:0:0:
220,204,113301,1,0,0:0:0:0:
220,204,113408,1,8,0:0:0:0:
220,204,113622,1,8,0:0:0:0:
220,204,113944,1,8,0:0:0:0:
324,256,114265,1,8,0:0:0:0:
260,224,114479,1,8,0:0:0:0:
196,192,114694,1,0,0:0:0:0:
224,208,114801,1,8,0:0:0:0:
224,208,115015,1,0,0:0:0:0:
224,208,115122,1,8,0:0:0:0:
232,148,115337,1,8,0:0:0:0:
232,148,115658,1,8,0:0:0:0:
232,148,115979,1,8,0:0:0:0:
232,148,116194,1,8,0:0:0:0:
232,148,116408,1,0,0:0:0:0:
232,148,116515,1,8,0:0:0:0:
232,148,116729,1,0,0:0:0:0:
232,148,116837,1,8,0:0:0:0:
204,148,116944,1,8,0:0:0:0:
232,148,117051,1,0,0:0:0:0:
232,148,117372,1,8,0:0:0:0:
232,148,117694,1,8,0:0:0:0:
200,212,117908,1,8,0:0:0:0:
232,148,118122,1,0,0:0:0:0:
220,172,118229,1,8,0:0:0:0:
220,172,118444,1,0,0:0:0:0:
220,172,118551,1,8,0:0:0:0:
196,152,118658,1,8,0:0:0:0:
220,172,118765,1,0,0:0:0:0:
220,172,119087,1,8,0:0:0:0:
220,172,119408,1,8,0:0:0:0:
148,136,119622,1,12,0:0:0:0:
180,152,119944,1,0,0:0:0:0:
180,152,120265,1,0,0:0:0:0:
180,152,120479,1,0,0:0:0:0:
180,152,120801,1,0,0:0:0:0:
180,152,121122,1,0,0:0:0:0:
180,152,121337,1,8,0:0:0:0:
180,152,121658,1,8,0:0:0:0:
180,152,121979,1,8,0:0:0:0:
180,152,122194,1,0,0:0:0:0:
180,152,122515,1,0,0:0:0:0:
180,152,122837,1,0,0:0:0:0:
180,152,123051,1,8,0:0:0:0:
224,192,123265,1,0,0:0:0:0:
240,208,123372,1,8,0:0:0:0:
272,240,123587,1,0,0:0:0:0:
288,252,123694,1,8,0:0:0:0:
256,224,123801,1,8,0:0:0:0:
304,268,123908,1,0,0:0:0:0:
320,196,124122,1,0,0:0:0:0:
332,152,124229,1,8,0:0:0:0:
344,100,124337,1,0,0:0:0:0:
344,100,124551,1,8,0:0:0:0:
288,148,124765,1,8,0:0:0:0:
236,188,124979,1,0,0:0:0:0:
212,208,125087,1,8,0:0:0:0:
188,228,125194,1,8,0:0:0:0:
164,252,125301,1,0,0:0:0:0:
164,252,125408,1,8,0:0:0:0:
164,252,125515,1,0,0:0:0:0:
164,252,125622,1,8,0:0:0:0:
204,188,125837,1,0,0:0:0:0:
164,252,125944,1,8,0:0:0:0:
164,252,126051,1,0,0:0:0:0:
180,216,126158,1,0,0:0:0:0:
164,252,126265,1,8,0:0:0:0:
144,172,126479,1,12,0:0:0:0:
220,192,126694,1,0,0:0:0:0:
260,204,126801,1,0,0:0:0:0:
300,216,126908,1,8,0:0:0:0:
376,236,127122,1,8,0:0:0:0:
340,224,127337,1,8,0:0:0:0:
340,224,127551,1,0,0:0:0:0:
340,224,127765,1,8,0:0:0:0:
340,224,127979,1,0,0:0:0:0:
340,224,128087,1,0,0:0:0:0:
340,224,128194,1,8,0:0:0:0:
340,224,128408,1,0,0:0:0:0:
340,224,128515,1,8,0:0:0:0:
340,224,128729,1,8,0:0:0:0:
340,224,128837,1,0,0:0:0:0:
280,248,129051,5,8,0:0:0:0:
280,248,129158,1,8,0:0:0:0:
280,248,129265,1,0,0:0:0:0:
280,248,129372,1,0,0:0:0:0:
280,248,129479,1,8,0:0:0:0:
280,248,129694,1,0,0:0:0:0:
280,248,129908,1,8,0:0:0:0:
304,232,130015,1,0,0:0:0:0:
324,216,130122,1,0,0:0:0:0:
324,216,130229,1,8,0:0:0:0:
324,216,130444,1,0,0:0:0:0:
324,216,130551,1,8,0:0:0:0:
324,216,130765,1,8,0:0:0:0:
324,216,130872,1,8,0:0:0:0:
324,216,130979,1,0,0:0:0:0:
324,216,131087,1,8,0:0:0:0:
324,216,131301,1,0,0:0:0:0:
324,216,131408,1,8,0:0:0:0:
324,216,131622,1,8,0:0:0:0:
324,216,131729,1,8,0:0:0:0:
324,216,131837,1,0,0:0:0:0:
324,216,131944,1,8,0:0:0:0:
324,216,132051,1,0,0:0:0:0:
324,216,132158,1,0,0:0:0:0:
324,216,132265,1,8,0:0:0:0:
324,216,132479,1,8,0:0:0:0:
244,188,132694,1,0,0:0:0:0:
168,164,132908,1,8,0:0:0:0:
148,120,133015,1,0,0:0:0:0:
168,164,133122,1,8,0:0:0:0:
152,128,133229,1,0,0:0:0:0:
164,156,133337,1,8,0:0:0:0:
192,228,133551,1,0,0:0:0:0:
192,228,133658,1,8,0:0:0:0:
192,228,133765,1,0,0:0:0:0:
192,228,133979,1,8,0:0:0:0:
192,228,134194,1,8,0:0:0:0:
192,228,134408,1,0,0:0:0:0:
192,228,134515,1,0,0:0:0:0:
192,228,134622,1,8,0:0:0:0:
152,160,134837,1,0,0:0:0:0:
152,160,134944,1,8,0:0:0:0:
152,160,135051,1,0,0:0:0:0:
156,236,135265,1,0,0:0:0:0:
152,204,135372,1,8,0:0:0:0:
152,204,135587,1,8,0:0:0:0:
152,204,135694,1,0,0:0:0:0:
152,204,135908,1,8,0:0:0:0:
152,204,136015,1,8,0:0:0:0:
152,204,136122,1,0,0:0:0:0:
152,204,136229,1,0,0:0:0:0:
152,204,136337,1,8,0:0:0:0:
152,204,136551,1,0,0:0:0:0:
152,204,136765,1,8,0:0:0:0:
188,208,136872,1,0,0:0:0:0:
216,212,136979,1,0,0:0:0:0:
216,212,137087,1,8,0:0:0:0:
236,180,137194,1,0,0:0:0:0:
216,212,137301,1,0,0:0:0:0:
216,212,137408,1,8,0:0:0:0:
216,212,137622,1,8,0:0:0:0:
216,212,137729,1,8,0:0:0:0:
216,212,137837,1,0,0:0:0:0:
216,212,137944,1,8,0:0:0:0:
236,184,138051,1,0,0:0:0:0:
216,212,138158,1,0,0:0:0:0:
216,212,138265,1,8,0:0:0:0:
240,140,138479,1,12,0:0:0:0:
216,212,138908,1,0,0:0:0:0:
216,212,139337,1,8,0:0:0:0:
216,212,139551,1,0,0:0:0:0:
216,212,139765,1,4,0:0:0:0:
144,88,140194,1,12,0:0:0:0:
208,128,140408,1,0,0:0:0:0:
244,152,140515,1,8,0:0:0:0:
168,164,140729,1,0,0:0:0:0:
312,196,140837,1,0,0:0:0:0:
280,168,141051,1,0,0:0:0:0:
344,216,141158,1,8,0:0:0:0:
232,168,141479,1,8,0:0:0:0:
160,132,141694,1,0,0:0:0:0:
232,168,141908,1,8,0:0:0:0:
212,148,142015,1,8,0:0:0:0:
188,124,142122,1,0,0:0:0:0:
160,96,142229,1,8,0:0:0:0:
224,128,142444,1,0,0:0:0:0:
252,140,142551,1,8,0:0:0:0:
160,152,142765,1,0,0:0:0:0:
204,148,142872,1,0,0:0:0:0:
204,148,143087,1,0,0:0:0:0:
204,148,143194,1,8,0:0:0:0:
264,188,143408,1,0,0:0:0:0:
336,232,143622,1,8,0:0:0:0:
372,256,143729,1,8,0:0:0:0:
396,276,143837,1,0,0:0:0:0:
384,256,143944,1,8,0:0:0:0:
340,196,144158,1,0,0:0:0:0:
320,172,144265,1,8,0:0:0:0:
280,112,144479,1,0,0:0:0:0:
264,88,144587,1,8,0:0:0:0:
264,88,144908,1,8,0:0:0:0:
248,164,145122,1,0,0:0:0:0:
232,232,145337,1,8,0:0:0:0:
216,188,145444,1,0,0:0:0:0:
240,320,145551,1,0,0:0:0:0:
236,272,145658,1,8,0:0:0:0:
236,272,145872,1,0,0:0:0:0:
236,272,145979,1,8,0:0:0:0:
236,272,146194,1,8,0:0:0:0:
204,352,146408,5,8,0:0:0:0:
236,272,146515,1,0,0:0:0:0:
236,272,146622,1,8,0:0:0:0:
176,232,146837,1,0,0:0:0:0:
176,232,147051,1,8,0:0:0:0:
208,128,147265,1,0,0:0:0:0:
244,152,147372,1,8,0:0:0:0:
168,164,147587,1,0,0:0:0:0:
312,196,147694,1,0,0:0:0:0:
280,168,147908,1,0,0:0:0:0:
344,216,148015,1,8,0:0:0:0:
232,168,148337,1,8,0:0:0:0:
160,132,148551,1,0,0:0:0:0:
232,168,148765,1,8,0:0:0:0:
212,148,148872,1,8,0:0:0:0:
188,124,148979,1,0,0:0:0:0:
160,96,149087,1,8,0:0:0:0:
224,128,149301,1,0,0:0:0:0:
252,140,149408,1,8,0:0:0:0:
160,152,149622,1,0,0:0:0:0:
204,148,149729,1,0,0:0:0:0:
204,148,149944,1,0,0:0:0:0:
204,148,150051,1,8,0:0:0:0:
264,188,150265,1,0,0:0:0:0:
336,232,150479,1,8,0:0:0:0:
372,256,150587,1,8,0:0:0:0:
396,276,150694,1,0,0:0:0:0:
384,256,150801,1,8,0:0:0:0:
312,232,151015,1,0,0:0:0:0:
320,172,151122,1,8,0:0:0:0:
128,80,151229,1,0,0:0:0:0:
280,112,151337,1,0,0:0:0:0:
264,88,151444,1,8,0:0:0:0:
184,96,151658,1,0,0:0:0:0:
264,88,151765,1,8,0:0:0:0:
248,164,151979,1,8,0:0:0:0:
232,232,152194,1,8,0:0:0:0:
228,196,152301,1,0,0:0:0:0:
240,320,152408,1,0,0:0:0:0:
236,272,152515,1,8,0:0:0:0:
232,240,152622,1,0,0:0:0:0:
236,272,152729,1,0,0:0:0:0:
236,272,152837,1,8,0:0:0:0:
236,272,153051,1,0,0:0:0:0:
144,156,153158,1,0,0:0:0:0:
204,352,153265,5,8,0:0:0:0:
236,272,153372,1,0,0:0:0:0:
236,272,153479,1,8,0:0:0:0:
176,232,153694,1,0,0:0:0:0:
144,156,153908,1,12,0:0:0:0:
308,160,154337,1,8,0:0:0:0:
388,164,154551,1,0,0:0:0:0:
460,164,154765,1,0,0:0:0:0:
336,164,155087,1,8,0:0:0:0:
452,164,155408,1,0,0:0:0:0:
380,164,155622,1,8,0:0:0:0:
500,164,155944,1,0,0:0:0:0:
392,164,156265,1,8,0:0:0:0:
428,164,156694,1,0,0:0:0:0:
428,164,156908,1,8,0:0:0:0:
428,164,157122,1,8,0:0:0:0:
352,192,157337,1,0,0:0:0:0:
272,224,157551,1,0,0:0:0:0:
196,252,157765,1,8,0:0:0:0:
196,252,157979,1,0,0:0:0:0:
196,252,158194,1,8,0:0:0:0:
196,252,158408,1,8,0:0:0:0:
196,252,158622,1,0,0:0:0:0:
196,252,158837,1,0,0:0:0:0:
196,252,159051,1,8,0:0:0:0:
196,252,159265,1,0,0:0:0:0:
196,252,159479,1,8,0:0:0:0:
196,252,159694,1,8,0:0:0:0:
196,252,159908,1,0,0:0:0:0:
196,252,160337,1,8,0:0:0:0:
196,252,160765,1,0,0:0:0:0:
292,148,161194,1,8,0:0:0:0:
244,200,161408,1,0,0:0:0:0:
244,200,161622,1,0,0:0:0:0:
244,200,161944,1,8,0:0:0:0:
244,200,162265,1,0,0:0:0:0:
244,200,162479,1,8,0:0:0:0:
244,200,162801,1,0,0:0:0:0:
244,200,163122,1,8,0:0:0:0:
244,200,163551,1,0,0:0:0:0:
244,200,163765,1,8,0:0:0:0:
240,136,163979,1,8,0:0:0:0:
308,136,164194,1,8,0:0:0:0:
376,136,164408,1,0,0:0:0:0:
412,136,164515,1,0,0:0:0:0:
412,136,164622,1,8,0:0:0:0:
412,136,164837,1,0,0:0:0:0:
412,136,165051,1,8,0:0:0:0:
412,136,165158,1,8,0:0:0:0:
384,148,165265,1,0,0:0:0:0:
320,180,165479,1,8,0:0:0:0:
260,208,165694,1,0,0:0:0:0:
260,208,165908,1,8,0:0:0:0:
316,164,166122,1,0,0:0:0:0:
340,144,166229,1,0,0:0:0:0:
384,112,166337,1,8,0:0:0:0:
340,144,166551,1,0,0:0:0:0:
340,144,166658,1,0,0:0:0:0:
340,144,166765,1,8,0:0:0:0:
340,144,166979,1,0,0:0:0:0:
340,144,167087,1,0,0:0:0:0:
340,144,167194,1,8,0:0:0:0:
340,144,167408,1,0,0:0:0:0:
340,144,167622,1,12,0:0:0:0:
252,228,167944,1,8,0:0:0:0:
372,252,168265,1,8,0:0:0:0:
448,268,168479,1,0,0:0:0:0:
508,280,168801,1,0,0:0:0:0:
508,280,169122,1,0,0:0:0:0:
444,256,169337,1,8,0:0:0:0:
336,216,169658,1,8,0:0:0:0:
336,216,169979,1,8,0:0:0:0:
336,216,170194,1,0,0:0:0:0:
336,216,170515,1,0,0:0:0:0:
336,216,170837,1,0,0:0:0:0:
336,216,171051,1,8,0:0:0:0:
264,200,171265,1,0,0:0:0:0:
336,216,171372,1,8,0:0:0:0:
264,200,171587,1,0,0:0:0:0:
336,216,171694,1,8,0:0:0:0:
336,216,171908,1,0,0:0:0:0:
336,216,172229,1,0,0:0:0:0:
336,216,172551,1,0,0:0:0:0:
336,216,172765,1,8,0:0:0:0:
272,200,172979,1,0,0:0:0:0:
336,216,173087,1,8,0:0:0:0:
276,204,173301,1,0,0:0:0:0:
336,216,173408,1,8,0:0:0:0:
336,216,173622,1,0,0:0:0:0:
336,216,173944,1,0,0:0:0:0:
336,216,174265,1,0,0:0:0:0:
272,200,174479,1,8,0:0:0:0:
272,200,174694,1,0,0:0:0:0:
272,200,174801,1,8,0:0:0:0:
272,200,175015,1,0,0:0:0:0:
272,200,175122,1,8,0:0:0:0:
236,192,175229,1,8,0:0:0:0:
272,200,175337,1,0,0:0:0:0:
272,200,175658,1,0,0:0:0:0:
272,200,175979,1,0,0:0:0:0:
272,200,176194,1,8,0:0:0:0:
272,200,176408,1,0,0:0:0:0:
272,200,176515,1,8,0:0:0:0:
272,200,176729,1,0,0:0:0:0:
272,200,176837,1,8,0:0:0:0:
248,196,176944,1,8,0:0:0:0:
272,200,177051,1,0,0:0:0:0:
272,200,177372,1,0,0:0:0:0:
272,200,177694,1,0,0:0:0:0:
272,200,177908,1,8,0:0:0:0:
272,200,178122,1,0,0:0:0:0:
272,200,178229,1,8,0:0:0:0:
272,200,178444,1,0,0:0:0:0:
272,200,178551,1,8,0:0:0:0:
244,188,178658,1,8,0:0:0:0:
272,200,178765,1,0,0:0:0:0:
272,200,179087,1,8,0:0:0:0:
236,196,179194,1,0,0:0:0:0:
272,200,179408,1,8,0:0:0:0:
272,200,179622,1,8,0:0:0:0:
236,148,179837,1,0,0:0:0:0:
252,172,179944,1,8,0:0:0:0:
252,172,180158,1,0,0:0:0:0:
252,172,180265,1,8,0:0:0:0:
252,172,180372,1,8,0:0:0:0:
252,172,180479,1,0,0:0:0:0:
176,148,180694,1,0,0:0:0:0:
252,172,180801,1,8,0:0:0:0:
216,184,180908,1,0,0:0:0:0:
252,172,181122,1,8,0:0:0:0:
224,100,181337,1,12,0:0:0:0:
176,232,181765,1,0,0:0:0:0:
152,296,181979,1,0,0:0:0:0:
128,360,182194,1,0,0:0:0:0:
180,220,182622,1,0,0:0:0:0:
128,364,183051,1,0,0:0:0:0:
176,224,183479,1,0,0:0:0:0:
152,288,183694,1,8,0:0:0:0:
136,352,183908,1,0,0:0:0:0:
152,288,184122,1,8,0:0:0:0:
176,224,184229,1,0,0:0:0:0:
176,224,184551,1,8,0:0:0:0:
176,224,184765,1,0,0:0:0:0:
176,224,185194,1,0,0:0:0:0:
176,224,185408,1,0,0:0:0:0:
176,224,185622,1,0,0:0:0:0:
176,224,186051,1,0,0:0:0:0:
176,224,186479,1,0,0:0:0:0:
176,224,186908,1,0,0:0:0:0:
176,224,187122,1,8,0:0:0:0:
176,224,187337,1,8,0:0:0:0:
176,224,187551,1,8,0:0:0:0:
176,224,187658,1,0,0:0:0:0:
176,224,187979,1,0,0:0:0:0:
176,224,188194,1,8,0:0:0:0:
176,224,188622,1,0,0:0:0:0:
176,224,188837,1,0,0:0:0:0:
176,224,189051,1,0,0:0:0:0:
176,224,189479,1,0,0:0:0:0:
176,224,189908,1,0,0:0:0:0:
176,224,190337,1,0,0:0:0:0:
176,224,190551,1,8,0:0:0:0:
176,224,190765,1,8,0:0:0:0:
176,224,190979,1,8,0:0:0:0:
176,224,191087,1,8,0:0:0:0:
176,224,191408,1,0,0:0:0:0:
176,224,191622,1,8,0:0:0:0:
176,224,192051,1,0,0:0:0:0:
176,224,192265,1,0,0:0:0:0:
176,224,192479,1,0,0:0:0:0:
176,224,192908,1,0,0:0:0:0:
176,224,193337,1,0,0:0:0:0:
284,120,193765,1,0,0:0:0:0:
228,176,193979,1,8,0:0:0:0:
228,176,194194,1,0,0:0:0:0:
228,176,194408,1,8,0:0:0:0:
228,176,194515,1,0,0:0:0:0:
228,176,194837,1,0,0:0:0:0:
228,176,195051,1,12,0:0:0:0:
220,204,195265,1,0,0:0:0:0:
220,204,195372,1,8,0:0:0:0:
220,204,195587,1,0,0:0:0:0:
220,204,195694,1,8,0:0:0:0:
220,204,195908,1,8,0:0:0:0:
220,204,196229,1,8,0:0:0:0:
324,256,196551,1,8,0:0:0:0:
260,224,196765,1,8,0:0:0:0:
196,192,196979,1,0,0:0:0:0:
224,208,197087,1,8,0:0:0:0:
224,208,197301,1,0,0:0:0:0:
224,208,197408,1,8,0:0:0:0:
232,148,197622,1,8,0:0:0:0:
232,148,197944,1,8,0:0:0:0:
232,148,198265,1,8,0:0:0:0:
232,148,198479,1,8,0:0:0:0:
232,148,198694,1,0,0:0:0:0:
232,148,198801,1,8,0:0:0:0:
232,148,199015,1,0,0:0:0:0:
232,148,199122,1,8,0:0:0:0:
204,148,199229,1,8,0:0:0:0:
232,148,199337,1,0,0:0:0:0:
232,148,199658,1,8,0:0:0:0:
232,148,199979,1,8,0:0:0:0:
200,212,200194,1,8,0:0:0:0:
232,148,200408,1,0,0:0:0:0:
220,172,200515,1,8,0:0:0:0:
220,172,200729,1,0,0:0:0:0:
220,172,200837,1,8,0:0:0:0:
196,152,200944,1,8,0:0:0:0:
220,172,201051,1,0,0:0:0:0:
220,172,201372,1,8,0:0:0:0:
220,172,201694,1,8,0:0:0:0:
148,136,201908,1,12,0:0:0:0:
224,172,202122,1,0,0:0:0:0:
180,152,202229,1,8,0:0:0:0:
180,152,202444,1,0,0:0:0:0:
180,152,202551,1,8,0:0:0:0:
180,152,202765,1,0,0:0:0:0:
180,152,203087,1,0,0:0:0:0:
160,160,203194,1,0,0:0:0:0:
180,152,203408,1,0,0:0:0:0:
180,152,203622,1,8,0:0:0:0:
180,152,203837,1,0,0:0:0:0:
180,152,203944,1,8,0:0:0:0:
180,152,204158,1,0,0:0:0:0:
180,152,204265,1,8,0:0:0:0:
180,152,204479,1,0,0:0:0:0:
180,152,204801,1,0,0:0:0:0:
148,128,204908,1,0,0:0:0:0:
180,152,205122,1,0,0:0:0:0:
180,152,205337,1,12,0:0:0:0:
224,192,205551,1,0,0:0:0:0:
240,208,205658,1,8,0:0:0:0:
272,240,205872,1,0,0:0:0:0:
288,252,205979,1,8,0:0:0:0:
256,224,206087,1,8,0:0:0:0:
304,268,206194,1,0,0:0:0:0:
320,196,206408,1,0,0:0:0:0:
332,152,206515,1,8,0:0:0:0:
344,100,206622,1,0,0:0:0:0:
344,100,206837,1,8,0:0:0:0:
288,148,207051,1,8,0:0:0:0:
236,188,207265,1,0,0:0:0:0:
212,208,207372,1,8,0:0:0:0:
188,228,207479,1,8,0:0:0:0:
164,252,207587,1,0,0:0:0:0:
164,252,207694,1,8,0:0:0:0:
164,252,207801,1,0,0:0:0:0:
164,252,207908,1,8,0:0:0:0:
164,252,208122,1,0,0:0:0:0:
164,252,208229,1,8,0:0:0:0:
164,252,208337,1,0,0:0:0:0:
132,220,208444,1,0,0:0:0:0:
164,252,208551,1,8,0:0:0:0:
168,192,208765,1,12,0:0:0:0:
220,192,208979,1,0,0:0:0:0:
260,204,209087,1,0,0:0:0:0:
300,216,209194,1,8,0:0:0:0:
376,236,209408,1,8,0:0:0:0:
340,224,209515,1,0,0:0:0:0:
340,224,209622,1,8,0:0:0:0:
340,224,209837,1,0,0:0:0:0:
340,224,210051,1,8,0:0:0:0:
340,224,210265,1,0,0:0:0:0:
340,224,210372,1,0,0:0:0:0:
340,224,210479,1,8,0:0:0:0:
340,224,210694,1,0,0:0:0:0:
340,224,210801,1,8,0:0:0:0:
340,224,211015,1,8,0:0:0:0:
340,224,211122,1,0,0:0:0:0:
280,248,211337,5,8,0:0:0:0:
280,248,211444,1,8,0:0:0:0:
280,248,211551,1,0,0:0:0:0:
280,248,211658,1,0,0:0:0:0:
280,248,211765,1,8,0:0:0:0:
256,232,211872,1,0,0:0:0:0:
280,248,211979,1,0,0:0:0:0:
280,248,212194,1,8,0:0:0:0:
304,232,212301,1,0,0:0:0:0:
324,216,212408,1,0,0:0:0:0:
324,216,212515,1,8,0:0:0:0:
324,216,212729,1,0,0:0:0:0:
324,216,212837,1,8,0:0:0:0:
324,216,213051,1,8,0:0:0:0:
324,216,213158,1,8,0:0:0:0:
324,216,213265,1,0,0:0:0:0:
324,216,213372,1,8,0:0:0:0:
324,216,213587,1,0,0:0:0:0:
324,216,213694,1,8,0:0:0:0:
324,216,213908,1,8,0:0:0:0:
324,216,214015,1,8,0:0:0:0:
324,216,214122,1,0,0:0:0:0:
324,216,214229,1,8,0:0:0:0:
324,216,214337,1,0,0:0:0:0:
324,216,214444,1,0,0:0:0:0:
324,216,214551,1,8,0:0:0:0:
324,216,214765,1,8,0:0:0:0:
244,188,214979,1,0,0:0:0:0:
168,164,215194,1,8,0:0:0:0:
148,120,215301,1,0,0:0:0:0:
168,164,215408,1,8,0:0:0:0:
152,128,215515,1,0,0:0:0:0:
164,156,215622,1,8,0:0:0:0:
192,228,215837,1,0,0:0:0:0:
192,228,215944,1,8,0:0:0:0:
192,228,216051,1,0,0:0:0:0:
192,228,216265,1,8,0:0:0:0:
224,204,216372,1,0,0:0:0:0:
192,228,216479,1,8,0:0:0:0:
192,228,216694,1,0,0:0:0:0:
192,228,216908,1,8,0:0:0:0:
152,160,217122,1,0,0:0:0:0:
152,160,217229,1,8,0:0:0:0:
152,160,217337,1,0,0:0:0:0:
156,236,217551,1,0,0:0:0:0:
152,204,217658,1,8,0:0:0:0:
152,204,217872,1,8,0:0:0:0:
152,204,217979,1,0,0:0:0:0:
152,204,218194,1,8,0:0:0:0:
152,204,218301,1,8,0:0:0:0:
152,204,218408,1,0,0:0:0:0:
152,204,218515,1,0,0:0:0:0:
152,204,218622,1,8,0:0:0:0:
216,212,218729,1,0,0:0:0:0:
152,204,218837,1,0,0:0:0:0:
152,204,219051,1,8,0:0:0:0:
188,208,219158,1,0,0:0:0:0:
216,212,219265,1,0,0:0:0:0:
216,212,219372,1,8,0:0:0:0:
236,180,219479,1,0,0:0:0:0:
216,212,219587,1,0,0:0:0:0:
216,212,219694,1,8,0:0:0:0:
216,212,219908,1,8,0:0:0:0:
216,212,220015,1,8,0:0:0:0:
216,212,220122,1,0,0:0:0:0:
216,212,220229,1,8,0:0:0:0:
236,184,220337,1,0,0:0:0:0:
216,212,220444,1,0,0:0:0:0:
216,212,220551,1,8,0:0:0:0:
240,140,220765,1,12,0:0:0:0:
216,212,221194,1,0,0:0:0:0:
216,212,221622,1,8,0:0:0:0:
216,212,221837,1,0,0:0:0:0:
216,212,222051,1,4,0:0:0:0:
144,88,222479,1,12,0:0:0:0:
208,128,222694,1,0,0:0:0:0:
244,152,222801,1,8,0:0:0:0:
168,164,223015,1,0,0:0:0:0:
312,196,223122,1,0,0:0:0:0:
280,168,223337,1,0,0:0:0:0:
344,216,223444,1,8,0:0:0:0:
232,168,223765,1,8,0:0:0:0:
160,132,223979,1,0,0:0:0:0:
232,168,224194,1,8,0:0:0:0:
212,148,224301,1,8,0:0:0:0:
188,124,224408,1,0,0:0:0:0:
160,96,224515,1,8,0:0:0:0:
224,128,224729,1,0,0:0:0:0:
252,140,224837,1,8,0:0:0:0:
160,152,225051,1,0,0:0:0:0:
204,148,225158,1,0,0:0:0:0:
204,148,225372,1,0,0:0:0:0:
204,148,225479,1,8,0:0:0:0:
264,188,225694,1,0,0:0:0:0:
336,232,225908,1,8,0:0:0:0:
372,256,226015,1,8,0:0:0:0:
396,276,226122,1,0,0:0:0:0:
384,256,226229,1,8,0:0:0:0:
340,196,226444,1,0,0:0:0:0:
320,172,226551,1,8,0:0:0:0:
280,112,226765,1,0,0:0:0:0:
264,88,226872,1,8,0:0:0:0:
264,88,227194,1,8,0:0:0:0:
248,164,227408,1,0,0:0:0:0:
232,232,227622,1,8,0:0:0:0:
224,196,227729,1,0,0:0:0:0:
240,320,227837,1,0,0:0:0:0:
236,272,227944,1,8,0:0:0:0:
236,272,228158,1,0,0:0:0:0:
236,272,228265,1,8,0:0:0:0:
236,272,228479,1,8,0:0:0:0:
204,352,228694,5,8,0:0:0:0:
236,272,228801,1,0,0:0:0:0:
236,272,228908,1,8,0:0:0:0:
176,232,229122,1,0,0:0:0:0:
176,232,229337,1,8,0:0:0:0:
208,128,229551,1,0,0:0:0:0:
244,152,229658,1,8,0:0:0:0:
168,164,229872,1,0,0:0:0:0:
312,196,229979,1,0,0:0:0:0:
280,168,230194,1,0,0:0:0:0:
344,216,230301,1,8,0:0:0:0:
232,168,230622,1,8,0:0:0:0:
160,132,230837,1,0,0:0:0:0:
232,168,231051,1,8,0:0:0:0:
212,148,231158,1,8,0:0:0:0:
188,124,231265,1,0,0:0:0:0:
160,96,231372,1,8,0:0:0:0:
224,128,231587,1,0,0:0:0:0:
252,140,231694,1,8,0:0:0:0:
160,152,231908,1,0,0:0:0:0:
204,148,232015,1,0,0:0:0:0:
204,148,232229,1,0,0:0:0:0:
204,148,232337,1,8,0:0:0:0:
264,188,232551,1,0,0:0:0:0:
336,232,232765,1,8,0:0:0:0:
372,256,232872,1,8,0:0:0:0:
396,276,232979,1,0,0:0:0:0:
384,256,233087,1,8,0:0:0:0:
336,232,233301,1,0,0:0:0:0:
320,172,233408,1,8,0:0:0:0:
340,196,233515,1,0,0:0:0:0:
280,112,233622,1,0,0:0:0:0:
264,88,233729,1,8,0:0:0:0:
336,232,233944,1,0,0:0:0:0:
264,88,234051,1,8,0:0:0:0:
248,164,234265,1,8,0:0:0:0:
232,232,234479,1,8,0:0:0:0:
228,196,234587,1,0,0:0:0:0:
240,320,234694,1,0,0:0:0:0:
236,272,234801,1,8,0:0:0:0:
232,240,234908,1,0,0:0:0:0:
236,272,235015,1,0,0:0:0:0:
236,272,235122,1,8,0:0:0:0:
236,272,235337,1,0,0:0:0:0:
144,156,235444,1,0,0:0:0:0:
204,352,235551,5,8,0:0:0:0:
236,272,235658,1,0,0:0:0:0:
236,272,235765,1,8,0:0:0:0:
176,232,235979,1,0,0:0:0:0:
148,160,236194,1,12,0:0:0:0:
308,160,236622,1,8,0:0:0:0:
388,164,236837,1,0,0:0:0:0:
460,164,237051,1,0,0:0:0:0:
336,164,237372,1,8,0:0:0:0:
452,164,237694,1,0,0:0:0:0:
380,164,237908,1,8,0:0:0:0:
500,164,238229,1,0,0:0:0:0:
392,164,238551,1,8,0:0:0:0:
428,164,238979,1,0,0:0:0:0:
428,164,239194,1,8,0:0:0:0:
428,164,239408,1,8,0:0:0:0:
352,192,239622,1,0,0:0:0:0:
272,224,239837,1,0,0:0:0:0:
196,252,240051,1,8,0:0:0:0:
196,252,240265,1,0,0:0:0:0:
196,252,240479,1,8,0:0:0:0:
196,252,240694,1,8,0:0:0:0:
196,252,240908,1,0,0:0:0:0:
196,252,241122,1,0,0:0:0:0:
196,252,241337,1,8,0:0:0:0:
196,252,241551,1,0,0:0:0:0:
196,252,241765,1,8,0:0:0:0:
196,252,241979,1,8,0:0:0:0:
196,252,242194,1,0,0:0:0:0:
196,252,242622,1,8,0:0:0:0:
196,252,243051,1,0,0:0:0:0:
292,148,243479,1,8,0:0:0:0:
244,200,243694,1,0,0:0:0:0:
244,200,243908,1,0,0:0:0:0:
244,200,244229,1,8,0:0:0:0:
244,200,244551,1,0,0:0:0:0:
244,200,244765,1,8,0:0:0:0:
244,200,245087,1,0,0:0:0:0:
244,200,245408,1,8,0:0:0:0:
244,200,245837,1,0,0:0:0:0:
244,200,246051,1,8,0:0:0:0:
240,136,246265,1,8,0:0:0:0:
308,136,246479,1,8,0:0:0:0:
376,136,246694,1,0,0:0:0:0:
412,136,246801,1,0,0:0:0:0:
412,136,246908,1,8,0:0:0:0:
412,136,247122,1,0,0:0:0:0:
412,136,247337,1,8,0:0:0:0:
412,136,247444,1,8,0:0:0:0:
384,148,247551,1,0,0:0:0:0:
348,152,247658,1,0,0:0:0:0:
320,180,247765,1,8,0:0:0:0:
260,208,247979,1,0,0:0:0:0:
260,208,248194,1,8,0:0:0:0:
316,164,248408,1,0,0:0:0:0:
340,144,248515,1,0,0:0:0:0:
384,112,248622,1,8,0:0:0:0:
340,144,248837,1,0,0:0:0:0:
340,144,248944,1,0,0:0:0:0:
340,144,249051,1,8,0:0:0:0:
340,144,249265,1,0,0:0:0:0:
340,144,249372,1,0,0:0:0:0:
340,144,249479,1,8,0:0:0:0:
340,144,249587,1,8,0:0:0:0:
340,144,249694,1,0,0:0:0:0:
260,172,249908,1,12,0:0:0:0:
268,240,250337,1,0,0:0:0:0:
152,284,250765,1,8,0:0:0:0:
268,240,251194,1,0,0:0:0:0:
152,284,251622,1,8,0:0:0:0:
272,236,252051,1,8,0:0:0:0:
156,284,252479,1,0,0:0:0:0:
280,232,252908,1,0,0:0:0:0:
160,284,253337,1,8,0:0:0:0:
284,232,253765,1,8,0:0:0:0:
168,276,254194,1,0,0:0:0:0:
288,232,254622,1,8,0:0:0:0:
172,276,255051,1,8,0:0:0:0:
296,228,255479,1,0,0:0:0:0:
184,272,255908,1,8,0:0:0:0:
428,176,256765,1,8,0:0:0:0:
196,268,257622,1,0,0:0:0:0:
200,264,258479,1,8,0:0:0:0:
244,120,259337,1,8,0:0:0:0:
244,120,260194,1,8,0:0:0:0:
208,244,261051,1,0,0:0:0:0:
212,244,261908,1,8,0:0:0:0:
216,244,262765,1,0,0:0:0:0:
188,248,263622,1,8,0:0:0:0:
188,248,264051,1,0,0:0:0:0:
132,220,264265,1,0,0:0:0:0:
188,248,264479,1,8,0:0:0:0:
188,248,264908,1,0,0:0:0:0:
188,248,265337,1,8,0:0:0:0:
188,248,265765,1,8,0:0:0:0:
140,224,265979,1,0,0:0:0:0:
188,248,266194,1,8,0:0:0:0:
304,184,266622,1,0,0:0:0:0:
172,204,267051,5,8,0:0:0:0:
296,188,267479,1,8,0:0:0:0:
244,204,267694,1,8,0:0:0:0:
176,204,267908,1,0,0:0:0:0:
332,184,268337,1,0,0:0:0:0:
168,204,268765,1,8,0:0:0:0:
128,260,268979,1,0,0:0:0:0:
296,188,269194,1,8,0:0:0:0:
168,204,269622,1,8,0:0:0:0:
152,228,270479,1,8,0:0:0:0:
152,228,270908,1,8,0:0:0:0:
152,228,271122,1,8,0:0:0:0:
152,228,271337,1,0,0:0:0:0:
184,180,271551,1,0,0:0:0:0:
152,228,271765,1,8,0:0:0:0:
152,228,271979,1,0,0:0:0:0:
152,228,272194,1,8,0:0:0:0:
152,228,272408,1,0,0:0:0:0:
152,228,272622,1,8,0:0:0:0:
152,228,273051,1,0,0:0:0:0:
152,228,273265,1,8,0:0:0:0:
152,228,273479,1,0,0:0:0:0:
152,164,273694,1,0,0:0:0:0:
152,228,273908,1,8,0:0:0:0:
152,228,274122,1,0,0:0:0:0:
152,228,274337,1,8,0:0:0:0:
152,228,274551,1,0,0:0:0:0:
172,228,274658,1,0,0:0:0:0:
152,228,274765,1,8,0:0:0:0:
152,228,274979,1,0,0:0:0:0:
152,228,275194,1,8,0:0:0:0:
152,228,275408,1,8,0:0:0:0:
152,228,275622,1,12,0:0:0:0:
152,168,277337,1,12,0:0:0:0:
220,204,277551,1,0,0:0:0:0:
220,204,277658,1,8,0:0:0:0:
220,204,277872,1,0,0:0:0:0:
220,204,277979,1,8,0:0:0:0:
220,204,278194,1,8,0:0:0:0:
220,204,278515,1,8,0:0:0:0:
324,256,278837,1,8,0:0:0:0:
260,224,279051,1,8,0:0:0:0:
196,192,279265,1,0,0:0:0:0:
224,208,279372,1,8,0:0:0:0:
224,208,279587,1,0,0:0:0:0:
224,208,279694,1,8,0:0:0:0:
232,148,279908,1,8,0:0:0:0:
232,148,280229,1,8,0:0:0:0:
232,148,280551,1,8,0:0:0:0:
232,148,280765,1,8,0:0:0:0:
232,148,280979,1,0,0:0:0:0:
232,148,281087,1,8,0:0:0:0:
232,148,281301,1,0,0:0:0:0:
232,148,281408,1,8,0:0:0:0:
204,148,281515,1,8,0:0:0:0:
232,148,281622,1,0,0:0:0:0:
232,148,281944,1,8,0:0:0:0:
232,148,282265,1,8,0:0:0:0:
200,212,282479,1,8,0:0:0:0:
232,148,282694,1,0,0:0:0:0:
220,172,282801,1,8,0:0:0:0:
220,172,283015,1,0,0:0:0:0:
220,172,283122,1,8,0:0:0:0:
196,152,283229,1,8,0:0:0:0:
220,172,283337,1,0,0:0:0:0:
220,172,283658,1,8,0:0:0:0:
220,172,283979,1,8,0:0:0:0:
148,136,284194,1,12,0:0:0:0:
224,172,284408,1,0,0:0:0:0:
180,152,284515,1,8,0:0:0:0:
180,152,284729,1,0,0:0:0:0:
180,152,284837,1,8,0:0:0:0:
180,152,285051,1,0,0:0:0:0:
180,152,285372,1,0,0:0:0:0:
160,160,285479,1,0,0:0:0:0:
180,152,285694,1,0,0:0:0:0:
180,152,285908,1,8,0:0:0:0:
180,152,286122,1,0,0:0:0:0:
180,152,286229,1,8,0:0:0:0:
180,152,286444,1,0,0:0:0:0:
180,152,286551,1,8,0:0:0:0:
180,152,286765,1,0,0:0:0:0:
180,152,287087,1,0,0:0:0:0:
148,128,287194,1,0,0:0:0:0:
180,152,287408,1,0,0:0:0:0:
180,152,287622,1,12,0:0:0:0:
224,192,287837,1,0,0:0:0:0:
240,208,287944,1,8,0:0:0:0:
272,240,288158,1,0,0:0:0:0:
288,252,288265,1,8,0:0:0:0:
256,224,288372,1,8,0:0:0:0:
304,268,288479,1,0,0:0:0:0:
320,196,288694,1,0,0:0:0:0:
332,152,288801,1,8,0:0:0:0:
344,100,288908,1,0,0:0:0:0:
344,100,289122,1,8,0:0:0:0:
272,116,289337,1,8,0:0:0:0:
236,188,289551,1,0,0:0:0:0:
212,208,289658,1,8,0:0:0:0:
188,228,289765,1,8,0:0:0:0:
164,252,289872,1,0,0:0:0:0:
164,252,289979,1,8,0:0:0:0:
164,252,290087,1,0,0:0:0:0:
164,252,290194,1,8,0:0:0:0:
164,252,290408,1,0,0:0:0:0:
164,252,290515,1,8,0:0:0:0:
164,252,290622,1,0,0:0:0:0:
132,220,290729,1,0,0:0:0:0:
164,252,290837,1,8,0:0:0:0:
160,188,291051,1,12,0:0:0:0:
216,212,292765,1,0,0:0:0:0:
216,212,294479,1,8,0:0:0:0:
216,212,296194,1,0,0:0:0:0:
216,212,297908,1,8,0:0:0:0:
148,84,298337,1,8,0:0:0:0:
180,144,298551,1,0,0:0:0:0:
180,144,298979,1,0,0:0:0:0:
180,144,299194,1,8,0:0:0:0:
316,128,299622,1,8,0:0:0:0:
196,144,300051,1,8,0:0:0:0:
252,136,300265,1,0,0:0:0:0:
252,136,300694,1,0,0:0:0:0:
252,136,300908,1,8,0:0:0:0:
252,136,301337,1,8,0:0:0:0:
252,136,301551,1,0,0:0:0:0:
252,136,301765,1,8,0:0:0:0:
252,136,301979,1,0,0:0:0:0:
252,136,302194,1,8,0:0:0:0:
252,136,302408,1,0,0:0:0:0:
252,136,302622,1,8,0:0:0:0:
252,136,302837,1,0,0:0:0:0:
252,136,303051,1,12,0:0:0:0:
252,136,304765,1,12,0:0:0:0:
208,128,304979,1,0,0:0:0:0:
244,152,305087,1,8,0:0:0:0:
168,164,305301,1,0,0:0:0:0:
312,196,305408,1,0,0:0:0:0:
280,168,305622,1,0,0:0:0:0:
344,216,305729,1,8,0:0:0:0:
232,168,306051,1,8,0:0:0:0:
160,132,306265,1,0,0:0:0:0:
232,168,306479,1,8,0:0:0:0:
212,148,306587,1,8,0:0:0:0:
188,124,306694,1,0,0:0:0:0:
160,96,306801,1,8,0:0:0:0:
160,120,306908,1,0,0:0:0:0:
224,128,307015,1,0,0:0:0:0:
252,140,307122,1,8,0:0:0:0:
160,152,307337,1,0,0:0:0:0:
204,148,307444,1,0,0:0:0:0:
204,148,307658,1,0,0:0:0:0:
204,148,307765,1,8,0:0:0:0:
264,188,307979,1,0,0:0:0:0:
336,232,308194,1,8,0:0:0:0:
372,256,308301,1,8,0:0:0:0:
396,276,308408,1,0,0:0:0:0:
384,256,308515,1,8,0:0:0:0:
340,196,308729,1,0,0:0:0:0:
320,172,308837,1,8,0:0:0:0:
280,112,309051,1,0,0:0:0:0:
264,88,309158,1,8,0:0:0:0:
264,88,309479,1,8,0:0:0:0:
248,164,309694,1,0,0:0:0:0:
232,232,309908,1,8,0:0:0:0:
224,196,310015,1,0,0:0:0:0:
240,320,310122,1,0,0:0:0:0:
236,272,310229,1,8,0:0:0:0:
220,248,310337,1,0,0:0:0:0:
236,272,310444,1,0,0:0:0:0:
236,272,310551,1,8,0:0:0:0:
236,272,310765,1,8,0:0:0:0:
204,352,310979,5,8,0:0:0:0:
236,272,311087,1,0,0:0:0:0:
236,272,311194,1,8,0:0:0:0:
176,232,311408,1,0,0:0:0:0:
176,232,311622,1,8,0:0:0:0:
164,196,311729,1,0,0:0:0:0:
208,128,311837,1,0,0:0:0:0:
244,152,311944,1,8,0:0:0:0:
168,164,312158,1,0,0:0:0:0:
312,196,312265,1,0,0:0:0:0:
280,168,312479,1,0,0:0:0:0:
344,216,312587,1,8,0:0:0:0:
232,168,312908,1,8,0:0:0:0:
160,132,313122,1,0,0:0:0:0:
232,168,313337,1,8,0:0:0:0:
212,148,313444,1,8,0:0:0:0:
188,124,313551,1,0,0:0:0:0:
160,96,313658,1,8,0:0:0:0:
140,128,313765,1,0,0:0:0:0:
224,128,313872,1,0,0:0:0:0:
252,140,313979,1,8,0:0:0:0:
160,152,314194,1,0,0:0:0:0:
204,148,314301,1,0,0:0:0:0:
204,148,314515,1,0,0:0:0:0:
204,148,314622,1,8,0:0:0:0:
264,188,314837,1,0,0:0:0:0:
336,232,315051,1,8,0:0:0:0:
372,256,315158,1,8,0:0:0:0:
396,276,315265,1,0,0:0:0:0:
384,256,315372,1,8,0:0:0:0:
336,232,315587,1,0,0:0:0:0:
320,172,315694,1,8,0:0:0:0:
340,196,315801,1,0,0:0:0:0:
280,112,315908,1,0,0:0:0:0:
264,88,316015,1,8,0:0:0:0:
336,232,316229,1,0,0:0:0:0:
264,88,316337,1,8,0:0:0:0:
248,164,316551,1,8,0:0:0:0:
232,232,316765,1,8,0:0:0:0:
228,196,316872,1,0,0:0:0:0:
240,320,316979,1,0,0:0:0:0:
236,272,317087,1,8,0:0:0:0:
232,240,317194,1,0,0:0:0:0:
236,272,317301,1,0,0:0:0:0:
236,272,317408,1,8,0:0:0:0:
236,272,317622,1,0,0:0:0:0:
144,156,317729,1,8,0:0:0:0:
204,352,317837,5,0,0:0:0:0:
236,272,317944,1,0,0:0:0:0:
236,272,318051,1,8,0:0:0:0:
176,232,318265,1,0,0:0:0:0:
156,152,318479,1,12,0:0:0:0:
308,160,318908,1,8,0:0:0:0:
388,164,319122,1,0,0:0:0:0:
460,164,319337,1,0,0:0:0:0:
336,164,319658,1,8,0:0:0:0:
452,164,319979,1,0,0:0:0:0:
380,164,320194,1,8,0:0:0:0:
500,164,320515,1,0,0:0:0:0:
392,164,320837,1,8,0:0:0:0:
428,164,321265,1,0,0:0:0:0:
428,164,321479,1,8,0:0:0:0:
428,164,321694,1,8,0:0:0:0:
352,192,321908,1,0,0:0:0:0:
272,224,322122,1,0,0:0:0:0:
196,252,322337,1,8,0:0:0:0:
196,252,322551,1,0,0:0:0:0:
196,252,322765,1,8,0:0:0:0:
196,252,322979,1,8,0:0:0:0:
196,252,323194,1,0,0:0:0:0:
196,252,323408,1,0,0:0:0:0:
196,252,323622,1,8,0:0:0:0:
196,252,323837,1,0,0:0:0:0:
196,252,324051,1,8,0:0:0:0:
196,252,324265,1,8,0:0:0:0:
196,252,324479,1,0,0:0:0:0:
196,252,324908,1,8,0:0:0:0:
196,252,325337,1,0,0:0:0:0:
292,148,325765,1,8,0:0:0:0:
244,200,325979,1,0,0:0:0:0:
244,200,326194,1,0,0:0:0:0:
244,200,326515,1,8,0:0:0:0:
244,200,326837,1,0,0:0:0:0:
244,200,327051,1,8,0:0:0:0:
244,200,327372,1,0,0:0:0:0:
244,200,327694,1,8,0:0:0:0:
244,200,328122,1,0,0:0:0:0:
244,200,328337,1,8,0:0:0:0:
240,136,328551,1,8,0:0:0:0:
308,136,328765,1,8,0:0:0:0:
376,136,328979,1,0,0:0:0:0:
412,136,329087,1,0,0:0:0:0:
412,136,329194,1,8,0:0:0:0:
256,184,329301,1,8,0:0:0:0:
412,136,329408,1,0,0:0:0:0:
412,136,329622,1,8,0:0:0:0:
412,136,329729,1,8,0:0:0:0:
384,148,329837,1,0,0:0:0:0:
344,144,329944,1,0,0:0:0:0:
320,180,330051,1,8,0:0:0:0:
260,208,330265,1,0,0:0:0:0:
252,120,330372,1,0,0:0:0:0:
260,208,330479,1,8,0:0:0:0:
316,164,330694,1,0,0:0:0:0:
340,144,330801,1,0,0:0:0:0:
384,112,330908,1,8,0:0:0:0:
340,144,331122,1,0,0:0:0:0:
340,144,331229,1,0,0:0:0:0:
340,144,331337,1,8,0:0:0:0:
340,144,331551,1,0,0:0:0:0:
340,144,331658,1,0,0:0:0:0:
340,144,331765,1,8,0:0:0:0:
304,144,331872,1,8,0:0:0:0:
340,144,331979,1,0,0:0:0:0:
152,228,332194,1,12,0:0:0:0:
252,228,332515,1,8,0:0:0:0:
372,252,332837,1,8,0:0:0:0:
448,268,333051,1,0,0:0:0:0:
508,280,333372,1,0,0:0:0:0:
508,280,333694,1,0,0:0:0:0:
444,256,333908,1,8,0:0:0:0:
336,216,334229,1,8,0:0:0:0:
336,216,334551,1,8,0:0:0:0:
336,216,334765,1,0,0:0:0:0:
336,216,335087,1,0,0:0:0:0:
336,216,335408,1,0,0:0:0:0:
336,216,335622,1,8,0:0:0:0:
336,216,335944,1,8,0:0:0:0:
336,216,336265,1,8,0:0:0:0:
336,216,336479,1,0,0:0:0:0:
336,216,336801,1,0,0:0:0:0:
336,216,337122,1,0,0:0:0:0:
336,216,337337,1,8,0:0:0:0:
336,216,337658,1,8,0:0:0:0:
336,216,337979,1,8,0:0:0:0:
336,216,338194,1,0,0:0:0:0:
336,216,338515,1,0,0:0:0:0:
336,216,338837,1,0,0:0:0:0:
272,200,339051,1,8,0:0:0:0:
272,200,339265,1,0,0:0:0:0:
272,200,339372,1,8,0:0:0:0:
272,200,339587,1,0,0:0:0:0:
272,200,339694,1,8,0:0:0:0:
272,200,339908,1,0,0:0:0:0:
272,200,340229,1,0,0:0:0:0:
272,200,340551,1,0,0:0:0:0:
272,200,340765,1,8,0:0:0:0:
272,200,340979,1,0,0:0:0:0:
272,200,341087,1,8,0:0:0:0:
272,200,341301,1,0,0:0:0:0:
272,200,341408,1,8,0:0:0:0:
272,200,341622,1,0,0:0:0:0:
272,200,341944,1,0,0:0:0:0:
272,200,342265,1,0,0:0:0:0:
272,200,342479,1,8,0:0:0:0:
272,200,342694,1,0,0:0:0:0:
272,200,342801,1,8,0:0:0:0:
272,200,343015,1,0,0:0:0:0:
272,200,343122,1,8,0:0:0:0:
272,200,343337,1,0,0:0:0:0:
272,200,343658,1,0,0:0:0:0:
272,200,343979,1,0,0:0:0:0:
272,200,344194,1,12,0:0:0:0:
236,148,344408,1,0,0:0:0:0:
252,172,344515,1,8,0:0:0:0:
252,172,344729,1,0,0:0:0:0:
252,172,344837,1,8,0:0:0:0:
252,172,344944,1,8,0:0:0:0:
252,172,345051,1,0,0:0:0:0:
252,172,345372,1,0,0:0:0:0:
252,172,345694,1,0,0:0:0:0:
252,172,345908,1,12,0:0:0:0:
312,184,346122,1,0,0:0:0:0:
340,188,346229,1,8,0:0:0:0:
340,188,346444,1,0,0:0:0:0:
340,188,346551,1,8,0:0:0:0:
340,188,346765,1,8,0:0:0:0:
288,152,347087,1,8,0:0:0:0:
328,180,347194,1,0,0:0:0:0:
340,188,347408,1,8,0:0:0:0:
396,184,347622,1,8,0:0:0:0:
452,152,347837,1,0,0:0:0:0:
452,152,347944,1,8,0:0:0:0:
452,152,348158,1,0,0:0:0:0:
416,148,348265,1,8,0:0:0:0:
364,176,348479,1,8,0:0:0:0:
276,220,348801,1,8,0:0:0:0:
248,232,348908,1,0,0:0:0:0:
248,232,349122,1,8,0:0:0:0:
248,232,349337,1,8,0:0:0:0:
248,232,349551,1,0,0:0:0:0:
248,232,349658,1,8,0:0:0:0:
248,232,349872,1,0,0:0:0:0:
248,232,349979,1,8,0:0:0:0:
248,232,350194,1,8,0:0:0:0:
204,176,350408,1,0,0:0:0:0:
248,232,350515,1,8,0:0:0:0:
236,216,350622,1,0,0:0:0:0:
188,172,350837,1,8,0:0:0:0:
212,112,351051,1,8,0:0:0:0:
212,112,351265,1,0,0:0:0:0:
212,112,351372,1,8,0:0:0:0:
212,112,351587,1,0,0:0:0:0:
212,112,351694,1,8,0:0:0:0:
212,112,351908,1,8,0:0:0:0:
212,112,352122,1,0,0:0:0:0:
212,112,352229,1,8,0:0:0:0:
212,112,352337,1,0,0:0:0:0:
212,112,352551,1,8,0:0:0:0:
188,256,352765,1,8,0:0:0:0:
244,240,352979,1,0,0:0:0:0:
272,232,353087,1,8,0:0:0:0:
328,220,353301,1,0,0:0:0:0:
328,220,353408,1,8,0:0:0:0:
328,220,353515,1,8,0:0:0:0:
328,220,353622,1,0,0:0:0:0:
328,220,353837,1,0,0:0:0:0:
328,220,353944,1,8,0:0:0:0:
328,220,354051,1,0,0:0:0:0:
328,220,354265,1,8,0:0:0:0:
328,220,354479,1,8,0:0:0:0:
328,220,354694,1,0,0:0:0:0:
308,200,354801,1,8,0:0:0:0:
264,152,355015,1,0,0:0:0:0:
248,132,355122,1,8,0:0:0:0:
232,116,355229,1,8,0:0:0:0:
212,100,355337,1,0,0:0:0:0:
212,100,355551,1,0,0:0:0:0:
212,100,355658,1,8,0:0:0:0:
188,84,355765,1,0,0:0:0:0:
188,84,355979,1,8,0:0:0:0:
188,84,356194,1,8,0:0:0:0:
188,84,356408,1,0,0:0:0:0:
176,52,356515,1,8,0:0:0:0:
148,52,356622,1,8,0:0:0:0:
116,84,356729,1,0,0:0:0:0:
112,52,356837,1,8,0:0:0:0:
112,52,356944,1,0,0:0:0:0:
112,52,357051,1,8,0:0:0:0:
108,116,357265,1,0,0:0:0:0:
108,148,357372,1,8,0:0:0:0:
108,148,357479,1,0,0:0:0:0:
108,148,357694,1,8,0:0:0:0:
188,152,357908,1,0,0:0:0:0:
220,152,358015,1,0,0:0:0:0:
252,156,358122,1,8,0:0:0:0:
252,156,358337,1,0,0:0:0:0:
252,156,358444,1,0,0:0:0:0:
252,156,358551,1,8,0:0:0:0:
252,156,358765,1,0,0:0:0:0:
252,156,358872,1,0,0:0:0:0:
252,156,358979,1,8,0:0:0:0:
252,156,359087,1,8,0:0:0:0:
252,156,359194,1,0,0:0:0:0:
252,156,359301,1,0,0:0:0:0:
252,156,359408,1,8,0:0:0:0:
240,160,359622,1,12,0:0:0:0:
96,68,360051,1,0,0:0:0:0:
228,152,360479,1,0,0:0:0:0:
144,264,360908,1,0,0:0:0:0:
228,152,361337,1,0,0:0:0:0:
228,152,361765,1,0,0:0:0:0:
228,152,362194,1,0,0:0:0:0:
228,152,362622,1,0,0:0:0:0:
228,152,363051,1,8,0:0:0:0:
228,152,363479,1,0,0:0:0:0:
104,196,363908,1,0,0:0:0:0:
228,152,364337,1,0,0:0:0:0:
108,196,364765,1,0,0:0:0:0:
232,148,365194,1,0,0:0:0:0:
116,192,365622,1,0,0:0:0:0:
236,148,366051,1,0,0:0:0:0:
112,192,366479,1,8,0:0:0:0:
56,172,369908,1,8,0:0:0:0:
