osu file format v14

[General]
AudioFilename: audio.ogg
AudioLeadIn: 0
PreviewTime: 57227
Countdown: 0
SampleSet: Soft
StackLeniency: 0.7
Mode: 2
LetterboxInBreaks: 0
WidescreenStoryboard: 1

[Editor]
Bookmarks: 525,7333
DistanceSpacing: 1.1
BeatDivisor: 4
GridSize: 32
TimelineZoom: 1.199999

[Metadata]
Title:Time Left (TV Size)
TitleUnicode:残機 (TV Size)
Artist:ZUTOMAYO
ArtistUnicode:ずっと真夜中でいいのに。
Creator:Zuid-Afrikaan
Version:Salad
Source:チェンソーマン
Tags:Chainsaw Man Ending ED 2 Two ACAね ACANE 100回嘔吐 100kai Outo ZTMY EMI Records UNIVERSAL MUSIC 河村 吉宏 Yoshihiro Kawamura 二家本 亮介 Ryosuke Nikamoto Zanki Zutto Mayonaka de Iinoni J-rock Rock JRock Japanese Anime
BeatmapID:3851119
BeatmapSetID:1871679

[Difficulty]
HPDrainRate:3
CircleSize:3
OverallDifficulty:6.8
ApproachRate:6.8
SliderMultiplier:1.9
SliderTickRate:1

[Events]
//Background and Video events
0,0,"94759147_p02.jpg",0,0
//Break Periods
//Storyboard Layer 0 (Background)
//Storyboard Layer 1 (Fail)
//Storyboard Layer 2 (Pass)
//Storyboard Layer 3 (Foreground)
//Storyboard Layer 4 (Overlay)
//Storyboard Sound Samples

[TimingPoints]
525,425.531914893617,4,2,0,50,1,0
27759,-100,4,2,0,60,0,0
39461,-100,4,2,0,70,0,0
48184,-100,4,2,0,50,0,0
51588,-100,4,2,0,60,0,0
54993,-100,4,2,0,80,0,0
56695,-100,4,2,0,100,0,0
58397,425.531914893617,4,2,0,90,1,1
58397,-100,4,2,0,90,0,1
65099,-100,4,2,0,90,0,0
65205,-100,4,2,0,90,0,1
71907,-100,4,2,0,90,0,0
72014,-100,4,2,0,80,0,1
78716,-100,4,2,0,80,0,0
78822,-100,4,2,0,80,0,1
85631,-100,4,2,0,50,0,0

[Colours]
Combo1 : 75,75,75
Combo2 : 255,128,128
Combo3 : 255,128,64
Combo4 : 255,26,26

[HitObjects]
144,328,525,6,0,P|108:286|154:213,1,142.5,4|2,3:0|0:0,0:0:0:0:
286,208,1163,2,0,L|409:197,1,95,2|2,0:0|0:0,0:0:0:0:
275,133,1588,2,0,L|193:130,1,47.5,2|2,0:0|0:0,0:0:0:0:
94,127,2014,1,2,0:0:0:0:
189,331,2227,6,0,L|196:165,1,142.5,4|2,3:0|0:0,0:0:0:0:
51,202,2865,1,2,0:0:0:0:
147,129,3078,2,0,L|196:124,1,47.5,2|2,0:0|0:0,0:0:0:0:
337,119,3503,2,0,L|346:226,1,95,2|0,0:0|0:0,0:0:0:0:
241,328,3929,6,0,L|424:317,1,142.5,4|2,3:0|0:0,0:0:0:0:
395,201,4567,1,2,0:0:0:0:
295,205,4780,2,0,L|289:84,1,95,2|2,0:0|0:0,0:0:0:0:
288,67,5099,1,2,0:0:0:0:
278,283,5418,1,2,0:0:0:0:
175,280,5631,6,0,P|178:228|263:184,1,142.5,4|2,3:0|0:0,0:0:0:0:
340,180,6269,2,0,L|344:72,1,95,2|0,0:0|0:0,0:0:0:0:
247,170,6695,1,2,0:0:0:0:
198,168,6801,2,0,P|150:154|109:51,1,142.5
306,70,7333,6,0,L|424:67,2,95,4|2|4,3:0|3:2|3:0,0:0:0:0:
493,294,8184,2,0,L|495:96,1,190,8|4,0:2|3:0,0:0:0:0:
379,71,8822,1,0,3:0:0:0:
261,182,9035,5,4,3:0:0:0:
166,177,9247,1,2,3:2:0:0:
157,91,9460,1,4,3:0:0:0:
458,329,9886,1,8,0:2:0:0:
308,326,10312,2,0,L|300:227,1,95,4|0,3:0|3:0,0:0:0:0:
414,210,10737,6,0,L|406:113,1,95,4|2,3:0|3:2,0:0:0:0:
311,122,11163,1,4,3:0:0:0:
25,204,11588,2,0,P|21:130|126:72,1,190,8|4,0:2|3:0,0:0:0:0:
202,64,12227,1,0,3:0:0:0:
99,278,12439,6,0,L|5:308,2,95,4|2|4,3:0|3:2|3:0,0:0:0:0:
400,291,13290,2,0,P|456:254|390:172,1,190,8|4,0:2|3:0,0:0:0:0:
307,170,13929,1,0,3:0:0:0:
107,273,14142,6,0,P|89:210|190:132,1,190,4|4,3:0|3:0,0:0:0:0:
352,103,14993,2,0,L|148:89,1,190,10|4,0:0|3:0,0:0:0:0:
71,82,15631,1,2,0:0:0:0:
177,203,15844,6,0,P|232:198|302:83,1,190,4|4,3:0|3:0,0:0:0:0:
213,91,16482,1,2,3:2:0:0:
305,28,16695,1,10,0:0:0:0:
482,168,17120,2,0,L|488:69,1,95,4|2,3:0|0:0,0:0:0:0:
284,198,17546,6,0,L|93:181,2,190,4|4|10,3:0|3:0|0:0,0:0:0:0:
463,210,18822,2,0,L|347:200,1,95,4|2,3:0|0:0,0:0:0:0:
261,195,19248,6,0,L|253:92,1,95,4|2,3:0|3:2,0:0:0:0:
350,95,19673,1,4,3:0:0:0:
184,246,20099,1,10,0:0:0:0:
104,204,20311,1,2,3:2:0:0:
110,114,20524,1,4,3:0:0:0:
195,84,20737,1,2,3:0:0:0:
389,224,20950,6,0,P|459:214|489:103,1,190,4|4,3:0|3:0,0:0:0:0:
300,81,21801,2,0,L|88:73,1,190,10|4,0:0|3:0,0:0:0:0:
202,34,22439,1,2,0:0:0:0:
104,189,22652,6,0,P|37:147|104:81,1,190,4|4,3:0|3:0,0:0:0:0:
283,196,23503,2,0,L|288:88,1,95,10|2,0:2|3:2,0:0:0:0:
190,134,23929,2,0,L|193:34,1,95,4|0,3:0|3:2,0:0:0:0:
394,168,24354,6,0,P|400:106|284:56,1,190,4|4,3:0|3:0,0:0:0:0:
114,248,25205,2,0,L|321:242,1,190,10|4,0:2|3:0,0:0:0:0:
316,169,25844,1,0,3:2:0:0:
211,168,26056,5,4,3:0:0:0:
38,167,26482,1,4,3:0:0:0:
35,119,26588,1,8,2:0:0:0:
33,72,26694,1,0,3:0:0:0:
235,73,26907,5,8,1:0:0:0:
235,73,27759,6,0,L|436:65,2,190,6|4|10,0:0|3:0|0:0,0:0:0:0:
66,164,29035,2,0,L|59:60,1,95,4|2,3:0|3:2,0:0:0:0:
166,59,29461,6,0,L|375:52,1,190,4|4,3:0|3:0,0:0:0:0:
179,259,30312,2,0,L|173:156,1,95,10|0,0:0|3:0,0:0:0:0:
248,166,30737,2,0,L|348:159,1,95,4|2,3:0|3:2,0:0:0:0:
140,134,31163,6,0,P|76:98|150:40,1,190,4|4,3:0|3:0,0:0:0:0:
326,144,32014,2,0,L|330:45,1,95,10|2,0:0|3:2,0:0:0:0:
234,40,32439,2,0,L|128:35,1,95,4|2,3:0|3:2,0:0:0:0:
247,237,32865,6,0,L|373:234,2,95,4|2|4,3:0|3:2|3:0,0:0:0:0:
63,238,33716,1,10,0:0:0:0:
61,145,33928,1,2,3:2:0:0:
122,74,34141,1,4,3:0:0:0:
214,62,34354,1,2,3:2:0:0:
415,57,34567,5,4,3:0:0:0:
262,286,34993,2,0,P|248:217|342:152,1,190,4|10,3:0|0:0,0:0:0:0:
485,233,35844,2,0,L|489:112,1,95,4|2,3:0|3:2,0:0:0:0:
377,118,36269,6,0,L|159:108,1,190,4|4,3:0|3:0,0:0:0:0:
19,243,37120,1,10,0:0:0:0:
34,150,37332,1,2,3:2:0:0:
102,86,37545,1,4,3:0:0:0:
195,75,37758,1,2,3:2:0:0:
396,168,37971,5,4,3:0:0:0:
318,163,38183,1,2,3:2:0:0:
239,154,38396,1,4,3:0:0:0:
366,345,38822,2,0,P|426:287|359:207,1,190,10|4,0:0|3:0,0:0:0:0:
175,182,39461,5,6,0:0:0:0:
322,182,39886,1,2,1:2:0:0:
418,195,40099,1,0,1:2:0:0:
322,182,40312,1,2,1:2:0:0:
227,84,40525,1,2,1:2:0:0:
322,87,40738,1,2,1:2:0:0:
416,90,40950,1,2,1:2:0:0:
107,344,41376,6,0,L|99:238,1,95,6|2,0:0|3:2,0:0:0:0:
194,236,41801,1,10,0:2:0:0:
375,215,42227,2,0,L|485:211,2,95,4|4|10,3:0|3:0|0:0,0:0:0:0:
190,171,42865,6,0,P|113:166|60:60,1,190,4|4,3:0|3:0,0:0:0:0:
249,312,43716,2,0,P|306:269|241:190,1,190,2|2,0:0|3:2,0:0:0:0:
153,154,44354,2,0,L|46:154,1,95,10|0,0:2|3:0,0:0:0:0:
262,40,44780,5,4,3:0:0:0:
107,285,45205,2,0,L|326:275,1,190,10|4,0:0|3:0,0:0:0:0:
378,274,45844,1,4,3:0:0:0:
388,207,46056,1,8,0:0:0:0:
195,204,46269,5,4,3:0:0:0:
26,49,46695,2,0,L|130:45,1,95,4|8,3:0|0:0,0:0:0:0:
215,45,47120,1,2,0:0:0:0:
113,219,47333,2,0,P|56:169|122:98,1,190,4|8,3:0|0:0,0:0:0:0:
416,267,48184,6,0,L|422:116,2,142.5,4|2|2,3:0|0:0|0:0,0:0:0:0:
317,267,49035,2,0,L|148:260,2,142.5,4|2|2,3:0|0:0|0:0,0:0:0:0:
416,232,49886,5,4,3:0:0:0:
423,107,50205,1,2,0:0:0:0:
292,89,50524,1,2,0:0:0:0:
181,278,50737,2,0,P|124:270|58:158,1,190,4|4,3:0|3:0,0:0:0:0:
148,157,51376,1,2,0:0:0:0:
348,199,51588,6,0,P|392:159|340:99,1,142.5,6|4,0:0|3:0,0:0:0:0:
222,92,52227,1,4,3:0:0:0:
321,308,52439,2,0,L|473:298,1,142.5,4|4,0:0|3:0,0:0:0:0:
472,220,53078,1,4,3:0:0:0:
271,210,53290,5,6,1:2:0:0:
87,214,53716,2,0,L|79:100,1,95,4|2,3:0|3:2,0:0:0:0:
182,334,54142,2,0,P|178:268|63:232,1,190,2|8,0:0|1:0,0:0:0:0:
62,142,54780,1,0,0:0:0:0:
269,134,54993,5,4,1:0:0:0:
470,267,55418,1,4,3:0:0:0:
458,173,55630,1,10,0:0:0:0:
415,89,55843,1,10,0:0:0:0:
329,31,56056,1,8,0:0:0:0:
238,18,56269,1,8,0:0:0:0:
144,12,56481,1,10,0:0:0:0:
349,247,56695,6,0,L|499:239,2,142.5,4|4|4,3:0|3:0|3:0,0:0:0:0:
120,267,57971,2,0,L|112:163,1,95,4|2,0:0|0:0,0:0:0:0:
314,156,58397,6,0,L|482:146,2,142.5,6|2|0,0:0|3:2|3:0,0:0:0:0:
216,267,59248,2,0,L|373:257,1,142.5,4|0,3:0|3:0,0:0:0:0:
366,151,59886,1,2,0:0:0:0:
161,145,60099,5,4,3:0:0:0:
16,144,60524,1,10,0:2:0:0:
108,4,60949,1,4,3:0:0:0:
201,0,61162,1,2,3:2:0:0:
101,296,61375,2,0,L|93:184,1,95,10|0,0:2|3:0,0:0:0:0:
301,267,61801,6,0,P|363:256|392:177,1,142.5,4|2,3:0|3:2,0:0:0:0:
247,272,62439,1,2,3:2:0:0:
161,236,62651,1,4,3:0:0:0:
130,150,62864,1,2,3:2:0:0:
172,68,63077,1,10,0:0:0:0:
261,44,63290,1,2,3:2:0:0:
460,39,63503,5,4,3:0:0:0:
308,271,63928,2,0,L|200:268,1,95,10|2,0:0|3:0,0:0:0:0:
310,195,64354,2,0,L|409:191,1,95,8|4,0:0|3:0,0:0:0:0:
311,105,64779,2,0,L|202:102,1,95,8|8,0:0|0:0,0:0:0:0:
17,170,65205,6,0,L|19:8,1,142.5,6|2,0:0|3:2,0:0:0:0:
152,33,65843,1,0,3:0:0:0:
250,81,66056,2,0,L|402:77,1,142.5,4|4,3:0|3:0,0:0:0:0:
407,206,66694,1,2,0:0:0:0:
202,208,66907,5,4,3:0:0:0:
32,170,67333,1,10,0:2:0:0:
125,163,67545,1,4,3:0:0:0:
200,106,67758,1,4,3:0:0:0:
231,18,67971,1,2,3:2:0:0:
133,313,68184,1,10,0:2:0:0:
126,232,68397,1,0,3:0:0:0:
320,256,68609,6,0,L|494:252,1,142.5,6|2,0:0|3:2,0:0:0:0:
292,168,69248,1,2,3:2:0:0:
200,168,69460,1,4,3:0:0:0:
145,84,69673,1,2,3:2:0:0:
240,104,69886,2,0,L|246:-9,1,95,10|2,0:0|3:2,0:0:0:0:
41,89,70311,5,2,0:0:0:0:
191,198,70737,1,2,1:2:0:0:
285,194,70950,1,8,0:0:0:0:
379,186,71162,1,8,1:2:0:0:
285,194,71375,1,8,0:0:0:0:
191,190,71588,1,8,1:2:0:0:
95,192,71800,1,8,0:0:0:0:
292,339,72014,6,0,L|481:334,1,190,6|10,0:0|0:0,0:0:0:0:
288,269,72865,1,2,3:2:0:0:
281,149,73184,1,2,0:0:0:0:
272,29,73503,1,2,3:2:0:0:
72,55,73716,5,4,3:0:0:0:
206,257,74141,1,10,0:0:0:0:
286,218,74353,1,2,3:0:0:0:
290,129,74566,1,4,3:0:0:0:
197,103,74779,1,2,3:0:0:0:
103,104,74992,1,8,0:0:0:0:
94,15,75205,1,2,3:2:0:0:
298,296,75418,6,0,P|296:222|182:180,1,190,6|10,0:0|0:0,0:0:0:0:
29,189,76269,2,0,L|21:30,1,142.5,4|4,3:0|3:0,0:0:0:0:
156,43,76907,1,2,3:2:0:0:
357,36,77120,5,4,3:0:0:0:
494,189,77545,2,0,L|494:92,1,95,10|2,0:0|3:0,0:0:0:0:
401,167,77971,2,0,L|394:70,1,95,4|2,3:0|3:0,0:0:0:0:
485,288,78397,2,0,L|390:284,1,95,8|10,0:0|0:0,0:0:0:0:
188,264,78822,5,6,0:0:0:0:
173,126,79248,1,10,0:0:0:0:
348,111,79673,2,0,L|515:101,2,142.5,4|2|2,3:0|0:0|3:2,0:0:0:0:
146,126,80524,5,4,3:0:0:0:
304,296,80950,1,10,0:0:0:0:
286,204,81162,1,2,3:0:0:0:
214,145,81375,1,4,3:0:0:0:
121,146,81588,1,2,3:0:0:0:
50,205,81801,1,8,0:0:0:0:
33,297,82013,1,2,3:2:0:0:
237,293,82226,6,0,P|302:249|234:189,1,190,4|10,3:0|0:0,0:0:0:0:
55,173,83077,2,0,P|57:109|136:71,1,142.5,4|4,3:0|3:0,0:0:0:0:
261,73,83716,1,2,1:2:0:0:
465,82,83928,5,4,3:0:0:0:
474,181,84354,1,10,0:0:0:0:
379,182,84566,1,2,3:0:0:0:
284,184,84779,1,2,3:2:0:0:
379,114,84992,1,4,1:0:0:0:
474,90,85205,1,8,0:0:0:0:
476,31,85311,1,8,0:0:0:0:
473,226,85417,1,8,0:0:0:0:
269,229,85631,5,6,3:0:0:0:
88,230,86056,1,6,3:0:0:0:
236,149,86482,1,6,3:0:0:0:
353,105,86907,1,6,3:0:0:0:
203,84,87333,5,6,3:0:0:0:
330,236,87758,1,6,3:0:0:0:
495,242,88184,2,0,L|500:134,1,95,6|2,3:0|0:0,0:0:0:0:
299,133,88609,1,6,0:0:0:0:
