osu file format v14

[General]
AudioFilename: audio.ogg
AudioLeadIn: 0
PreviewTime: 57227
Countdown: 0
SampleSet: Soft
StackLeniency: 0.7
Mode: 2
LetterboxInBreaks: 0
WidescreenStoryboard: 1

[Editor]
Bookmarks: 525,7333
DistanceSpacing: 1.1
BeatDivisor: 4
GridSize: 32
TimelineZoom: 1.599999

[Metadata]
Title:Time Left (TV Size)
TitleUnicode:残機 (TV Size)
Artist:ZUTOMAYO
ArtistUnicode:ずっと真夜中でいいのに。
Creator:Zuid-Afrikaan
Version:Platter
Source:チェンソーマン
Tags:Chainsaw Man Ending ED 2 Two ACAね ACANE 100回嘔吐 100kai Outo ZTMY EMI Records UNIVERSAL MUSIC 河村 吉宏 Yoshihiro Kawamura 二家本 亮介 Ryosuke Nikamoto Zanki Zutto Mayonaka de Iinoni J-rock Rock JRock Japanese Anime
BeatmapID:3851117
BeatmapSetID:1871679

[Difficulty]
HPDrainRate:4
CircleSize:3.4
OverallDifficulty:7.8
ApproachRate:7.8
SliderMultiplier:2
SliderTickRate:2

[Events]
//Background and Video events
0,0,"94759147_p02.jpg",0,0
//Break Periods
//Storyboard Layer 0 (Background)
//Storyboard Layer 1 (Fail)
//Storyboard Layer 2 (Pass)
//Storyboard Layer 3 (Foreground)
//Storyboard Layer 4 (Overlay)
//Storyboard Sound Samples

[TimingPoints]
525,425.531914893617,4,2,0,50,1,0
27759,-100,4,2,0,60,0,0
39461,-100,4,2,0,70,0,0
48184,-100,4,2,0,50,0,0
51588,-100,4,2,0,60,0,0
54993,-100,4,2,0,80,0,0
56695,-100,4,2,0,100,0,0
58397,425.531914893617,4,2,0,90,1,1
58397,-100,4,2,0,90,0,1
65099,-100,4,2,0,90,0,0
65205,-100,4,2,0,90,0,1
71907,-100,4,2,0,90,0,0
72014,-100,4,2,0,80,0,1
78716,-100,4,2,0,80,0,0
78822,-100,4,2,0,80,0,1
85631,-100,4,2,0,50,0,0

[Colours]
Combo1 : 75,75,75
Combo2 : 255,128,128
Combo3 : 255,128,64
Combo4 : 255,26,26

[HitObjects]
137,351,525,6,0,L|125:166,1,150,4|2,3:0|0:0,0:0:0:0:
265,201,1163,1,2,0:0:0:0:
366,191,1376,1,2,0:0:0:0:
265,126,1588,2,0,L|187:122,1,50,2|2,0:0|0:0,0:0:0:0:
113,127,1907,2,0,L|108:57,1,50,2|2,0:0|0:0,0:0:0:0:
214,297,2227,6,0,L|46:286,1,150,4|2,3:0|0:0,0:0:0:0:
157,205,2865,1,2,0:0:0:0:
165,126,3078,2,0,L|169:50,1,50,2|2,0:0|0:0,0:0:0:0:
322,67,3503,2,0,L|406:66,1,50,2|2,0:0|0:0,0:0:0:0:
87,322,3929,6,0,P|92:263|170:224,1,150,4|2,3:0|0:0,0:0:0:0:
308,220,4567,1,2,0:0:0:0:
317,141,4780,1,2,0:0:0:0:
218,146,4993,2,0,L|155:144,1,50,2|2,0:0|0:0,0:0:0:0:
69,81,5312,2,0,L|128:76,1,50,2|2,0:0|0:0,0:0:0:0:
224,344,5631,6,0,L|374:331,1,150,4|2,3:0|0:0,0:0:0:0:
271,239,6163,1,2,0:0:0:0:
269,190,6269,2,0,L|269:83,1,100,2|0,0:0|0:0,0:0:0:0:
162,348,6695,2,0,P|82:336|16:244,1,200,2|0,0:0|0:0,0:0:0:0:
303,337,7333,6,0,L|292:199,1,100,4|2,3:0|3:2,0:0:0:0:
192,259,7759,2,0,L|179:148,1,100,4|2,3:0|3:2,0:0:0:0:
376,155,8184,2,0,P|427:124|357:36,1,200,8|4,0:2|3:0,0:0:0:0:
263,36,8822,1,0,3:0:0:0:
408,310,9035,5,4,3:0:0:0:
425,214,9247,1,2,3:2:0:0:
369,134,9460,1,4,3:0:0:0:
273,117,9673,1,0,3:2:0:0:
82,128,9886,1,8,0:2:0:0:
244,213,10312,2,0,L|354:207,1,100,4|0,3:0|3:0,0:0:0:0:
143,316,10737,5,4,3:0:0:0:
59,272,10949,1,2,3:2:0:0:
58,177,11162,1,4,3:0:0:0:
142,131,11375,1,2,3:2:0:0:
340,120,11588,1,8,0:2:0:0:
488,209,12014,2,0,L|494:93,1,100,4|0,3:0|3:0,0:0:0:0:
296,210,12439,6,0,L|197:207,1,100,4|2,3:0|3:2,0:0:0:0:
289,151,12865,2,0,L|404:144,1,100,4|0,3:0|3:2,0:0:0:0:
183,111,13290,1,8,0:2:0:0:
345,245,13716,2,0,L|450:243,1,100,4|0,3:0|3:0,0:0:0:0:
143,249,14142,6,0,P|78:234|36:110,1,200,4|4,3:0|3:0,0:0:0:0:
132,118,14780,1,2,3:2:0:0:
331,164,14993,2,0,P|327:96|206:42,1,200,10|4,0:0|3:0,0:0:0:0:
122,41,15631,1,2,0:0:0:0:
322,272,15844,5,4,3:0:0:0:
407,229,16056,1,2,3:2:0:0:
399,135,16269,1,4,3:0:0:0:
309,107,16482,1,2,3:2:0:0:
116,104,16695,1,10,0:0:0:0:
275,213,17120,2,0,L|387:207,1,100,4|2,3:0|0:0,0:0:0:0:
70,300,17546,6,0,L|67:200,1,100,4|0,3:0|3:0,0:0:0:0:
163,209,17971,2,0,L|283:202,1,100,4|2,3:0|3:2,0:0:0:0:
465,188,18397,1,10,0:0:0:0:
308,191,18822,2,0,L|303:80,1,100,4|2,3:0|0:0,0:0:0:0:
496,196,19248,5,4,3:0:0:0:
491,98,19460,1,2,3:2:0:0:
426,24,19673,1,4,3:0:0:0:
330,6,19886,1,0,3:0:0:0:
137,32,20099,1,10,0:0:0:0:
48,61,20311,1,2,3:2:0:0:
41,155,20524,1,4,3:0:0:0:
125,199,20737,1,2,3:0:0:0:
405,262,20950,5,4,3:0:0:0:
408,194,21376,2,0,L|413:75,1,100,4|0,3:0|3:2,0:0:0:0:
215,262,21801,1,10,0:0:0:0:
47,181,22227,2,0,L|159:179,1,100,4|2,3:0|0:0,0:0:0:0:
342,192,22652,6,0,L|347:85,1,100,4|2,3:0|3:2,0:0:0:0:
251,148,23078,2,0,L|254:40,1,100,4|2,3:0|3:2,0:0:0:0:
446,290,23503,1,10,0:2:0:0:
497,205,23715,1,2,3:2:0:0:
489,107,23928,1,4,3:0:0:0:
426,32,24141,1,0,3:2:0:0:
136,41,24354,5,4,3:0:0:0:
293,193,24780,2,0,L|298:84,1,100,4|2,3:0|3:2,0:0:0:0:
107,190,25205,2,0,P|40:133|120:66,1,200,10|4,0:2|3:0,0:0:0:0:
198,58,25844,1,0,3:2:0:0:
392,201,26056,5,4,3:0:0:0:
291,170,26269,1,0,3:0:0:0:
191,187,26482,1,4,3:0:0:0:
142,182,26588,1,8,2:0:0:0:
191,187,26694,1,0,3:0:0:0:
485,197,26907,5,8,1:0:0:0:
218,320,27759,6,0,P|152:317|89:201,1,200,6|4,0:0|3:0,0:0:0:0:
193,214,28397,1,0,3:0:0:0:
387,206,28610,2,0,P|447:144|378:74,1,200,10|4,0:0|3:0,0:0:0:0:
288,76,29248,1,2,3:2:0:0:
478,305,29461,6,0,P|472:229|362:175,1,200,4|4,3:0|3:0,0:0:0:0:
60,161,30312,2,0,L|57:46,1,100,10|0,0:0|3:0,0:0:0:0:
161,165,30737,2,0,L|164:60,1,100,4|2,3:0|3:2,0:0:0:0:
454,160,31163,6,0,P|497:106|413:14,1,200,4|4,3:0|3:0,0:0:0:0:
331,93,31801,1,0,3:0:0:0:
147,142,32014,2,0,L|143:29,1,100,10|2,0:0|3:2,0:0:0:0:
240,233,32439,2,0,L|243:129,1,100,4|2,3:0|3:2,0:0:0:0:
43,344,32865,5,4,3:0:0:0:
47,246,33077,1,2,3:2:0:0:
116,177,33290,1,4,3:0:0:0:
214,175,33503,1,2,3:2:0:0:
408,83,33716,2,0,L|191:62,1,200,10|4,0:0|3:0,0:0:0:0:
199,223,34354,1,2,3:2:0:0:
479,236,34567,5,4,3:0:0:0:
316,162,34993,2,0,L|184:153,1,100,4|0,3:0|3:0,0:0:0:0:
419,160,35418,1,10,0:0:0:0:
472,85,35630,1,2,3:2:0:0:
405,23,35843,1,4,3:0:0:0:
307,16,36056,1,2,3:2:0:0:
108,37,36269,6,0,P|47:98|124:169,1,200,4|4,3:0|3:0,0:0:0:0:
204,172,36907,1,0,3:0:0:0:
397,209,37120,1,10,0:0:0:0:
299,204,37332,1,2,3:2:0:0:
220,145,37545,1,4,3:0:0:0:
202,49,37758,1,2,3:2:0:0:
482,340,37971,5,4,3:0:0:0:
470,242,38183,1,2,3:2:0:0:
402,171,38396,1,4,3:0:0:0:
305,154,38609,1,0,3:0:0:0:
118,333,38822,1,10,0:0:0:0:
118,333,39248,1,4,3:0:0:0:
398,206,39461,6,0,L|155:181,1,200,6|2,0:0|1:2,0:0:0:0:
389,106,40099,2,0,L|489:97,1,100,0|2,1:2|1:2,0:0:0:0:
390,44,40525,2,0,L|278:41,1,100,2|2,1:2|1:2,0:0:0:0:
476,335,40950,2,0,L|487:211,1,100,2|2,1:2|1:2,0:0:0:0:
181,256,41376,6,0,P|179:184|287:139,1,200,6|10,0:0|0:2,0:0:0:0:
95,96,42227,1,4,3:0:0:0:
195,88,42439,1,4,3:0:0:0:
295,80,42652,1,10,0:0:0:0:
477,242,42865,6,0,P|481:181|364:130,1,200,4|4,3:0|3:0,0:0:0:0:
269,123,43503,1,8,0:0:0:0:
73,334,43716,2,0,P|80:277|202:221,1,200,2|2,0:0|3:2,0:0:0:0:
313,225,44354,2,0,L|317:113,1,100,10|0,0:2|3:0,0:0:0:0:
30,126,44780,5,4,3:0:0:0:
187,120,45205,1,10,0:0:0:0:
277,105,45417,1,2,3:2:0:0:
270,14,45630,1,4,3:0:0:0:
171,6,45843,1,4,3:0:0:0:
270,14,46056,1,8,0:0:0:0:
460,269,46269,6,0,L|468:55,1,200,4|4,3:0|3:0,0:0:0:0:
367,148,46907,2,0,L|364:29,1,100,8|2,0:0|0:0,0:0:0:0:
166,330,47333,1,4,3:0:0:0:
84,304,47546,1,4,3:0:0:0:
69,243,47759,1,8,0:0:0:0:
84,304,47971,1,4,3:0:0:0:
369,283,48184,6,0,P|428:274|477:204,2,150,4|2|2,3:0|0:0|0:0,0:0:0:0:
184,285,49035,2,0,P|125:276|76:206,2,150,4|2|2,3:0|0:0|0:0,0:0:0:0:
385,183,49886,6,0,L|213:157,1,150,4|2,3:0|0:0,0:0:0:0:
93,139,50524,1,2,0:0:0:0:
191,90,50737,2,0,L|4:73,2,150,4|2|2,3:0|0:0|0:0,0:0:0:0:
470,194,51588,6,0,L|474:69,1,100,6|0,0:0|0:0,0:0:0:0:
422,100,51907,2,0,L|260:69,1,150,4|4,3:0|3:0,0:0:0:0:
471,336,52439,2,0,L|475:211,1,100,4|0,0:0|0:0,0:0:0:0:
423,242,52758,2,0,L|261:211,1,150,4|4,3:0|3:0,0:0:0:0:
0,107,53290,5,6,1:2:0:0:
0,107,53716,1,4,3:0:0:0:
100,109,53928,1,2,3:2:0:0:
202,196,54142,2,0,L|207:75,1,100,2|8,0:0|3:0,0:0:0:0:
18,346,54567,2,0,L|18:229,1,100,8|0,1:0|0:0,0:0:0:0:
317,248,54993,6,0,L|381:245,1,50,4|2,1:0|0:0,0:0:0:0:
375,140,55312,1,2,0:0:0:0:
277,139,55524,2,0,L|217:130,1,50,4|10,3:0|0:0,0:0:0:0:
422,91,55844,2,0,L|495:84,1,50,10|10,0:0|0:0,0:0:0:0:
479,18,56163,1,10,0:0:0:0:
378,241,56376,2,0,L|312:236,1,50,10|10,0:0|0:0,0:0:0:0:
40,243,56695,6,0,L|32:120,1,100,4|0,3:0|0:0,0:0:0:0:
83,139,57014,2,0,L|244:129,1,150,4|4,3:0|3:0,0:0:0:0:
427,77,57546,2,0,L|265:67,1,150,2|4,0:0|3:0,0:0:0:0:
176,63,57971,2,0,L|62:57,1,100,4|2,0:0|0:0,0:0:0:0:
377,324,58397,6,0,P|426:286|369:225,1,150,6|2,0:0|3:2,0:0:0:0:
337,220,58822,2,0,L|207:211,1,100,10|0,0:0|3:0,0:0:0:0:
423,210,59248,2,0,L|433:84,1,100,4|0,3:0|3:0,0:0:0:0:
374,103,59567,1,0,3:0:0:0:
321,115,59673,2,0,L|448:108,1,100,10|2,0:0|0:0,0:0:0:0:
143,284,60099,5,4,3:0:0:0:
56,248,60311,1,2,3:2:0:0:
150,177,60524,1,10,0:2:0:0:
278,118,60950,1,4,3:0:0:0:
171,86,61162,1,2,3:2:0:0:
362,160,61375,2,0,L|366:40,1,100,10|0,0:2|3:0,0:0:0:0:
68,343,61801,6,0,L|75:209,1,100,4|0,3:0|3:0,0:0:0:0:
127,251,62120,1,2,3:2:0:0:
185,249,62226,2,0,L|208:137,1,100,8|2,0:2|3:2,0:0:0:0:
14,207,62652,1,4,3:0:0:0:
37,120,62864,1,2,3:2:0:0:
103,49,63077,1,10,0:0:0:0:
201,46,63290,1,2,3:2:0:0:
479,199,63503,6,0,L|489:64,1,100,4|2,3:0|0:0,0:0:0:0:
300,168,63928,2,0,L|190:159,1,100,10|2,0:0|3:0,0:0:0:0:
306,88,64354,2,0,L|368:90,2,50,8|8|4,0:0|0:0|3:0,0:0:0:0:
119,81,64779,2,0,L|70:79,2,50,8|8|8,0:0|0:0|0:0,0:0:0:0:
408,306,65205,6,0,L|412:201,1,100,6|2,0:0|3:0,0:0:0:0:
414,142,65524,2,0,L|418:47,1,50,2|10,3:2|0:0,0:0:0:0:
216,308,66056,2,0,L|212:203,1,100,4|0,3:0|3:0,0:0:0:0:
210,144,66375,2,0,L|206:49,1,50,4|10,3:0|0:0,0:0:0:0:
310,88,66694,1,2,0:0:0:0:
26,334,66907,6,0,L|21:203,1,100,4|2,3:0|3:2,0:0:0:0:
125,211,67333,2,0,L|229:205,1,100,10|4,0:2|3:0,0:0:0:0:
420,196,67758,2,0,L|425:65,1,100,4|2,3:0|3:2,0:0:0:0:
371,74,68077,1,0,3:0:0:0:
272,64,68184,2,0,L|168:58,1,100,10|0,0:2|3:0,0:0:0:0:
464,342,68609,6,0,L|470:226,1,100,6|2,0:0|3:2,0:0:0:0:
415,240,68928,1,2,3:2:0:0:
365,234,69035,2,0,L|250:223,1,100,8|2,0:2|3:2,0:0:0:0:
69,230,69460,2,0,L|194:225,1,100,4|2,3:0|3:2,0:0:0:0:
217,221,69779,1,2,3:2:0:0:
169,226,69886,2,0,L|70:235,1,100,10|2,0:0|3:2,0:0:0:0:
371,152,70311,6,0,L|506:145,1,100,2|4,0:0|3:0,0:0:0:0:
277,89,70737,2,0,L|166:84,1,100,2|8,1:2|0:0,0:0:0:0:
376,293,71162,1,8,1:2:0:0:
423,278,71268,1,8,0:0:0:0:
458,243,71374,1,8,0:0:0:0:
471,196,71481,1,8,0:0:0:0:
461,148,71587,1,8,1:2:0:0:
428,111,71693,1,8,0:0:0:0:
381,94,71800,1,8,0:0:0:0:
58,236,72014,6,0,P|51:166|159:105,1,200,6|10,0:0|0:0,0:0:0:0:
470,267,72865,2,0,L|479:103,1,150,2|2,3:2|0:0,0:0:0:0:
428,107,73290,2,0,L|326:102,1,100,8|2,0:0|3:2,0:0:0:0:
52,272,73716,5,4,3:0:0:0:
64,175,73928,1,2,3:2:0:0:
134,106,74141,1,10,0:0:0:0:
232,105,74354,1,2,3:0:0:0:
48,126,74567,2,0,L|40:7,1,100,4|2,3:0|3:0,0:0:0:0:
117,21,74992,2,0,L|230:17,1,100,8|2,0:0|3:2,0:0:0:0:
496,202,75418,6,0,L|258:180,1,200,6|10,0:0|0:0,0:0:0:0:
480,275,76269,2,0,P|494:201|464:126,1,150,4|4,3:0|3:0,0:0:0:0:
420,126,76694,2,0,L|304:123,1,100,8|2,0:0|3:2,0:0:0:0:
31,281,77120,5,4,3:0:0:0:
130,274,77332,1,2,3:0:0:0:
211,217,77545,1,10,0:0:0:0:
235,123,77758,1,2,3:0:0:0:
131,117,77971,1,4,3:0:0:0:
231,61,78184,1,2,3:0:0:0:
424,164,78397,2,0,L|430:58,1,100,8|10,0:0|0:0,0:0:0:0:
145,295,78822,6,0,L|349:253,1,200,6|10,0:0|0:0,0:0:0:0:
48,246,79673,2,0,L|43:83,1,150,4|2,3:0|0:0,0:0:0:0:
93,187,80099,2,0,L|100:79,1,100,8|2,0:0|3:2,0:0:0:0:
383,190,80524,5,4,3:0:0:0:
466,144,80736,1,2,3:0:0:0:
471,49,80949,1,10,0:0:0:0:
375,23,81162,1,2,3:0:0:0:
478,261,81375,1,4,3:0:0:0:
380,267,81588,1,2,3:0:0:0:
192,250,81801,2,0,L|75:246,1,100,8|2,0:0|3:2,0:0:0:0:
391,201,82226,6,0,P|402:128|295:77,1,200,4|10,3:0|0:0,0:0:0:0:
13,78,83077,2,0,L|202:74,1,150,4|4,3:0|3:0,0:0:0:0:
215,71,83503,2,0,L|341:69,1,100,8|2,0:0|1:2,0:0:0:0:
31,261,83928,5,4,3:0:0:0:
53,166,84140,1,2,3:0:0:0:
133,101,84353,1,10,0:0:0:0:
230,90,84566,1,2,3:0:0:0:
133,101,84779,1,2,3:2:0:0:
230,90,84992,1,4,1:0:0:0:
425,216,85205,2,0,L|481:221,2,50,8|8|8,0:0|0:0|0:0,0:0:0:0:
126,208,85631,5,6,3:0:0:0:
32,218,85843,2,0,L|28:134,1,50,2|2,0:0|0:0,0:0:0:0:
166,154,86269,2,0,L|170:83,1,50,2|2,0:0|0:0,0:0:0:0:
312,158,86694,2,0,L|319:96,1,50,2|2,0:0|0:0,0:0:0:0:
468,159,87120,2,0,L|461:98,1,50,2|2,0:0|0:0,0:0:0:0:
295,93,87545,6,0,L|232:90,1,50,2|2,0:0|0:0,0:0:0:0:
84,221,87971,2,0,L|80:152,1,50,2|2,0:0|0:0,0:0:0:0:
76,128,88184,2,0,L|182:123,1,100,6|2,3:0|0:0,0:0:0:0:
479,114,88609,1,6,0:0:0:0:
