osu file format v14

[General]
AudioFilename: audio.ogg
AudioLeadIn: 0
PreviewTime: 57227
Countdown: 0
SampleSet: Soft
StackLeniency: 0.7
Mode: 2
LetterboxInBreaks: 0
WidescreenStoryboard: 0

[Editor]
Bookmarks: 525,26907
DistanceSpacing: 1.1
BeatDivisor: 4
GridSize: 32
TimelineZoom: 2.699999

[Metadata]
Title:Time Left (TV Size)
TitleUnicode:残機 (TV Size)
Artist:ZUTOMAYO
ArtistUnicode:ずっと真夜中でいいのに。
Creator:Zuid-Afrikaan
Version:Deluge
Source:チェンソーマン
Tags:Chainsaw Man Ending ED 2 Two ACAね ACANE 100回嘔吐 100kai Outo ZTMY EMI Records UNIVERSAL MUSIC 河村 吉宏 Yoshihiro Kawamura 二家本 亮介 Ryosuke Nikamoto Zanki Zutto Mayonaka de Iinoni J-rock Rock JRock Japanese Anime
BeatmapID:3851114
BeatmapSetID:1871679

[Difficulty]
HPDrainRate:6
CircleSize:4.2
OverallDifficulty:9.4
ApproachRate:9.4
SliderMultiplier:2.5
SliderTickRate:2

[Events]
//Background and Video events
0,0,"94759147_p02.jpg",0,0
//Break Periods
//Storyboard Layer 0 (Background)
//Storyboard Layer 1 (Fail)
//Storyboard Layer 2 (Pass)
//Storyboard Layer 3 (Foreground)
//Storyboard Layer 4 (Overlay)
//Storyboard Sound Samples

[TimingPoints]
525,425.531914893617,4,2,0,50,1,0
27759,-100,4,2,0,60,0,0
39461,-100,4,2,0,70,0,0
48184,-111.111111111111,4,2,0,50,0,0
51588,-100,4,2,0,60,0,0
54993,-83.3333333333333,4,2,0,80,0,0
56695,-100,4,2,0,100,0,0
58397,425.531914893617,4,2,0,90,1,1
58397,-83.3333333333333,4,2,0,90,0,1
65099,-83.3333333333333,4,2,0,90,0,0
65205,-83.3333333333333,4,2,0,90,0,1
71907,-83.3333333333333,4,2,0,90,0,0
72014,-90.9090909090909,4,2,0,80,0,1
78716,-83.3333333333333,4,2,0,80,0,0
78822,-100,4,2,0,80,0,1
85631,-100,4,2,0,50,0,0

[Colours]
Combo1 : 75,75,75
Combo2 : 255,128,128
Combo3 : 255,128,64
Combo4 : 255,26,26

[HitObjects]
264,289,525,6,0,L|135:285,1,125,4|2,3:0|0:0,0:0:0:0:
264,229,844,2,0,L|410:223,1,125,2|2,0:0|0:0,0:0:0:0:
329,171,1163,1,2,0:0:0:0:
147,160,1376,5,2,0:0:0:0:
421,310,1588,1,2,0:0:0:0:
482,302,1695,1,2,0:0:0:0:
485,245,1801,1,0,0:0:0:0:
435,222,1907,1,2,0:0:0:0:
374,221,2014,1,2,0:0:0:0:
79,233,2227,5,4,3:0:0:0:
254,230,2439,1,2,0:0:0:0:
255,168,2545,1,2,0:0:0:0:
286,114,2651,1,0,0:0:0:0:
338,81,2758,1,2,0:0:0:0:
399,76,2864,1,2,0:0:0:0:
226,63,3078,6,0,L|303:51,1,62.5,2|2,0:0|0:0,0:0:0:0:
305,222,3397,1,0,0:0:0:0:
130,229,3503,1,2,0:0:0:0:
123,166,3610,1,2,0:0:0:0:
130,229,3716,1,0,0:0:0:0:
440,321,3929,5,4,3:0:0:0:
275,321,4142,1,2,0:0:0:0:
384,267,4248,2,0,L|393:122,1,125,2|2,0:0|0:0,0:0:0:0:
321,139,4567,1,2,0:0:0:0:
478,56,4780,5,2,0:0:0:0:
160,348,4993,1,2,0:0:0:0:
220,336,5099,1,2,0:0:0:0:
272,300,5205,1,0,0:0:0:0:
304,248,5312,1,2,0:0:0:0:
313,186,5418,1,2,0:0:0:0:
28,147,5631,5,4,3:0:0:0:
130,137,5844,2,0,L|131:64,1,62.5,2|2,0:0|0:0,0:0:0:0:
132,10,6163,1,2,0:0:0:0:
17,18,6269,1,2,0:0:0:0:
501,80,6695,2,0,P|426:118|325:320,1,312.5,2|0,0:0|0:0,0:0:0:0:
160,307,7333,6,0,L|154:239,1,62.5,4|0,3:0|3:0,0:0:0:0:
269,205,7546,1,2,3:2:0:0:
207,203,7652,1,2,3:2:0:0:
157,168,7758,1,4,3:0:0:0:
135,110,7865,1,0,3:0:0:0:
244,101,7971,2,0,L|248:31,1,62.5,2|2,3:2|3:2,0:0:0:0:
420,162,8184,6,0,L|426:86,1,62.5,8|0,0:2|0:0,0:0:0:0:
305,273,8397,2,0,L|220:267,1,62.5,0|2,3:0|3:2,0:0:0:0:
353,187,8610,1,4,3:0:0:0:
358,126,8716,1,0,3:0:0:0:
323,76,8822,1,0,3:0:0:0:
263,61,8929,1,2,3:2:0:0:
71,133,9035,6,0,L|64:45,1,62.5,4|0,3:0|3:0,0:0:0:0:
260,301,9248,1,2,3:2:0:0:
321,290,9354,1,2,3:2:0:0:
260,301,9461,1,4,3:0:0:0:
321,290,9567,1,0,3:0:0:0:
441,279,9673,2,0,L|448:211,1,62.5,0|0,3:2|3:2,0:0:0:0:
200,206,9886,6,0,L|190:75,1,125,8|0,0:2|3:0,0:0:0:0:
467,60,10312,1,4,3:0:0:0:
286,61,10418,2,0,L|102:56,1,125,0|2,3:0|3:2,0:0:0:0:
357,267,10737,6,0,L|363:183,1,62.5,4|0,3:0|0:0,0:0:0:0:
249,191,10950,1,2,3:2:0:0:
186,186,11056,1,2,3:2:0:0:
249,191,11163,1,4,3:0:0:0:
186,186,11269,1,0,3:0:0:0:
78,193,11376,2,0,L|72:118,1,62.5,2|0,3:2|3:2,0:0:0:0:
267,105,11588,6,0,L|114:97,1,125,8|2,0:2|3:2,0:0:0:0:
208,43,11907,1,2,3:2:0:0:
403,185,12014,1,4,3:0:0:0:
416,123,12120,1,0,3:0:0:0:
403,185,12227,1,0,3:0:0:0:
340,189,12333,1,2,3:2:0:0:
151,192,12439,6,0,L|8:182,1,125,4|2,3:0|3:2,0:0:0:0:
95,152,12759,1,2,3:2:0:0:
33,134,12865,1,4,3:0:0:0:
95,152,12971,1,0,3:0:0:0:
151,192,13078,1,0,3:2:0:0:
431,195,13290,6,0,L|434:129,1,62.5,8|0,0:2|3:2,0:0:0:0:
332,127,13503,2,0,L|269:130,1,62.5,0|2,3:0|3:2,0:0:0:0:
468,54,13716,2,0,L|390:47,1,62.5,4|0,3:0|3:2,0:0:0:0:
203,48,13929,2,0,L|125:44,1,62.5,0|2,3:0|3:2,0:0:0:0:
326,305,14142,6,0,L|335:168,1,125,4|2,3:0|0:0,0:0:0:0:
231,153,14461,1,0,3:0:0:0:
340,109,14567,2,0,L|466:96,1,125,4|2,3:0|3:2,0:0:0:0:
399,49,14886,1,0,3:0:0:0:
201,339,14993,6,0,L|190:196,1,125,10|2,0:0|0:0,0:0:0:0:
480,223,15418,2,0,L|475:139,1,62.5,4|2,3:0|0:0,0:0:0:0:
406,192,15631,2,0,L|400:121,1,62.5,2|2,0:0|3:0,0:0:0:0:
230,134,15844,5,4,3:0:0:0:
56,121,16056,1,2,3:2:0:0:
246,72,16269,1,4,3:0:0:0:
122,64,16482,1,2,3:2:0:0:
418,337,16695,6,0,L|412:269,1,62.5,10|0,0:0|0:0,0:0:0:0:
306,300,16907,2,0,L|298:230,1,62.5,2|0,3:2|3:2,0:0:0:0:
487,174,17120,2,0,L|410:167,1,62.5,4|0,3:0|3:0,0:0:0:0:
314,128,17333,2,0,L|388:122,1,62.5,2|0,0:0|0:0,0:0:0:0:
193,70,17546,6,0,L|52:67,1,125,4|0,3:0|3:0,0:0:0:0:
134,124,17865,1,0,3:0:0:0:
28,307,17971,2,0,L|19:177,1,125,4|2,3:0|3:2,0:0:0:0:
86,292,18290,1,0,3:0:0:0:
265,268,18397,5,10,0:0:0:0:
202,265,18503,1,0,0:0:0:0:
140,262,18609,1,2,0:0:0:0:
449,188,18822,2,0,L|452:112,1,62.5,4|2,3:0|0:0,0:0:0:0:
270,365,19035,2,0,L|275:294,1,62.5,2|2,0:0|3:0,0:0:0:0:
469,79,19248,5,4,3:0:0:0:
406,75,19354,1,2,0:2:0:0:
469,40,19460,1,2,3:2:0:0:
356,36,19567,1,0,3:0:0:0:
177,183,19673,2,0,L|167:17,1,125,4|0,3:0|3:0,0:0:0:0:
489,297,20099,6,0,L|483:226,1,62.5,10|0,0:0|0:0,0:0:0:0:
362,229,20312,2,0,L|353:140,1,62.5,2|0,3:2|3:0,0:0:0:0:
235,176,20524,2,0,L|228:91,1,62.5,4|0,3:0|3:0,0:0:0:0:
108,131,20737,2,0,L|99:49,1,62.5,2|0,3:0|3:0,0:0:0:0:
289,65,20950,6,0,L|139:65,1,125,4|2,3:0|3:2,0:0:0:0:
157,12,21269,1,2,3:2:0:0:
358,257,21376,1,4,3:0:0:0:
420,249,21482,1,2,3:2:0:0:
358,257,21588,1,0,3:2:0:0:
26,257,21801,6,0,L|15:112,1,125,10|2,0:0|3:2,0:0:0:0:
87,129,22120,1,2,3:2:0:0:
208,255,22227,2,0,L|219:110,1,125,4|2,3:0|0:0,0:0:0:0:
278,134,22546,1,2,3:0:0:0:
468,349,22652,6,0,L|476:217,1,125,4|2,3:0|3:2,0:0:0:0:
399,254,22971,1,2,3:2:0:0:
275,283,23078,2,0,L|129:272,1,125,4|2,3:0|3:2,0:0:0:0:
214,229,23397,1,0,3:2:0:0:
402,157,23503,5,10,0:2:0:0:
224,142,23716,1,2,3:2:0:0:
494,356,23929,1,4,3:0:0:0:
497,293,24035,1,0,3:2:0:0:
494,356,24142,1,0,3:2:0:0:
497,293,24248,1,0,3:2:0:0:
282,359,24354,6,0,L|270:223,1,125,4|2,3:0|3:2,0:0:0:0:
336,232,24673,1,2,3:2:0:0:
150,141,24780,1,4,3:0:0:0:
87,139,24886,1,2,3:2:0:0:
25,137,24992,1,2,3:2:0:0:
362,348,25205,2,0,L|373:216,1,125,10|2,0:2|3:2,0:0:0:0:
184,175,25631,1,4,3:0:0:0:
353,143,25844,1,0,3:2:0:0:
61,207,26056,6,0,L|54:76,1,125,4|0,3:0|3:0,0:0:0:0:
120,73,26376,1,0,3:0:0:0:
329,312,26482,1,4,3:0:0:0:
152,302,26588,2,0,L|2:300,1,125,8|0,2:0|3:0,0:0:0:0:
329,312,26907,5,8,1:0:0:0:
129,296,27759,6,0,L|276:289,1,125,6|2,0:0|3:2,0:0:0:0:
187,243,28078,1,2,3:2:0:0:
356,190,28184,2,0,L|445:182,1,62.5,4|0,3:0|3:0,0:0:0:0:
299,131,28397,2,0,L|226:129,1,62.5,0|0,3:0|3:0,0:0:0:0:
438,351,28610,6,0,L|444:226,1,125,10|2,0:0|3:2,0:0:0:0:
379,223,28929,1,2,3:2:0:0:
266,204,29035,1,4,3:0:0:0:
203,201,29142,1,0,3:0:0:0:
266,204,29248,1,2,3:2:0:0:
203,201,29355,1,0,3:0:0:0:
28,188,29461,6,0,L|22:117,1,62.5,4|2,3:0|0:0,0:0:0:0:
113,131,29673,2,0,L|125:45,1,62.5,2|2,3:2|3:2,0:0:0:0:
226,77,29886,2,0,L|378:71,1,125,4|0,3:0|3:0,0:0:0:0:
282,27,30205,1,0,3:0:0:0:
393,215,30312,6,0,L|400:132,1,62.5,10|0,0:0|3:0,0:0:0:0:
290,216,30524,2,0,L|284:147,1,62.5,0|0,3:0|3:0,0:0:0:0:
491,289,30737,1,4,3:0:0:0:
423,294,30844,2,0,L|411:152,1,125,2|2,3:2|3:0,0:0:0:0:
214,105,31163,6,0,L|56:99,1,125,4|2,3:0|3:2,0:0:0:0:
152,63,31482,1,2,3:2:0:0:
343,353,31588,1,4,3:0:0:0:
280,355,31694,1,0,3:0:0:0:
237,318,31800,1,0,3:0:0:0:
222,257,31907,1,0,3:0:0:0:
422,278,32014,6,0,L|427:153,1,125,10|2,0:0|3:2,0:0:0:0:
358,153,32333,1,2,3:2:0:0:
179,306,32439,2,0,L|183:234,1,62.5,4|0,3:0|3:0,0:0:0:0:
296,269,32652,2,0,L|299:180,1,62.5,2|2,3:2|3:0,0:0:0:0:
52,296,32865,6,0,L|57:213,1,62.5,4|2,3:0|0:0,0:0:0:0:
172,199,33078,2,0,L|256:191,1,62.5,2|0,3:2|3:0,0:0:0:0:
112,127,33290,1,4,3:0:0:0:
243,66,33503,2,0,L|160:63,1,62.5,2|0,3:2|3:0,0:0:0:0:
366,267,33716,5,10,0:0:0:0:
427,262,33822,1,2,3:2:0:0:
474,223,33928,1,2,3:2:0:0:
488,163,34035,1,0,3:0:0:0:
288,151,34142,1,4,3:0:0:0:
225,149,34248,1,2,3:2:0:0:
288,151,34354,1,2,3:2:0:0:
225,149,34460,1,2,3:0:0:0:
36,231,34567,6,0,L|24:78,1,125,4|2,3:0|3:2,0:0:0:0:
93,99,34886,1,2,3:2:0:0:
292,86,34993,1,4,3:0:0:0:
103,59,35205,1,0,3:0:0:0:
444,294,35418,6,0,L|296:291,1,125,10|2,0:0|3:2,0:0:0:0:
379,229,35737,1,2,3:2:0:0:
493,227,35844,2,0,L|497:145,1,62.5,4|0,3:0|3:0,0:0:0:0:
377,162,36056,2,0,L|369:93,1,62.5,2|2,3:2|3:0,0:0:0:0:
146,216,36269,6,0,L|129:49,1,125,4|2,3:0|3:2,0:0:0:0:
199,94,36588,1,2,3:2:0:0:
71,303,36695,2,0,L|59:169,1,125,4|0,3:0|3:0,0:0:0:0:
135,139,37014,1,0,3:0:0:0:
316,285,37120,2,0,L|323:125,1,125,10|2,0:0|3:2,0:0:0:0:
145,145,37546,1,4,3:0:0:0:
445,206,37759,1,2,3:2:0:0:
162,295,37971,6,0,L|166:210,1,62.5,4|0,3:0|0:0,0:0:0:0:
361,263,38184,2,0,L|365:188,1,62.5,2|2,3:2|3:2,0:0:0:0:
170,128,38397,2,0,L|315:111,1,125,4|0,3:0|3:0,0:0:0:0:
355,99,38716,1,0,3:0:0:0:
170,128,38822,1,10,0:0:0:0:
336,127,39035,1,2,3:2:0:0:
16,76,39248,2,0,L|90:68,1,62.5,4|0,3:0|0:0,0:0:0:0:
385,358,39461,6,0,P|390:296|286:242,1,187.5,6|0,0:0|0:0,0:0:0:0:
68,255,39886,1,2,1:2:0:0:
345,249,40099,1,0,1:2:0:0:
68,255,40312,1,2,1:2:0:0:
365,157,40525,1,2,1:2:0:0:
36,122,40737,1,2,1:2:0:0:
379,344,40950,2,0,P|454:318|496:216,1,187.5,2|0,1:2|0:0,0:0:0:0:
185,323,41376,6,0,L|184:118,1,187.5,6|0,0:0|0:0,0:0:0:0:
472,237,41801,2,0,L|475:98,1,125,10|0,0:2|0:0,0:0:0:0:
183,92,42227,1,4,3:0:0:0:
359,77,42439,1,4,3:0:0:0:
64,225,42652,1,10,0:0:0:0:
478,342,42865,6,0,P|475:271|360:217,1,187.5,4|0,3:0|0:0,0:0:0:0:
206,222,43290,2,0,L|199:134,1,62.5,4|0,3:0|0:0,0:0:0:0:
428,130,43503,1,8,0:0:0:0:
258,77,43716,5,2,0:0:0:0:
320,72,43822,1,0,0:0:0:0:
258,77,43929,1,4,3:0:0:0:
79,86,44142,1,2,3:2:0:0:
409,278,44354,1,10,0:2:0:0:
346,271,44461,1,0,0:0:0:0:
409,278,44567,1,0,3:0:0:0:
346,271,44674,1,0,3:0:0:0:
133,241,44780,5,4,3:0:0:0:
295,176,44993,2,0,L|301:112,1,62.5,4|0,3:0|0:0,0:0:0:0:
63,170,45205,2,0,L|59:37,1,125,10|2,0:0|3:2,0:0:0:0:
252,51,45631,1,4,3:0:0:0:
68,36,45844,1,4,3:0:0:0:
364,142,46056,1,8,0:0:0:0:
36,334,46269,6,0,L|30:141,1,187.5,4|0,3:0|0:0,0:0:0:0:
240,233,46695,2,0,L|244:153,1,62.5,4|0,3:0|3:0,0:0:0:0:
443,163,46907,1,8,0:0:0:0:
271,162,47120,2,0,L|266:85,1,62.5,2|0,0:0|0:0,0:0:0:0:
67,166,47333,6,0,L|60:36,1,125,4|4,3:0|3:0,0:0:0:0:
57,238,47652,1,2,3:2:0:0:
288,277,47759,2,0,L|209:273,1,62.5,8|0,0:0|0:0,0:0:0:0:
121,338,47971,2,0,L|195:337,1,62.5,4|0,3:0|0:0,0:0:0:0:
363,217,48184,6,0,P|425:213|493:128,2,168.749994850159,4|2|2,3:0|0:0|0:0,0:0:0:0:
73,197,49035,2,0,L|276:188,2,168.749994850159,4|2|2,3:0|0:0|0:0,0:0:0:0:
446,133,49886,6,0,P|394:132|309:45,2,168.749994850159,4|2|2,3:0|0:0|0:0,0:0:0:0:
264,319,50737,2,0,L|271:207,1,112.499996566773,4|0,3:0|0:0,0:0:0:0:
204,202,51056,2,0,L|213:66,1,112.499996566773,2|0,0:0|0:0,0:0:0:0:
314,91,51376,2,0,L|371:94,1,56.2499982833863,2|0,0:0|0:0,0:0:0:0:
128,216,51588,6,0,L|140:80,1,125,6|0,0:0|0:0,0:0:0:0:
349,356,51907,2,0,L|363:208,1,125,4|0,3:0|0:0,0:0:0:0:
248,226,52227,2,0,L|254:147,1,62.5,4|0,3:0|0:0,0:0:0:0:
484,216,52439,6,0,L|472:80,1,125,4|0,0:0|0:0,0:0:0:0:
260,350,52758,2,0,L|246:202,1,125,4|0,3:0|0:0,0:0:0:0:
359,229,53078,2,0,L|353:150,1,62.5,4|0,3:0|0:0,0:0:0:0:
139,162,53290,5,6,1:2:0:0:
41,159,53503,1,2,0:0:0:0:
349,158,53716,1,4,3:0:0:0:
166,144,53929,1,2,3:2:0:0:
447,299,54142,2,0,L|320:289,1,125,2|8,0:0|3:0,0:0:0:0:
387,235,54461,1,4,3:0:0:0:
49,265,54567,2,0,L|42:132,1,125,8|0,1:0|0:0,0:0:0:0:
108,140,54886,1,0,0:0:0:0:
329,116,54993,5,4,1:0:0:0:
227,98,55099,2,0,L|220:19,1,74.9999977111817,2|2,0:0|3:2,0:0:0:0:
117,18,55312,1,2,0:0:0:0:
222,178,55418,1,4,3:0:0:0:
412,300,55524,5,4,3:0:0:0:
321,288,55631,1,10,0:0:0:0:
412,300,55737,1,8,0:0:0:0:
198,278,55844,5,10,0:0:0:0:
288,237,55951,1,10,0:0:0:0:
198,278,56057,1,8,0:0:0:0:
406,101,56163,1,10,0:0:0:0:
223,70,56269,5,8,0:0:0:0:
406,101,56376,2,0,L|415:17,1,74.9999977111817,10|10,0:0|0:0,0:0:0:0:
222,19,56588,1,8,0:0:0:0:
478,138,56695,6,0,L|354:133,1,125,4|0,3:0|0:0,0:0:0:0:
43,140,57014,2,0,L|167:135,1,125,4|0,3:0|0:0,0:0:0:0:
172,71,57333,1,4,3:0:0:0:
177,13,57439,1,0,0:0:0:0:
368,251,57546,2,0,L|376:107,1,125,2|4,0:0|3:0,0:0:0:0:
486,137,57865,1,4,3:0:0:0:
296,200,57971,2,0,L|138:192,1,125,4|2,0:0|0:0,0:0:0:0:
108,187,58290,1,0,0:0:0:0:
319,327,58397,6,0,L|231:323,1,74.9999977111817,6|0,0:0|3:0,0:0:0:0:
58,224,58609,1,0,3:0:0:0:
230,219,58716,1,2,3:2:0:0:
58,224,58822,2,0,L|53:143,1,74.9999977111817,10|2,0:0|3:2,0:0:0:0:
153,125,59035,1,0,3:0:0:0:
48,91,59141,1,0,3:0:0:0:
288,92,59248,5,4,3:0:0:0:
213,90,59354,1,0,3:0:0:0:
288,92,59460,1,0,3:0:0:0:
490,308,59567,1,0,3:0:0:0:
288,286,59673,2,0,L|197:284,1,74.9999977111817,10|0,0:0|3:0,0:0:0:0:
435,234,59886,1,2,0:0:0:0:
151,235,60099,6,0,L|159:157,1,74.9999977111817,4|0,3:0|3:0,0:0:0:0:
278,184,60311,2,0,L|287:99,1,74.9999977111817,2|0,3:2|3:0,0:0:0:0:
487,179,60524,2,0,L|479:101,1,74.9999977111817,10|0,0:2|3:0,0:0:0:0:
358,128,60736,2,0,L|349:43,1,74.9999977111817,2|0,3:2|3:0,0:0:0:0:
136,314,60950,6,0,L|233:303,1,74.9999977111817,4|0,3:0|3:0,0:0:0:0:
128,272,61162,2,0,L|224:259,1,74.9999977111817,2|0,3:2|3:0,0:0:0:0:
405,240,61375,1,10,0:2:0:0:
375,165,61481,1,0,3:0:0:0:
301,123,61587,1,0,3:0:0:0:
184,106,61694,1,0,3:0:0:0:
434,368,61801,6,0,L|445:205,1,149.999995422363,4|0,3:0|3:0,0:0:0:0:
246,205,62120,1,2,3:2:0:0:
462,87,62226,2,0,L|385:79,1,74.9999977111817,8|0,0:2|3:0,0:0:0:0:
264,40,62439,2,0,L|342:33,1,74.9999977111817,2|0,3:2|3:2,0:0:0:0:
72,277,62652,6,0,L|63:190,1,74.9999977111817,4|0,3:0|3:0,0:0:0:0:
261,283,62865,2,0,L|265:207,1,74.9999977111817,2|2,3:2|3:2,0:0:0:0:
461,280,63077,2,0,L|467:195,1,74.9999977111817,10|0,0:0|3:0,0:0:0:0:
269,138,63290,2,0,L|355:136,1,74.9999977111817,2|0,3:2|3:0,0:0:0:0:
122,143,63503,6,0,L|115:58,1,74.9999977111817,4|0,3:0|3:0,0:0:0:0:
318,284,63716,2,0,L|322:203,1,74.9999977111817,2|0,0:0|3:0,0:0:0:0:
67,201,63928,6,0,L|144:201,1,74.9999977111817,10|0,0:0|3:0,0:0:0:0:
401,141,64141,2,0,L|308:139,1,74.9999977111817,2|0,3:0|3:0,0:0:0:0:
117,276,64354,5,8,0:0:0:0:
300,284,64460,1,8,0:0:0:0:
479,297,64567,2,0,L|488:206,1,74.9999977111817,4|4,3:0|3:0,0:0:0:0:
323,225,64779,1,8,0:0:0:0:
142,187,64886,1,8,0:0:0:0:
323,225,64992,1,8,0:0:0:0:
142,187,65099,1,8,0:0:0:0:
323,225,65205,6,0,L|334:69,1,149.999995422363,6|2,0:0|3:0,0:0:0:0:
228,69,65524,1,2,3:2:0:0:
431,311,65631,2,0,L|269:294,1,149.999995422363,10|0,0:0|3:0,0:0:0:0:
171,285,65950,1,0,3:0:0:0:
375,221,66056,5,4,3:0:0:0:
300,217,66162,1,0,3:0:0:0:
375,221,66269,1,0,3:0:0:0:
300,217,66375,1,4,3:0:0:0:
105,203,66482,1,10,0:0:0:0:
109,119,66694,2,0,L|115:34,1,74.9999977111817,2|2,0:0|0:0,0:0:0:0:
393,335,66907,6,0,L|397:227,1,74.9999977111817,4|0,3:0|3:0,0:0:0:0:
198,251,67120,2,0,L|293:250,1,74.9999977111817,2|4,3:2|3:0,0:0:0:0:
74,190,67333,2,0,L|157:184,1,74.9999977111817,10|0,0:2|3:0,0:0:0:0:
340,140,67545,2,0,L|255:140,1,74.9999977111817,4|0,3:0|3:0,0:0:0:0:
463,135,67758,6,0,L|467:50,1,74.9999977111817,4|0,3:0|3:0,0:0:0:0:
227,305,67971,2,0,L|140:303,1,74.9999977111817,2|0,3:2|3:0,0:0:0:0:
369,231,68184,1,10,0:2:0:0:
296,221,68290,1,0,3:0:0:0:
242,173,68396,1,0,3:0:0:0:
233,92,68503,1,0,3:0:0:0:
456,69,68609,6,0,L|290:63,1,149.999995422363,6|2,0:0|3:2,0:0:0:0:
117,58,68928,1,2,3:2:0:0:
304,248,69035,2,0,L|131:237,1,149.999995422363,8|2,0:2|3:2,0:0:0:0:
226,189,69354,1,0,3:2:0:0:
419,161,69460,6,0,L|415:71,1,74.9999977111817,4|0,3:0|3:0,0:0:0:0:
305,106,69673,2,0,L|299:20,1,74.9999977111817,2|2,3:2|3:2,0:0:0:0:
487,317,69886,1,10,0:0:0:0:
397,311,69992,1,2,3:2:0:0:
307,281,70099,1,2,3:2:0:0:
397,246,70205,1,0,3:0:0:0:
189,288,70311,6,0,L|63:281,1,74.9999977111817,2|0,0:0|3:0,0:0:0:0:
302,219,70524,1,4,3:0:0:0:
482,234,70631,1,8,0:0:0:0:
302,219,70737,6,0,L|294:128,1,74.9999977111817,2|0,1:2|3:0,0:0:0:0:
104,147,70950,1,8,0:0:0:0:
295,144,71056,1,8,0:0:0:0:
104,147,71162,6,0,L|97:62,1,74.9999977111817,8|8,1:2|0:0,0:0:0:0:
277,57,71375,1,8,0:0:0:0:
459,40,71482,1,8,0:0:0:0:
277,57,71588,1,8,1:2:0:0:
459,40,71695,1,8,0:0:0:0:
277,57,71801,1,8,0:0:0:0:
459,40,71908,1,8,0:0:0:0:
277,57,72014,6,0,L|104:52,1,137.500004196167,6|2,0:0|3:0,0:0:0:0:
127,0,72333,1,0,3:0:0:0:
328,295,72439,2,0,L|338:154,1,137.500004196167,10|0,0:0|0:0,0:0:0:0:
66,157,72865,6,0,L|214:153,1,137.500004196167,2|2,3:2|3:0,0:0:0:0:
378,143,73184,1,2,0:0:0:0:
198,93,73290,2,0,L|52:78,1,137.500004196167,8|2,0:0|3:2,0:0:0:0:
133,216,73609,1,0,3:0:0:0:
313,167,73716,6,0,L|319:73,1,68.7500020980836,4|0,3:0|3:0,0:0:0:0:
200,58,73928,2,0,L|284:53,1,68.7500020980836,2|0,3:2|3:0,0:0:0:0:
455,252,74141,2,0,L|356:245,1,68.7500020980836,10|0,0:0|3:0,0:0:0:0:
171,268,74354,2,0,L|81:257,1,68.7500020980836,2|0,3:0|3:0,0:0:0:0:
284,291,74567,6,0,L|294:199,1,68.7500020980836,4|0,3:0|3:0,0:0:0:0:
398,190,74779,2,0,L|410:93,1,68.7500020980836,2|2,3:0|0:0,0:0:0:0:
189,168,74992,2,0,P|98:147|50:50,1,206.250006294251,8|0,0:0|3:0,0:0:0:0:
294,281,75418,6,0,L|145:271,1,137.500004196167,6|2,0:0|3:0,0:0:0:0:
225,224,75737,1,0,3:0:0:0:
407,216,75843,2,0,L|414:64,1,137.500004196167,10|0,0:0|0:0,0:0:0:0:
128,218,76269,6,0,L|124:67,1,137.500004196167,4|2,3:0|3:0,0:0:0:0:
328,126,76588,1,4,3:0:0:0:
125,80,76694,2,0,L|197:72,1,68.7500020980836,8|0,0:0|3:0,0:0:0:0:
406,79,76907,2,0,L|318:69,1,68.7500020980836,2|0,3:2|3:0,0:0:0:0:
74,315,77120,6,0,L|63:159,1,137.500004196167,4|2,3:0|3:0,0:0:0:0:
140,180,77439,1,0,3:0:0:0:
312,278,77545,2,0,L|320:187,1,68.7500020980836,10|0,0:0|3:0,0:0:0:0:
207,225,77758,2,0,L|217:144,1,68.7500020980836,2|0,3:0|3:0,0:0:0:0:
403,185,77971,6,0,L|411:99,1,68.7500020980836,4|0,3:0|3:0,0:0:0:0:
164,121,78184,2,0,L|169:47,1,68.7500020980836,2|2,3:0|0:0,0:0:0:0:
458,40,78397,2,0,L|372:36,1,68.7500020980836,8|0,0:0|3:0,0:0:0:0:
221,33,78609,1,10,0:0:0:0:
37,27,78716,1,10,0:0:0:0:
221,33,78822,6,0,L|226:157,1,125,6|2,0:0|3:0,0:0:0:0:
288,161,79141,1,0,3:0:0:0:
455,181,79248,2,0,L|462:39,1,125,10|2,0:0|3:0,0:0:0:0:
402,51,79567,1,0,3:0:0:0:
216,272,79673,6,0,L|54:264,1,125,4|2,3:0|3:0,0:0:0:0:
259,203,79992,1,2,0:0:0:0:
431,294,80099,2,0,L|438:175,1,62.5,8|0,0:0|3:0,0:0:0:0:
250,148,80311,2,0,L|166:140,1,62.5,2|0,3:2|3:0,0:0:0:0:
368,89,80524,6,0,L|237:77,1,125,4|2,3:0|3:0,0:0:0:0:
178,65,80843,1,0,3:0:0:0:
349,300,80950,2,0,L|360:197,1,62.5,10|0,0:0|3:0,0:0:0:0:
458,243,81162,2,0,L|469:166,1,62.5,2|0,3:0|3:0,0:0:0:0:
257,229,81375,6,0,L|268:126,1,62.5,4|0,3:0|3:0,0:0:0:0:
366,172,81587,2,0,L|377:95,1,62.5,2|2,3:0|0:0,0:0:0:0:
94,152,81801,2,0,L|104:64,1,62.5,8|0,0:0|3:0,0:0:0:0:
270,122,82014,2,0,L|277:52,1,62.5,2|0,3:2|3:0,0:0:0:0:
25,345,82226,6,0,L|39:205,1,125,4|2,3:0|3:0,0:0:0:0:
100,224,82545,1,0,3:0:0:0:
303,286,82652,2,0,L|317:157,1,125,10|2,0:0|3:0,0:0:0:0:
41,118,83077,6,0,L|180:114,1,125,4|2,3:0|3:0,0:0:0:0:
339,105,83397,1,4,3:0:0:0:
166,114,83503,1,8,0:0:0:0:
435,55,83716,2,0,L|522:52,1,62.5,2|0,1:2|3:0,0:0:0:0:
297,223,83928,5,4,3:0:0:0:
471,169,84141,2,0,L|388:158,1,62.5,2|0,3:0|3:0,0:0:0:0:
188,141,84354,1,10,0:0:0:0:
125,137,84460,1,0,3:0:0:0:
188,141,84567,1,2,3:0:0:0:
125,137,84673,1,0,3:0:0:0:
302,82,84779,5,2,3:2:0:0:
479,69,84886,1,0,3:0:0:0:
302,82,84992,1,4,1:0:0:0:
479,69,85099,2,0,L|409:66,1,62.5,0|8,3:0|0:0,0:0:0:0:
239,181,85311,5,8,0:0:0:0:
416,154,85418,1,8,0:0:0:0:
239,181,85524,1,8,0:0:0:0:
416,154,85631,5,6,3:0:0:0:
416,154,85843,5,2,0:0:0:0:
371,104,85950,1,2,0:0:0:0:
327,49,86056,1,6,3:0:0:0:
129,351,86269,5,2,0:0:0:0:
167,293,86376,1,2,0:0:0:0:
206,242,86482,1,6,3:0:0:0:
355,254,86694,5,2,0:0:0:0:
323,195,86801,1,2,0:0:0:0:
292,139,86907,1,6,3:0:0:0:
167,166,87120,5,2,0:0:0:0:
193,119,87227,1,2,0:0:0:0:
218,67,87333,1,6,3:0:0:0:
318,331,87545,5,2,0:0:0:0:
299,286,87652,1,2,0:0:0:0:
281,242,87758,1,6,3:0:0:0:
207,341,87971,5,2,0:0:0:0:
219,301,88078,1,2,0:0:0:0:
231,252,88184,1,6,3:0:0:0:
282,211,88397,5,2,0:0:0:0:
279,169,88450,1,0,0:0:0:0:
276,128,88503,1,2,0:0:0:0:
273,88,88556,1,0,0:0:0:0:
20,95,88609,1,6,0:0:0:0:
