osu file format v14

[General]
AudioFilename: audio.ogg
AudioLeadIn: 0
PreviewTime: 57227
Countdown: 0
SampleSet: Soft
StackLeniency: 0.7
Mode: 2
LetterboxInBreaks: 0
WidescreenStoryboard: 1

[Editor]
Bookmarks: 525,26907
DistanceSpacing: 1
BeatDivisor: 4
GridSize: 32
TimelineZoom: 1.699999

[Metadata]
Title:Time Left (TV Size)
TitleUnicode:残機 (TV Size)
Artist:ZUTOMAYO
ArtistUnicode:ずっと真夜中でいいのに。
Creator:Zuid-Afrikaan
Version:Cup
Source:チェンソーマン
Tags:Chainsaw Man Ending ED 2 Two ACAね ACANE 100回嘔吐 100kai Outo ZTMY EMI Records UNIVERSAL MUSIC 河村 吉宏 Yoshihiro Kawamura 二家本 亮介 Ryosuke Nikamoto Zanki Zutto Mayonaka de Iinoni J-rock Rock JRock Japanese Anime
BeatmapID:3851113
BeatmapSetID:1871679

[Difficulty]
HPDrainRate:2
CircleSize:2.5
OverallDifficulty:5.8
ApproachRate:5.8
SliderMultiplier:1.8
SliderTickRate:1

[Events]
//Background and Video events
0,0,"94759147_p02.jpg",0,0
//Break Periods
//Storyboard Layer 0 (Background)
//Storyboard Layer 1 (Fail)
//Storyboard Layer 2 (Pass)
//Storyboard Layer 3 (Foreground)
//Storyboard Layer 4 (Overlay)
//Storyboard Sound Samples

[TimingPoints]
525,425.531914893617,4,2,0,50,1,0
27759,-100,4,2,0,60,0,0
39461,-100,4,2,0,70,0,0
48184,-100,4,2,0,50,0,0
51588,-100,4,2,0,60,0,0
54993,-100,4,2,0,80,0,0
56695,-100,4,2,0,100,0,0
58397,425.531914893617,4,2,0,90,1,1
58397,-100,4,2,0,90,0,1
65099,-100,4,2,0,90,0,0
65205,-100,4,2,0,90,0,1
71907,-100,4,2,0,90,0,0
72014,-100,4,2,0,80,0,1
78716,-100,4,2,0,80,0,0
78822,-100,4,2,0,80,0,1
85631,-100,4,2,0,50,0,0

[Colours]
Combo1 : 75,75,75
Combo2 : 255,128,128
Combo3 : 255,128,64
Combo4 : 255,26,26

[HitObjects]
201,344,525,5,4,3:0:0:0:
216,165,1163,1,2,0:0:0:0:
307,165,1376,1,2,0:0:0:0:
144,115,2014,1,2,0:0:0:0:
233,345,2227,5,4,3:0:0:0:
394,345,2865,1,2,0:0:0:0:
220,262,3503,2,0,L|211:133,1,90,2|0,0:0|0:0,0:0:0:0:
304,169,3929,5,4,3:0:0:0:
488,171,4567,1,2,0:0:0:0:
395,164,4780,1,2,0:0:0:0:
125,153,5418,1,2,0:0:0:0:
214,160,5631,6,0,L|224:48,1,90,4|2,3:0|0:0,0:0:0:0:
79,124,6269,1,2,0:0:0:0:
262,317,6695,2,0,L|441:300,1,180,2|0,0:0|0:0,0:0:0:0:
346,241,7333,6,0,P|295:211|358:118,1,180,4|4,3:0|3:0,0:0:0:0:
505,179,8184,2,0,L|503:0,1,180,8|4,0:2|3:0,0:0:0:0:
413,7,8822,1,0,3:0:0:0:
322,6,9035,5,4,3:0:0:0:
154,70,9460,1,4,3:0:0:0:
144,249,9886,1,8,0:2:0:0:
287,357,10312,1,4,3:0:0:0:
414,210,10737,6,0,P|410:155|304:93,1,180,4|4,3:0|3:0,0:0:0:0:
136,187,11588,2,0,P|132:113|237:55,1,180,8|4,0:2|3:0,0:0:0:0:
301,93,12227,1,0,3:0:0:0:
387,157,12439,6,0,P|423:117|355:15,1,180,4|4,3:0|3:0,0:0:0:0:
186,212,13290,2,0,L|376:204,1,180,8|4,0:2|3:0,0:0:0:0:
183,291,14142,6,0,P|115:268|78:156,1,180,4|4,3:0|3:0,0:0:0:0:
255,174,14993,2,0,L|459:160,1,180,10|4,0:0|3:0,0:0:0:0:
441,81,15631,1,2,0:0:0:0:
346,259,15844,6,0,L|136:255,1,180,4|4,3:0|3:0,0:0:0:0:
152,163,16695,1,10,0:0:0:0:
329,154,17120,2,0,L|335:55,1,90,4|2,3:0|0:0,0:0:0:0:
240,59,17546,6,0,L|49:42,2,180,4|4|10,3:0|3:0|0:0,0:0:0:0:
414,75,18822,1,4,3:0:0:0:
236,270,19248,6,0,L|230:162,1,90,4|2,3:0|3:2,0:0:0:0:
333,165,19673,1,4,3:0:0:0:
502,159,20099,1,10,0:0:0:0:
333,92,20524,1,4,3:0:0:0:
152,171,20950,6,0,P|82:161|52:50,1,180,4|4,3:0|3:0,0:0:0:0:
221,60,21801,2,0,L|433:52,1,180,10|4,0:0|3:0,0:0:0:0:
315,124,22439,1,2,0:0:0:0:
220,302,22652,6,0,P|162:257|220:194,1,180,4|4,3:0|3:0,0:0:0:0:
399,311,23503,2,0,L|401:199,1,90,10|2,0:2|3:2,0:0:0:0:
307,209,23929,1,4,3:0:0:0:
128,182,24354,6,0,P|122:120|238:70,1,180,4|4,3:0|3:0,0:0:0:0:
398,248,25205,2,0,L|191:242,1,180,10|4,0:2|3:0,0:0:0:0:
207,161,25844,1,0,3:2:0:0:
301,168,26056,5,4,3:0:0:0:
474,167,26482,1,4,3:0:0:0:
479,72,26694,1,0,3:0:0:0:
386,70,26907,5,8,1:0:0:0:
207,69,27759,6,0,L|6:61,2,180,6|4|10,0:0|3:0|0:0,0:0:0:0:
384,160,29035,2,0,L|391:56,1,90,4|2,3:0|3:2,0:0:0:0:
298,67,29461,6,0,L|89:60,1,180,4|4,3:0|3:0,0:0:0:0:
295,264,30312,2,0,L|390:261,2,90,10|0|4,0:0|3:0|3:0,0:0:0:0:
116,280,31163,6,0,P|116:215|215:157,1,180,4|4,3:0|3:0,0:0:0:0:
374,151,32014,1,10,0:0:0:0:
197,316,32439,2,0,L|188:210,1,90,4|2,3:0|3:2,0:0:0:0:
282,313,32865,6,0,P|332:315|396:198,1,180,4|4,3:0|3:0,0:0:0:0:
213,227,33716,2,0,P|161:152|224:96,1,180,10|4,0:0|3:0,0:0:0:0:
301,74,34354,1,2,3:2:0:0:
208,38,34567,5,4,3:0:0:0:
58,315,34993,2,0,L|262:298,1,180,4|10,3:0|0:0,0:0:0:0:
416,236,35844,2,0,L|420:115,1,90,4|2,3:0|3:2,0:0:0:0:
327,137,36269,6,0,L|109:127,1,180,4|4,3:0|3:0,0:0:0:0:
325,51,37120,1,10,0:0:0:0:
487,62,37545,1,4,3:0:0:0:
300,243,37971,5,4,3:0:0:0:
211,235,38183,1,2,3:2:0:0:
121,227,38396,1,4,3:0:0:0:
285,197,38822,2,0,P|341:141|273:64,1,180,10|4,0:0|3:0,0:0:0:0:
203,57,39461,5,6,0:0:0:0:
348,196,39886,1,2,1:2:0:0:
492,198,40312,1,2,1:2:0:0:
487,109,40524,1,2,1:2:0:0:
428,44,40737,1,2,1:2:0:0:
341,30,40950,1,2,1:2:0:0:
158,213,41376,6,0,L|150:107,1,90,6|2,0:0|3:2,0:0:0:0:
238,115,41801,1,10,0:2:0:0:
410,209,42227,2,0,P|461:158|393:95,1,180,4|10,3:0|0:0,0:0:0:0:
310,110,42865,6,0,P|233:105|180:-1,1,180,4|4,3:0|3:0,0:0:0:0:
354,318,43716,2,0,P|358:247|248:186,1,180,2|2,0:0|3:2,0:0:0:0:
185,178,44354,1,10,0:2:0:0:
342,85,44780,5,4,3:0:0:0:
187,354,45205,2,0,L|180:150,1,180,10|4,0:0|3:0,0:0:0:0:
265,161,45844,1,4,3:0:0:0:
355,148,46056,1,8,0:0:0:0:
266,90,46269,5,4,3:0:0:0:
86,313,46695,2,0,P|90:255|207:189,1,180,4|2,3:0|0:0,0:0:0:0:
274,173,47333,2,0,P|333:173|406:60,1,180,4|8,3:0|0:0,0:0:0:0:
227,308,48184,6,0,L|215:121,1,180,4|4,3:0|3:0,0:0:0:0:
380,296,49035,2,0,L|390:91,1,180,4|4,3:0|3:0,0:0:0:0:
230,105,49886,5,4,3:0:0:0:
71,93,50312,1,4,3:0:0:0:
252,193,50737,2,0,P|309:185|375:73,1,180,4|4,3:0|3:0,0:0:0:0:
286,85,51376,1,2,0:0:0:0:
195,252,51588,6,0,L|188:98,1,135,6|4,0:0|3:0,0:0:0:0:
393,247,52439,2,0,L|404:98,1,135,4|4,0:0|3:0,0:0:0:0:
219,106,53290,5,6,1:2:0:0:
56,158,53716,2,0,L|48:44,1,90,4|2,3:0|3:2,0:0:0:0:
142,254,54142,2,0,L|350:240,1,180,2|8,0:0|1:0,0:0:0:0:
159,178,54993,5,4,1:0:0:0:
11,164,55418,1,4,3:0:0:0:
206,134,55843,1,10,0:0:0:0:
303,129,56056,1,8,0:0:0:0:
327,62,56269,1,8,0:0:0:0:
299,0,56481,1,10,0:0:0:0:
210,213,56695,6,0,L|60:205,2,135,4|4|4,3:0|3:0|3:0,0:0:0:0:
441,275,57971,2,0,L|449:171,1,90,4|2,0:0|0:0,0:0:0:0:
357,165,58397,6,0,L|161:153,2,180,6|10|4,0:0|0:0|3:0,0:0:0:0:
369,64,59673,1,10,0:0:0:0:
280,51,59886,1,2,0:0:0:0:
191,45,60099,5,4,3:0:0:0:
17,110,60524,1,10,0:2:0:0:
189,211,60950,2,0,L|281:210,2,90,4|2|10,3:0|3:2|0:2,0:0:0:0:
16,247,61801,6,0,P|23:187|135:127,1,180,4|8,3:0|0:2,0:0:0:0:
282,149,62652,2,0,L|285:44,1,90,4|2,3:0|3:2,0:0:0:0:
192,62,63077,1,10,0:0:0:0:
363,58,63503,5,4,3:0:0:0:
192,285,63928,2,0,L|195:186,1,90,10|2,0:0|3:0,0:0:0:0:
287,187,64354,1,8,0:0:0:0:
468,108,64779,2,0,L|359:105,1,90,8|8,0:0|0:0,0:0:0:0:
289,240,65205,6,0,L|100:230,1,180,6|10,0:0|0:0,0:0:0:0:
289,135,66056,2,0,P|343:135|406:19,1,180,4|10,3:0|0:0,0:0:0:0:
225,219,66907,5,4,3:0:0:0:
55,181,67333,1,10,0:2:0:0:
233,115,67758,1,4,3:0:0:0:
324,110,67971,1,2,3:2:0:0:
412,102,68184,1,10,0:2:0:0:
226,335,68609,6,0,L|219:155,1,180,6|8,0:0|0:2,0:0:0:0:
390,148,69460,1,4,3:0:0:0:
225,94,69886,2,0,L|113:92,1,90,10|2,0:0|3:2,0:0:0:0:
239,34,70311,5,2,0:0:0:0:
419,68,70737,1,2,1:2:0:0:
249,188,71162,1,8,1:2:0:0:
157,195,71375,1,8,0:0:0:0:
63,200,71588,1,8,1:2:0:0:
245,321,72014,6,0,L|434:316,2,180,6|10|2,0:0|0:0|3:2,0:0:0:0:
128,325,73290,2,0,L|127:231,1,90,8|2,0:0|3:2,0:0:0:0:
219,229,73716,5,4,3:0:0:0:
389,224,74141,1,10,0:0:0:0:
402,100,74567,1,4,3:0:0:0:
241,81,74992,1,8,0:0:0:0:
421,299,75418,6,0,P|477:261|422:176,1,180,6|10,0:0|0:0,0:0:0:0:
263,165,76269,2,0,L|59:160,1,180,4|8,3:0|0:0,0:0:0:0:
170,82,76907,1,2,3:2:0:0:
262,73,77120,5,4,3:0:0:0:
277,255,77545,1,10,0:0:0:0:
454,153,77971,1,4,3:0:0:0:
372,151,78397,1,8,0:0:0:0:
288,152,78609,1,10,0:0:0:0:
193,235,78822,5,6,0:0:0:0:
18,241,79248,1,10,0:0:0:0:
193,235,79673,2,0,P|256:223|301:112,1,180,4|8,3:0|0:0,0:0:0:0:
213,120,80311,1,2,3:2:0:0:
124,119,80524,5,4,3:0:0:0:
306,85,80950,1,10,0:0:0:0:
479,212,81375,1,4,3:0:0:0:
484,122,81587,1,2,3:0:0:0:
488,32,81800,1,8,0:0:0:0:
307,289,82226,6,0,L|84:279,1,180,4|10,3:0|0:0,0:0:0:0:
304,239,83077,2,0,P|357:203|296:126,1,180,4|8,3:0|0:0,0:0:0:0:
211,109,83716,1,2,1:2:0:0:
304,53,83928,5,4,3:0:0:0:
472,295,84354,2,0,L|477:194,1,90,10|2,0:0|3:0,0:0:0:0:
303,154,84992,1,4,1:0:0:0:
214,150,85204,1,8,0:0:0:0:
124,146,85417,1,8,0:0:0:0:
218,88,85631,5,6,3:0:0:0:
218,88,86056,1,6,3:0:0:0:
363,108,86482,1,6,3:0:0:0:
363,108,86907,1,6,3:0:0:0:
185,121,87333,5,6,3:0:0:0:
185,121,87758,1,6,3:0:0:0:
363,254,88184,1,6,3:0:0:0:
452,258,88397,1,2,0:0:0:0:
353,194,88609,1,6,0:0:0:0:
