osu file format v14

[General]
AudioFilename: audio.mp3
AudioLeadIn: 0
PreviewTime: 73665
Countdown: 0
SampleSet: Soft
StackLeniency: 0.7
Mode: 0
LetterboxInBreaks: 0
WidescreenStoryboard: 1

[Editor]
DistanceSpacing: 1
BeatDivisor: 4
GridSize: 32
TimelineZoom: 3.399999

[Metadata]
Title:Tadashiku Narenai
TitleUnicode:正しくなれない
Artist:ZUTOMAYO
ArtistUnicode:ずっと真夜中でいいのに。
Creator:Ryuusei Aika
Version:Yugu's Hard
Source:映画『約束のネバーランド』
Tags:約束のネバーランド 約ネバ The Promised Neverland Movie Japanese Pop LMT Yugu Zutto Mayonaka de Iinoni. Iinoni ACAね ACA-Ne Akane Female Vocal
BeatmapID:2729249
BeatmapSetID:1316604

[Difficulty]
HPDrainRate:5
CircleSize:4
OverallDifficulty:6
ApproachRate:7
SliderMultiplier:1.8
SliderTickRate:1

[Events]
//Background and Video events
0,0,"bg.jpg",0,0
//Break Periods
//Storyboard Layer 0 (Background)
//Storyboard Layer 1 (Fail)
//Storyboard Layer 2 (Pass)
//Storyboard Layer 3 (Foreground)
//Storyboard Layer 4 (Overlay)
//Storyboard Sound Samples

[TimingPoints]
2452,521.739130434783,4,2,0,20,1,0
2973,521.739130434783,4,2,0,20,1,0
5059,535.714285714286,4,2,0,20,1,0
7201,515.021459227468,4,2,0,20,1,0
10277,-100,4,2,0,20,0,0
10291,-100,4,2,0,50,0,0
11321,524.017467248908,4,2,0,50,1,0
19668,-100,4,2,0,50,0,0
19705,-100,4,2,0,35,0,0
20753,505.689001264223,4,2,0,35,1,0
21756,-100,4,2,0,35,0,0
21764,504.201680672269,4,2,0,30,1,0
24529,-100,4,2,0,30,0,0
24537,-100,4,2,0,40,0,0
25159,-100,4,2,0,40,0,0
25167,-100,4,2,0,35,0,0
25789,-100,4,2,0,35,0,0
25797,-100,4,2,0,30,0,0
43940,-100,4,2,0,30,0,0
43948,-100,4,2,0,40,0,0
44319,-100,4,2,0,40,0,0
44327,-100,4,2,0,50,0,0
45957,-100,4,2,0,50,0,0
45965,-100,4,2,0,60,0,0
62218,-100,4,2,0,60,0,0
62226,-100,4,2,0,40,0,0
70159,-100,4,2,0,40,0,0
70167,-125,4,2,0,50,0,0
72176,-100,4,2,0,50,0,0
72184,-100,4,2,0,60,0,0
72932,-100,4,2,0,60,0,0
72940,-100,4,2,0,60,0,0
73108,-100,4,2,0,70,0,0
73192,-100,4,2,0,70,0,0
73276,-100,4,2,0,5,0,0
73688,-100,4,2,0,5,0,0
73696,-100,4,2,0,50,0,0
74192,-100,4,2,0,50,0,0
74200,-83.3333333333333,4,2,0,80,0,1
88318,-125,4,2,0,80,0,1
89319,-83.3333333333333,4,2,0,80,0,1
89327,-83.3333333333333,4,2,0,60,0,1
90327,-83.3333333333333,4,2,0,60,0,1
90335,-100,4,2,0,45,0,0
96377,-100,4,2,0,45,0,0
96385,-100,4,2,0,75,0,0
97386,-100,4,2,0,75,0,0
97394,-100,4,2,0,100,0,0

[Colours]
Combo1 : 128,128,128
Combo2 : 192,192,192

[HitObjects]
45,70,2452,5,0,0:0:0:0:
45,70,2712,1,0,0:0:0:0:
45,70,2973,2,0,P|90:74|133:87,1,90,2|0,0:0|0:0,0:0:0:0:
172,66,3364,2,0,P|238:84|300:108,1,135
337,191,4016,1,2,0:0:0:0:
232,337,4538,5,0,0:0:0:0:
232,337,4799,1,0,0:0:0:0:
232,337,5059,2,0,B|148:309|173:352|99:330,2,135,2|0|0,0:0|0:0|0:0,0:0:0:0:
311,377,6130,2,0,P|317:319|283:264,1,120,2|0,0:0|0:0,0:0:0:0:
233,243,6666,1,2,0:0:0:0:
339,95,7201,6,0,L|448:88,1,90,2|0,0:0|0:0,0:0:0:0:
469,69,7587,2,0,L|476:178,1,90
478,203,7973,1,0,0:0:0:0:
424,275,8231,2,0,L|315:282,1,90,2|0,0:0|0:0,0:0:0:0:
252,319,8746,2,0,L|245:210,1,90
222,191,9132,1,0,0:0:0:0:
222,191,9261,6,0,B|197:178|197:178|135:185,1,90,2|0,0:0|0:0,0:0:0:0:
91,192,9647,2,0,P|74:128|106:70,1,135
189,35,10291,1,2,0:0:0:0:
295,180,10806,5,0,0:0:0:0:
379,210,11063,1,0,0:0:0:0:
318,275,11321,2,0,P|306:318|305:363,1,90,4|0,0:1|0:0,0:0:0:0:
349,367,11714,2,0,L|496:343,1,135
507,258,12369,1,2,0:0:0:0:
439,91,12893,5,0,0:0:0:0:
356,54,13155,1,0,0:0:0:0:
274,91,13417,2,0,P|231:104|186:103,1,90,2|0,0:0|0:0,0:0:0:0:
166,63,13810,2,0,P|103:45|56:89,1,135
75,177,14465,2,0,P|137:194|184:150,1,135,2|0,0:1|0:0,0:0:0:0:
224,169,14989,1,0,0:0:0:0:
305,131,15251,1,0,0:0:0:0:
262,250,15513,6,0,P|254:309|245:397,2,135,4|2|2,0:0|0:0|0:0,0:0:0:0:
347,279,16561,2,0,P|342:314|336:367,1,90
380,359,16954,1,2,0:0:0:0:
380,359,17085,1,0,0:0:0:0:
444,295,17347,1,2,0:0:0:0:
408,212,17609,1,4,0:1:0:0:
256,192,17740,12,2,19705,0:0:0:0:
155,35,21764,6,0,B|134:92|134:92|159:185,1,135,2|0,3:2|0:0,0:0:0:0:
357,35,22772,2,0,B|378:92|378:92|353:185,1,135,0|0,3:2|0:0,0:0:0:0:
256,364,23780,2,0,L|256:210,1,135,2|0,3:2|0:0,0:0:0:0:
256,93,24537,1,0,0:0:0:0:
256,93,24663,1,0,0:0:0:0:
256,93,24789,2,0,P|188:91|122:104,1,135,2|0,0:0|0:0,0:0:0:0:
78,93,25293,2,2,P|76:160|89:226,1,135,2|0,0:0|0:0,0:0:0:0:
51,251,25797,6,0,B|108:252|108:252|176:289,1,135,2|0,3:2|0:0,0:0:0:0:
461,251,26806,2,0,B|404:252|404:252|335:289,1,135,2|0,0:0|0:0,0:0:0:0:
256,79,27814,2,0,L|256:251,1,135,2|0,3:2|0:0,0:0:0:0:
256,348,28570,1,0,0:0:0:0:
256,348,28696,1,2,0:0:0:0:
255,348,28822,2,0,P|286:315|325:292,1,90,2|0,0:0|0:0,0:0:0:0:
370,288,29200,1,2,0:3:0:0:
411,305,29327,1,2,0:3:0:0:
476,366,29579,1,2,0:3:0:0:
468,236,29831,5,4,0:3:0:0:
348,101,30335,1,4,0:3:0:0:
387,181,30587,2,0,P|434:108|399:29,1,180,2|0,0:0|0:0,0:0:0:0:
309,29,31343,2,0,L|199:17,1,90,4|0,0:3|0:0,0:0:0:0:
150,77,31848,5,4,0:3:0:0:
29,212,32352,1,4,0:3:0:0:
16,122,32604,2,0,P|97:151|115:235,1,180,2|2,0:0|0:0,0:0:0:0:
66,311,33360,2,0,P|109:337|165:329,1,90,10|2,0:3|0:0,0:0:0:0:
192,257,33864,5,4,0:3:0:0:
238,333,34116,2,0,P|298:303|324:242,1,135,2|0,0:0|0:0,0:0:0:0:
312,199,34621,1,0,0:0:0:0:
312,199,34747,1,0,0:0:0:0:
312,199,34873,2,0,P|314:140|323:91,1,90,4|0,0:3|0:0,0:0:0:0:
334,67,35251,2,0,P|395:71|492:41,1,135,2|0,0:0|0:0,0:0:0:0:
496,138,35881,6,0,P|458:186|440:227,1,90,4|0,0:3|0:0,0:0:0:0:
401,222,36259,2,0,P|392:282|397:327,1,90,2|0,0:0|0:0,0:0:0:0:
411,352,36637,1,0,0:0:0:0:
481,295,36890,1,4,0:3:0:0:
305,256,37394,1,4,0:3:0:0:
229,305,37646,1,0,3:0:0:0:
151,259,37898,5,4,0:3:0:0:
7,367,38402,1,4,0:3:0:0:
96,377,38654,2,0,B|109:300|31:296|44:211,1,180,2|0,0:0|0:0,0:0:0:0:
30,122,39411,2,0,P|74:127|113:149,1,90,4|0,0:3|0:0,0:0:0:0:
176,85,39915,5,4,0:3:0:0:
320,192,40419,1,4,0:3:0:0:
350,107,40671,2,0,P|264:121|230:200,1,180,2|0,0:0|0:0,0:0:0:0:
199,285,41427,2,0,P|236:309|261:346,1,90,6|2,0:3|0:0,0:0:0:0:
340,304,41932,5,4,0:3:0:0:
408,360,42184,2,0,P|466:329|478:264,1,135,2|0,0:0|0:0,0:0:0:0:
453,227,42688,1,0,0:0:0:0:
453,227,42814,1,0,0:0:0:0:
453,227,42940,2,0,P|445:183|460:140,1,90,4|0,0:3|0:0,0:0:0:0:
498,117,43318,2,0,L|343:91,1,135,2|0,0:0|0:0,0:0:0:0:
257,30,43948,6,0,L|183:36,1,60,8|8,0:3|0:3,0:0:0:0:
93,125,44453,2,0,L|19:119,1,60,0|0,1:0|1:0,0:0:0:0:
178,176,44957,2,0,P|191:249|178:323,1,150,4|0,1:3|1:0,0:0:0:0:
178,322,45461,6,0,P|249:301|369:289,1,180,0|4,0:0|0:0,0:0:0:0:
385,204,46217,2,0,P|341:193|296:187,1,90,0|0,0:0|1:0,0:0:0:0:
245,113,46721,2,0,P|176:136|91:57,1,180,2|0,0:0|0:0,0:0:0:0:
30,138,47478,1,0,1:0:0:0:
85,208,47730,1,0,0:0:0:0:
27,275,47982,6,0,P|44:358|128:363,1,180,4|0,0:3|1:0,0:0:0:0:
177,288,48738,2,0,L|360:308,1,180,2|0,0:0|0:0,0:0:0:0:
327,221,49495,1,0,1:0:0:0:
413,197,49747,1,0,0:0:0:0:
349,132,49999,5,4,0:3:0:0:
435,108,50251,2,0,P|446:55|451:10,1,90,0|0,0:0|1:0,0:0:0:0:
497,170,50755,1,0,0:0:0:0:
497,170,50881,1,0,0:0:0:0:
497,170,51007,2,0,P|508:223|513:268,1,90,4|0,0:3|0:0,0:0:0:0:
488,296,51385,2,0,B|418:288|448:336|360:320,1,135,2|0,0:0|0:0,0:0:0:0:
279,360,52016,5,4,0:3:0:0:
228,285,52268,1,0,0:0:0:0:
228,285,52394,2,0,B|158:293|188:245|100:260,1,135,2|0,0:0|0:0,0:0:0:0:
29,315,53024,2,0,P|9:275|15:231,1,90,4|0,3:0|0:0,0:0:0:0:
74,163,53528,1,8,1:3:0:0:
161,182,53780,1,12,0:3:0:0:
218,112,54032,6,0,L|322:129,1,90,4|0,0:3|0:0,0:0:0:0:
376,68,54537,1,0,1:0:0:0:
310,6,54789,2,0,L|132:35,1,180,2|0,0:0|0:0,0:0:0:0:
88,113,55545,2,0,L|192:130,1,90,0|0,1:0|0:0,0:0:0:0:
228,200,56049,6,0,B|305:191|305:191|336:208|336:208|402:201,1,180,4|0,0:3|1:0,0:0:0:0:
477,150,56806,2,0,P|487:239|477:328,1,180,2|0,0:0|0:0,0:0:0:0:
393,360,57562,1,0,1:0:0:0:
328,296,57814,1,0,0:0:0:0:
237,294,58066,6,0,P|193:302|150:314,1,90,4|0,0:3|0:0,0:0:0:0:
122,349,58444,2,0,P|79:334|35:322,1,90,2|0,0:0|0:0,0:0:0:0:
17,281,58822,1,2,0:0:0:0:
75,212,59074,2,0,P|71:166|48:67,2,135,4|2|2,0:3|0:0|0:0,0:0:0:0:
151,164,60083,5,4,0:3:0:0:
226,212,60335,1,0,0:0:0:0:
226,212,60461,2,0,P|230:166|253:67,1,135,2|2,0:0|0:0,0:0:0:0:
325,33,61091,2,0,P|389:27|419:81,1,120,4|2,3:0|0:0,0:0:0:0:
434,126,61595,2,0,P|370:120|340:177,1,135,0|0,1:0|0:0,0:0:0:0:
366,212,62100,6,0,L|373:361,1,135,4|0,0:1|0:0,0:0:0:0:
412,366,62604,1,0,1:0:0:0:
412,366,62730,1,0,1:0:0:0:
412,366,62856,1,0,1:0:0:0:
412,366,62982,1,0,1:0:0:0:
412,366,63108,1,8,1:3:0:0:
500,263,63486,1,12,0:3:0:0:
367,239,63864,1,8,0:3:0:0:
292,288,64116,6,0,L|226:279,1,45,0|0,1:0|1:0,0:0:0:0:
223,243,64369,2,2,L|157:252,1,45,0|0,3:0|0:0,0:1:0:0:
154,288,64621,1,0,3:0:0:0:
154,288,64747,2,2,L|88:279,1,45,0|0,3:0|1:0,0:1:0:0:
85,243,64999,1,0,1:0:0:0:
85,243,65125,2,2,L|-7:255,2,90,0|0|0,0:0|1:0|1:0,0:1:0:0:
129,164,65881,1,2,0:0:0:0:
68,97,66133,6,0,P|75:32|134:4,1,135,4|0,0:1|0:0,0:0:0:0:
174,25,66637,1,2,0:0:0:0:
237,193,67142,1,2,1:2:0:0:
344,111,67520,1,0,1:0:0:0:
360,243,67898,2,0,P|364:288|358:333,1,90,0|4,1:0|0:1,0:0:0:0:
271,356,68402,5,4,0:3:0:0:
271,356,68528,1,4,0:3:0:0:
271,356,68654,2,0,L|165:334,1,90,0|4,1:0|0:3,0:0:0:0:
153,303,69032,1,2,0:0:0:0:
109,315,69158,2,0,B|74:302|74:302|15:312|-9:371,2,135,2|2|2,0:0|0:0|0:0,0:0:0:0:
152,208,70167,6,2,P|297:55|319:264,1,528,4|2,3:2|0:0,0:0:0:0:
231,175,72184,6,0,P|268:136|273:189,1,135,4|0,0:1|0:0,0:0:0:0:
250,229,72688,1,0,1:0:0:0:
250,229,72856,2,0,P|226:289|221:325,1,90,0|0,0:0|1:0,0:0:0:0:
434,365,73696,5,0,0:0:0:0:
434,365,73948,1,0,0:0:0:0:
494,275,74200,6,0,B|489:201|466:235|463:172,1,107.999996704102,4|0,0:1|0:0,0:0:0:0:
480,121,74579,2,0,L|486:58,1,53.9999983520508,0|0,0:0|1:0,0:0:0:0:
391,12,74957,1,0,0:0:0:0:
302,73,75209,2,0,L|313:192,1,107.999996704102,0|4,0:0|0:3,0:0:0:0:
257,273,75713,1,0,1:0:0:0:
355,316,75965,1,0,0:0:0:0:
257,273,76217,6,0,P|199:277|122:312,1,107.999996704102,4|0,0:3|0:0,0:0:0:0:
108,325,76595,2,0,P|83:314|57:307,1,53.9999983520508,0|0,0:0|1:0,0:0:0:0:
36,201,76974,1,0,0:0:0:0:
102,115,77226,2,0,P|159:115|237:75,1,107.999996704102,0|4,0:0|0:3,0:0:0:0:
229,49,77604,1,0,0:0:0:0:
229,49,77730,1,0,1:0:0:0:
424,139,78234,6,0,P|426:217|365:265,1,161.999995056153,4|0,0:3|0:0,0:0:0:0:
314,248,78738,1,0,1:0:0:0:
336,353,78990,1,0,0:0:0:0:
230,374,79242,2,0,P|208:326|217:273,1,107.999996704102,0|4,0:0|0:3,0:0:0:0:
259,174,79747,2,0,P|281:125|272:72,1,107.999996704102,0|0,1:0|0:0,0:0:0:0:
231,38,80125,1,0,0:0:0:0:
231,38,80251,6,0,L|98:26,1,107.999996704102,4|0,0:3|0:0,0:0:0:0:
73,49,80629,2,0,L|126:53,1,53.9999983520508,0|0,0:0|1:0,0:0:0:0:
161,156,81007,1,0,0:0:0:0:
183,204,81133,1,0,1:0:0:0:
163,254,81259,2,0,L|30:242,1,107.999996704102,4|0,0:1|0:0,0:0:0:0:
17,345,81764,5,4,0:3:0:0:
17,345,82016,1,0,0:0:0:0:
121,371,82268,6,0,L|254:359,1,107.999996704102,4|0,0:1|0:0,0:0:0:0:
273,331,82646,2,0,P|300:336|325:346,1,53.9999983520508,0|0,0:0|1:0,0:0:0:0:
411,280,83024,1,0,0:0:0:0:
485,357,83276,2,0,P|502:306|517:254,1,107.999996704102,0|4,0:0|0:3,0:0:0:0:
444,174,83780,1,0,1:0:0:0:
362,103,84032,1,0,0:0:0:0:
258,136,84285,6,0,P|177:126|100:112,1,107.999996704102,4|0,0:3|0:0,0:0:0:0:
131,71,84663,2,0,L|215:61,1,53.9999983520508,0|0,0:0|1:0,0:0:0:0:
276,7,85041,1,0,0:0:0:0:
370,59,85293,2,0,L|348:197,1,107.999996704102,0|4,0:0|0:3,0:0:0:0:
380,270,85797,1,4,1:2:0:0:
281,314,86049,1,0,0:0:0:0:
372,371,86301,6,0,P|446:353|467:286,1,107.999996704102,4|0,1:0|0:0,0:0:0:0:
459,276,86679,2,0,L|405:268,1,53.9999983520508,0|0,0:0|1:0,0:0:0:0:
310,217,87058,1,0,0:0:0:0:
205,244,87310,2,0,P|131:226|110:159,1,107.999996704102,4|4,0:0|0:3,0:0:0:0:
118,149,87688,2,0,L|171:141,1,53.9999983520508,0|0,0:0|1:0,0:0:0:0:
224,133,87940,1,0,1:0:0:0:
224,133,88066,1,0,1:0:0:0:
301,54,88318,6,0,B|414:66|468:132|468:132|383:145|319:210|319:210|400:226|439:273|439:273|399:295|372:334,1,576,4|4,0:1|0:1,0:0:0:0:
203,357,90839,1,8,0:0:0:0:
129,304,91091,1,0,0:0:0:0:
129,304,91217,1,0,0:0:0:0:
129,304,91343,2,0,P|126:253|122:213,2,90,0|4|8,0:0|0:3|0:0,0:0:0:0:
242,163,92352,5,4,0:3:0:0:
68,114,92856,1,8,0:0:0:0:
124,43,93108,1,0,0:0:0:0:
124,43,93234,1,0,0:0:0:0:
124,43,93360,2,0,P|191:49|226:55,1,90,0|4,0:0|0:3,0:0:0:0:
301,71,93864,1,8,0:0:0:0:
213,52,94116,1,0,0:0:0:0:
318,24,94369,5,0,3:0:0:0:
318,24,94495,2,0,P|324:85|328:149,2,90,0|0|0,3:0|3:0|3:0,0:0:0:0:
432,94,95377,1,0,0:0:0:0:
432,94,95503,2,0,P|425:161|422:228,1,135,0|8,3:0|0:0,0:0:0:0:
432,272,96007,1,0,3:0:0:0:
311,333,96385,5,4,0:3:0:0:
221,320,96637,1,0,3:0:0:0:
173,243,96890,1,0,3:0:0:0:
263,230,97142,1,0,3:0:0:0:
311,153,97394,1,4,0:3:0:0:
221,140,97646,1,0,3:0:0:0:
173,63,97898,1,0,3:0:0:0:
263,50,98150,1,0,3:0:0:0:
