osu file format v14

[General]
AudioFilename: audio.mp3
AudioLeadIn: 0
PreviewTime: 73665
Countdown: 0
SampleSet: Soft
StackLeniency: 1
Mode: 0
LetterboxInBreaks: 0
WidescreenStoryboard: 1

[Editor]
DistanceSpacing: 1.2
BeatDivisor: 4
GridSize: 8
TimelineZoom: 2.2

[Metadata]
Title:Tadashiku Narenai
TitleUnicode:正しくなれない
Artist:ZUTOMAYO
ArtistUnicode:ずっと真夜中でいいのに。
Creator:Ryuusei Aika
Version:LMT's Normal
Source:映画『約束のネバーランド』
Tags:約束のネバーランド 約ネバ The Promised Neverland Movie Japanese Pop LMT Yugu Zutto Mayonaka de Iinoni. Iinoni ACAね ACA-Ne Akane Female Vocal
BeatmapID:2728646
BeatmapSetID:1316604

[Difficulty]
HPDrainRate:4
CircleSize:3
OverallDifficulty:4
ApproachRate:6
SliderMultiplier:1.5
SliderTickRate:1

[Events]
//Background and Video events
0,0,"bg.jpg",0,0
//Break Periods
//Storyboard Layer 0 (Background)
//Storyboard Layer 1 (Fail)
//Storyboard Layer 2 (Pass)
//Storyboard Layer 3 (Foreground)
//Storyboard Layer 4 (Overlay)
//Storyboard Sound Samples

[TimingPoints]
2452,521.739130434783,4,2,0,20,1,0
2973,521.739130434783,4,2,0,20,1,0
5059,535.714285714286,4,2,0,20,1,0
7201,515.021459227468,4,2,0,20,1,0
10277,-100,4,2,0,20,0,0
10291,-100,4,2,0,50,0,0
11321,524.017467248908,4,2,0,50,1,0
19668,-100,4,2,0,50,0,0
19705,-100,4,2,0,35,0,0
20753,505.689001264223,4,2,0,35,1,0
21756,-100,4,2,0,35,0,0
21764,504.201680672269,4,2,0,30,1,0
24529,-100,4,2,0,30,0,0
24537,-100,4,2,0,40,0,0
25159,-100,4,2,0,40,0,0
25167,-100,4,2,0,35,0,0
25789,-100,4,2,0,35,0,0
25797,-100,4,2,0,30,0,0
43940,-100,4,2,0,30,0,0
43948,-100,4,2,0,40,0,0
44319,-100,4,2,0,40,0,0
44327,-100,4,2,0,50,0,0
45957,-100,4,2,0,50,0,0
45965,-100,4,2,0,60,0,0
62218,-100,4,2,0,60,0,0
62226,-100,4,2,0,40,0,0
70159,-100,4,2,0,40,0,0
70167,-100,4,2,0,50,0,0
72176,-100,4,2,0,50,0,0
72184,-100,4,2,0,60,0,0
72932,-100,4,2,0,60,0,0
72940,-100,4,2,0,70,0,0
73192,-100,4,2,0,5,0,0
73688,-100,4,2,0,5,0,0
73696,-100,4,2,0,50,0,0
74192,-100,4,2,0,50,0,0
74200,-83.3333333333333,4,2,0,80,0,1
89319,-83.3333333333333,4,2,0,80,0,1
89327,-83.3333333333333,4,2,0,60,0,1
90327,-83.3333333333333,4,2,0,60,0,1
90335,-100,4,2,0,45,0,0
96377,-100,4,2,0,45,0,0
96385,-100,4,2,0,75,0,0
97386,-100,4,2,0,75,0,0
97394,-100,4,2,0,100,0,0

[Colours]
Combo1 : 128,128,128
Combo2 : 192,192,192

[HitObjects]
167,69,2452,6,0,P|140:82|145:146,1,75
156,201,2973,2,0,P|228:184|287:170,1,112.5,2|2,0:0|0:2,0:0:0:0:
374,195,3755,1,0,0:0:0:0:
374,195,4016,1,2,0:0:0:0:
287,317,4538,6,0,P|271:300|210:305,1,75
144,317,5059,2,0,P|180:251|215:202,1,112.5,2|2,0:0|0:2,0:0:0:0:
101,156,5862,1,0,0:0:0:0:
101,156,6130,2,0,P|120:59|136:-8,1,150,2|2,0:0|0:0,0:0:0:0:
302,30,7201,6,0,P|330:94|375:82,1,112.5,2|2,0:0|0:2,0:0:0:0:
475,36,7973,1,0,0:0:0:0:
475,36,8231,2,0,P|482:102|500:210,1,150,2|0,0:0|0:0,0:0:0:0:
379,302,9261,6,0,P|326:346|277:310,1,112.5,2|2,0:0|0:2,0:0:0:0:
179,296,10033,1,0,0:0:0:0:
179,296,10291,1,2,0:0:0:0:
97,152,10806,5,0,0:0:0:0:
172,118,11063,1,0,0:0:0:0:
249,94,11321,2,0,B|293:81|373:136|336:173|305:142,1,112.5,4|2,0:1|0:2,0:0:0:0:
443,217,12107,1,0,0:0:0:0:
443,217,12369,2,0,P|437:117|430:53,1,150,2|0,0:0|0:0,0:0:0:0:
354,231,13417,6,0,B|333:226|306:241|291:279|253:278,1,112.5,2|2,0:0|0:2,0:0:0:0:
148,226,14203,1,0,0:0:0:0:
148,226,14465,2,0,P|142:261|118:393,1,150,2|0,0:2|0:0,0:0:0:0:
51,330,15251,1,0,0:0:0:0:
51,330,15513,5,4,0:0:0:0:
19,229,15906,1,2,0:0:0:0:
64,125,16299,1,2,0:0:0:0:
136,164,16561,5,0,0:0:0:0:
205,61,16954,1,2,0:0:0:0:
91,7,17347,1,2,0:0:0:0:
91,7,17609,5,4,0:1:0:0:
256,192,18133,12,2,19705,0:0:0:0:
185,125,21764,6,0,B|214:137|173:208|113:203|132:167,1,112.5,2|0,3:2|0:0,0:0:0:0:
334,169,22772,6,0,B|378:173|377:222|378:254|349:254,1,112.5,0|0,3:2|0:0,0:0:0:0:
338,47,23780,6,0,B|363:13|449:34|431:73,1,112.5,2|0,3:2|0:0,0:0:0:0:
232,109,24789,5,2,0:0:0:0:
79,45,25293,1,2,0:0:0:0:
24,200,25797,2,0,B|66:223|143:215|136:155|89:187,1,112.5,2|0,3:2|0:0,0:0:0:0:
319,231,26806,6,0,B|289:232|258:255|248:289|200:279,1,112.5,2|0,0:0|0:0,0:0:0:0:
373,142,27814,6,0,B|407:134|472:134|506:135,1,112.5,2|0,3:2|0:0,0:0:0:0:
294,55,28822,5,2,0:0:0:0:
191,184,29327,5,0,0:0:0:0:
191,184,29579,1,0,0:0:0:0:
191,184,29831,1,4,0:3:0:0:
292,321,30335,1,4,0:3:0:0:
292,321,30587,1,2,0:2:0:0:
439,247,31091,1,0,0:0:0:0:
439,247,31343,1,4,0:3:0:0:
439,247,31595,1,0,0:0:0:0:
439,247,31848,5,4,0:3:0:0:
227,117,32604,1,2,0:0:0:0:
87,204,33108,1,2,0:0:0:0:
87,204,33360,1,10,0:3:0:0:
6,66,33864,5,4,0:3:0:0:
6,66,34116,1,2,0:2:0:0:
163,16,34621,1,2,0:2:0:0:
163,16,34873,5,4,0:3:0:0:
264,86,35251,1,2,0:2:0:0:
372,26,35629,1,2,0:2:0:0:
372,26,35881,5,4,0:3:0:0:
475,94,36259,1,2,0:2:0:0:
402,193,36637,1,2,0:2:0:0:
402,193,36890,5,4,0:3:0:0:
469,343,37394,1,4,0:3:0:0:
247,365,37898,5,4,0:3:0:0:
93,319,38402,1,4,0:3:0:0:
93,319,38654,1,2,0:2:0:0:
47,176,39158,1,0,0:0:0:0:
47,176,39411,1,4,0:3:0:0:
47,176,39663,1,2,0:2:0:0:
47,176,39915,5,4,0:3:0:0:
288,121,40671,1,2,0:0:0:0:
431,201,41175,1,2,0:2:0:0:
431,201,41427,1,6,0:3:0:0:
286,280,41932,5,4,0:3:0:0:
286,280,42184,1,2,0:2:0:0:
136,210,42688,1,2,0:2:0:0:
136,210,42940,5,4,0:3:0:0:
104,90,43318,1,2,0:2:0:0:
206,21,43696,1,2,0:2:0:0:
206,21,43948,6,0,P|257:32|327:50,1,112.5,8|0,0:3|0:0,0:0:0:0:
412,123,44705,1,0,0:0:0:0:
412,123,44957,2,0,P|399:178|385:279,1,150,4|0,1:3|0:0,0:0:0:0:
228,220,45965,6,0,B|196:215|159:229|129:256|74:250,1,150,4|0,0:0|1:0,0:0:0:0:
35,183,46721,1,2,0:2:0:0:
148,63,47226,5,0,0:0:0:0:
229,50,47478,1,0,1:0:0:0:
304,84,47730,1,0,0:0:0:0:
334,160,47982,2,0,P|376:221|454:217,1,150,4|0,0:3|1:0,0:0:0:0:
498,157,48738,1,2,0:2:0:0:
449,314,49242,5,0,0:0:0:0:
372,345,49495,1,0,1:0:0:0:
289,338,49747,1,0,0:0:0:0:
230,279,49999,1,4,0:3:0:0:
204,200,50251,1,2,0:2:0:0:
127,53,50755,5,2,0:2:0:0:
62,103,51007,2,0,P|46:173|29:236,1,112.5,4|0,0:3|0:0,0:0:0:0:
101,317,51764,5,0,0:0:0:0:
181,301,52016,2,0,B|213:296|244:331|252:353|294:360,1,112.5,4|2,0:3|0:2,0:0:0:0:
387,300,52772,1,0,0:0:0:0:
387,300,53024,2,0,P|378:244|283:236,1,150,4|8,3:0|1:3,0:0:0:0:
226,76,54032,6,0,P|176:67|57:50,1,150,4|0,0:3|1:0,0:0:0:0:
14,105,54789,1,2,0:2:0:0:
164,172,55293,5,0,0:0:0:0:
246,163,55545,2,0,P|288:149|333:144,1,75,0|0,1:0|0:0,0:0:0:0:
399,156,56049,2,0,P|437:217|378:258,1,150,4|0,0:3|1:0,0:0:0:0:
304,245,56806,1,2,0:2:0:0:
168,339,57310,5,0,0:0:0:0:
85,345,57562,1,0,1:0:0:0:
26,287,57814,1,0,0:0:0:0:
14,205,58066,5,2,0:2:0:0:
114,132,58444,1,2,0:2:0:0:
209,211,58822,1,2,0:2:0:0:
275,162,59074,5,2,0:2:0:0:
371,240,59453,1,2,0:2:0:0:
473,171,59831,1,2,0:2:0:0:
473,171,60083,6,0,P|464:235|460:307,1,112.5,4|2,0:3|0:2,0:0:0:0:
344,325,60839,1,2,0:2:0:0:
344,325,61091,2,0,P|292:315|173:303,1,150,4|0,3:0|1:0,0:0:0:0:
37,257,62100,1,4,0:1:0:0:
48,47,63108,5,8,1:3:0:0:
48,47,63360,1,0,0:0:0:0:
48,47,63612,1,0,0:0:0:0:
48,47,63864,1,8,0:3:0:0:
193,124,64369,1,0,0:0:0:0:
333,37,64873,1,0,1:0:0:0:
333,37,65125,5,0,0:0:0:0:
476,118,65629,1,0,1:0:0:0:
353,228,66133,1,4,0:1:0:0:
25,183,67142,5,2,1:2:0:0:
259,38,68150,5,4,0:1:0:0:
259,38,70167,6,0,P|254:133|249:286,1,200,4|2,3:2|0:0,0:0:0:0:
352,198,71175,1,2,0:0:0:0:
445,256,71511,1,2,0:0:0:0:
412,361,71848,1,2,0:0:0:0:
302,363,72184,1,4,0:1:0:0:
189,241,72688,6,0,P|130:241|47:251,1,125,0|0,1:0|1:0,0:0:0:0:
77,64,73696,5,0,0:0:0:0:
77,64,73948,1,0,0:0:0:0:
77,64,74200,2,0,B|123:60|156:106|163:129|206:125,1,134.999995880127,4|2,0:1|0:2,0:0:0:0:
321,49,74957,1,2,0:2:0:0:
321,49,75209,2,0,P|310:108|297:240,1,179.999994506836,2|0,0:2|1:0,0:0:0:0:
388,178,75965,1,0,0:0:0:0:
478,196,76217,6,0,P|415:216|431:290,1,134.999995880127,4|2,0:3|0:2,0:0:0:0:
287,345,76974,1,2,0:2:0:0:
287,345,77226,2,0,P|337:354|476:376,1,179.999994506836,2|0,0:0|1:0,0:0:0:0:
309,243,78234,5,4,0:3:0:0:
173,302,78612,1,2,0:2:0:0:
81,184,78990,1,2,0:2:0:0:
138,103,79242,5,2,0:2:0:0:
138,103,79495,1,4,0:3:0:0:
138,103,79747,1,0,1:0:0:0:
332,67,80251,6,0,B|378:69|408:101|424:136|472:125,1,134.999995880127,4|2,0:3|0:2,0:0:0:0:
305,159,81007,1,0,0:0:0:0:
305,159,81259,2,0,P|279:247|264:342,1,179.999994506836,4|4,0:1|0:3,0:0:0:0:
94,232,82268,6,0,B|143:208|155:138|108:114|86:130,1,134.999995880127,4|2,0:1|0:2,0:0:0:0:
13,8,83024,1,2,0:2:0:0:
13,8,83276,2,0,P|14:89|18:205,1,179.999994506836,2|0,0:2|1:0,0:0:0:0:
19,286,84032,1,0,0:0:0:0:
100,342,84285,6,0,P|146:330|251:322,1,134.999995880127,4|2,0:3|0:2,0:0:0:0:
343,222,85041,1,2,0:2:0:0:
343,222,85293,2,0,P|361:281|366:330,1,89.9999972534181,2|4,0:2|3:0,0:0:0:0:
454,350,85797,1,4,1:2:0:0:
478,153,86301,5,4,1:0:0:0:
360,61,86679,1,2,0:2:0:0:
221,115,87058,1,2,0:2:0:0:
244,211,87310,5,4,0:0:0:0:
111,277,87688,1,2,0:2:0:0:
5,173,88066,1,2,0:2:0:0:
90,123,88318,5,4,0:1:0:0:
256,192,88822,12,4,90335,0:1:0:0:
207,117,92352,6,0,P|191:211|180:283,1,150,4|8,0:3|0:0,0:0:0:0:
347,263,93360,1,0,0:0:0:0:
347,263,93612,2,0,B|383:264|420:285|431:322|469:315,1,112.5,4|4,0:3|0:3,0:0:0:0:
460,189,94369,6,0,P|453:123|437:24,1,150,0|8,3:0|0:0,0:0:0:0:
240,71,95377,1,0,0:0:0:0:
240,71,95629,2,0,B|207:74|173:92|161:132|83:116,1,150,4|0,0:3|0:0,0:0:0:0:
27,157,96385,6,2,P|61:234|82:309,1,150,4|0,0:3|0:0,0:0:0:0:
151,338,97142,1,0,0:0:0:0:
232,352,97394,1,0,0:0:0:0:
308,321,97646,1,0,0:0:0:0:
362,259,97898,1,0,0:0:0:0:
349,177,98150,1,0,0:0:0:0:
