osu file format v14

[General]
AudioFilename: audio.mp3
AudioLeadIn: 0
PreviewTime: 73665
Countdown: 0
SampleSet: None
StackLeniency: 1
Mode: 0
LetterboxInBreaks: 0
WidescreenStoryboard: 0

[Editor]
DistanceSpacing: 1.2
BeatDivisor: 4
GridSize: 8
TimelineZoom: 1.1

[Metadata]
Title:Tadashiku Narenai
TitleUnicode:正しくなれない
Artist:ZUTOMAYO
ArtistUnicode:ずっと真夜中でいいのに。
Creator:Ryuusei Aika
Version:Beyond
Source:映画『約束のネバーランド』
Tags:約束のネバーランド 約ネバ The Promised Neverland Movie Japanese Pop LMT Yugu Zutto Mayonaka de Iinoni. Iinoni ACAね ACA-Ne Akane Female Vocal
BeatmapID:2728065
BeatmapSetID:1316604

[Difficulty]
HPDrainRate:5.5
CircleSize:4
OverallDifficulty:6.7
ApproachRate:8.3
SliderMultiplier:2.4
SliderTickRate:1

[Events]
//Background and Video events
0,0,"bg.jpg",0,0
//Break Periods
//Storyboard Layer 0 (Background)
//Storyboard Layer 1 (Fail)
//Storyboard Layer 2 (Pass)
//Storyboard Layer 3 (Foreground)
//Storyboard Layer 4 (Overlay)
//Storyboard Sound Samples

[TimingPoints]
2452,521.739130434783,4,2,0,20,1,0
2452,-200,4,2,0,20,0,0
2973,521.739130434783,4,2,0,20,1,0
2973,-200,4,2,0,20,0,0
5059,535.714285714286,4,2,0,20,1,0
5059,-200,4,2,0,20,0,0
7201,515.021459227468,4,2,0,20,1,0
7201,-200,4,2,0,20,0,0
10291,-166.666666666667,4,2,0,50,0,0
11321,524.017467248908,4,2,0,20,1,0
11321,-125,4,2,0,50,0,0
19705,-200,4,2,0,35,0,0
20753,505.689001264223,4,2,0,20,1,0
20753,-100,4,2,0,35,0,0
21764,504.201680672269,4,2,0,20,1,0
21764,-125,4,2,0,30,0,0
24537,-83.3333333333333,4,2,0,40,0,0
25167,-166.666666666667,4,2,0,35,0,0
25797,-125,4,2,0,30,0,0
29831,-166.666666666667,4,2,0,30,0,0
43948,-166.666666666667,4,2,0,40,0,0
44327,-100,4,2,0,50,0,0
45965,-125,4,2,0,60,0,0
53780,-83.3333333333333,4,2,0,60,0,0
54032,-125,4,2,0,60,0,0
56806,-100,4,2,0,60,0,0
62226,-100,4,2,0,40,0,0
66133,-133.333333333333,4,2,0,40,0,0
70167,-133.333333333333,4,2,0,50,0,0
72184,-100,4,2,0,60,0,0
72688,-80,4,2,0,60,0,0
72856,-100,4,2,0,60,0,0
73108,-66.6666666666667,4,2,0,70,0,0
73276,-66.6666666666667,4,2,0,5,0,0
73696,-200,4,2,0,50,0,0
74200,-80,4,2,0,80,0,1
74264,-80,4,2,0,80,0,0
81764,-200,4,2,0,80,0,0
82268,-80,4,2,0,80,0,1
82331,-80,4,2,0,80,0,0
88318,-200,4,2,0,80,0,0
89327,-100,4,2,0,60,0,0
89705,-133.333333333333,4,2,0,60,0,0
90335,-200,4,2,0,45,0,0
92352,-166.666666666667,4,2,0,45,0,0
94369,-142.857142857143,4,2,0,45,0,0
95377,-125,4,2,0,45,0,0
96385,-100,4,2,0,75,0,0
97394,-100,4,2,0,100,0,0

[Colours]
Combo1 : 128,128,128
Combo2 : 192,192,192

[HitObjects]
432,10,2452,6,0,P|409:29|363:47,1,60
288,0,2973,6,0,P|301:23|309:52,1,60,2|0,0:0|0:0,0:0:0:0:
311,71,3364,2,0,P|332:10|331:-30,1,90
373,116,4016,1,2,0:0:0:0:
364,130,4538,6,0,L|355:202,1,60
215,201,5059,2,0,B|242:195|242:195|302:138,2,90,2|0|0,0:0|0:0|0:0,0:0:0:0:
271,276,6130,2,0,P|293:287|275:263,1,80,2|0,0:0|0:0,0:0:0:0:
265,361,6666,6,0,P|328:354|368:311,1,120,2|2,0:0|0:0,0:0:0:0:
188,287,7587,2,0,B|167:297|144:296|144:296|168:297|188:318,1,90
69,314,8231,2,0,P|87:344|95:386,1,60,2|0,0:0|0:0,0:0:0:0:
91,244,8746,2,0,P|84:274|57:311,1,60
69,298,9132,1,0,0:0:0:0:
69,298,9261,6,0,L|-4:309,1,60,2|0,0:0|0:0,0:0:0:0:
9,229,9647,2,0,L|108:213,1,90
177,278,10291,2,2,B|167:267|167:267|176:156|176:156|151:180,1,143.999995605469,2|0,0:0|0:0,0:0:0:0:
102,126,11063,2,0,L|129:103,1,35.9999989013672
219,36,11321,5,4,0:1:0:0:
270,120,11714,1,0,0:0:0:0:
147,5,12107,1,0,0:0:0:0:
208,56,12369,2,0,B|275:43|275:43|320:60|360:37,1,144,2|0,0:0|0:0,0:0:0:0:
342,49,12893,2,0,P|313:30|346:37,1,96
421,92,13417,6,0,P|434:30|425:0,1,96,2|0,0:0|0:0,0:0:0:0:
409,84,13810,2,0,B|418:151|418:151|426:159|426:159|435:224,1,144
458,358,14465,2,0,P|447:309|388:316,1,96,2|0,0:1|0:0,0:0:0:0:
288,358,14989,2,0,B|362:380|362:380|380:375,1,96
293,217,15513,6,0,L|176:238,1,96,4|0,0:0|0:0,0:0:0:0:
274,206,15906,2,0,L|339:298,1,96,2|0,0:0|0:0,0:0:0:0:
329,284,16299,1,2,0:0:0:0:
174,242,16561,2,0,P|199:198|196:140,1,96
103,273,16954,2,0,P|148:286|181:319,1,96,2|0,0:0|0:0,0:0:0:0:
190,341,17347,1,2,0:0:0:0:
12,347,17609,6,0,B|39:299|22:255|22:255|58:223|44:166,1,192,4|0,0:1|0:0,0:0:0:0:
50,44,18395,2,0,L|79:91,1,48
88,104,18657,1,2,0:1:0:0:
88,104,18788,2,0,L|131:21,1,48,2|0,0:1|0:0,0:0:0:0:
131,37,19050,1,0,0:0:0:0:
131,37,19181,2,0,L|246:19,1,96,2|0,0:0|0:0,0:0:0:0:
356,2,19705,5,2,0:0:0:0:
268,143,20065,2,0,B|278:75|278:75|291:57,1,90,2|2,0:0|0:0,0:0:0:0:
349,11,20753,1,2,0:0:0:0:
290,383,21764,5,2,3:2:0:0:
226,343,22142,2,0,L|236:292,1,48
235,295,22772,5,0,3:2:0:0:
178,208,23150,2,0,L|169:256,1,48
184,192,23444,6,0,L|267:184,1,64
329,225,23780,5,2,3:2:0:0:
265,185,24032,1,0,0:0:0:0:
265,185,24158,2,0,L|275:134,1,48
360,52,24537,6,2,L|288:61,1,71.9999978027344,0|0,0:0|0:0,0:0:0:0:
177,81,24789,1,2,0:0:0:0:
177,81,25167,5,0,0:0:0:0:
186,91,25293,2,2,P|208:55|213:22,1,71.9999978027344,2|0,0:0|0:0,0:0:0:0:
97,62,25797,6,0,B|95:148|142:118|139:227,1,143.999995605469,2|0,3:2|0:0,0:0:0:0:
83,79,26301,1,0,0:0:0:0:
67,265,26806,6,0,B|70:185|23:215|25:129,1,143.999995605469,2|0,0:0|0:0,0:0:0:0:
15,144,27310,2,0,P|29:213|58:216,1,96
50,234,27688,1,0,0:0:0:0:
58,252,27814,6,0,B|197:273|197:273|245:266|245:266|200:244,1,240,2|0,3:2|0:0,0:0:0:0:
184,239,28570,2,0,L|188:214,2,24
108,341,28822,6,0,L|202:318,1,96,2|0,0:0|0:0,0:0:0:0:
265,358,29200,1,0,0:0:0:0:
276,345,29327,2,0,B|293:319|293:319|285:269|285:269|303:283,1,96
457,365,29831,5,4,0:3:0:0:
438,292,30335,2,0,P|427:269|426:297,1,71.9999978027344,4|0,0:3|0:0,0:0:0:0:
457,365,30839,5,4,0:3:0:0:
401,315,31343,2,0,P|427:296|470:291,1,71.9999978027344,4|0,0:3|0:0,0:0:0:0:
465,373,31848,5,4,0:3:0:0:
465,373,32226,1,0,0:0:0:0:
465,373,32352,2,0,L|483:287,1,71.9999978027344,4|2,0:3|0:0,0:0:0:0:
462,370,32856,5,4,0:3:0:0:
461,369,33108,2,0,L|420:379,1,35.9999989013672,2|0,0:0|0:0,0:0:0:0:
462,370,33360,2,0,L|396:311,1,71.9999978027344,10|2,0:3|0:0,0:0:0:0:
326,356,33864,6,0,P|330:316|344:283,1,71.9999978027344,4|0,0:3|0:0,0:0:0:0:
354,280,34242,1,0,0:0:0:0:
341,274,34369,2,0,P|302:305|256:298,1,71.9999978027344,4|0,0:3|0:0,0:0:0:0:
205,336,34747,1,0,0:0:0:0:
205,336,34873,2,0,L|216:235,1,71.9999978027344,4|0,0:3|0:0,0:0:0:0:
126,218,35251,2,0,L|133:289,1,71.9999978027344
133,289,35629,1,0,0:0:0:0:
197,192,35881,6,0,B|208:129|208:129|205:111|169:104,1,107.999996704102,4|0,0:3|0:0,0:0:0:0:
276,173,36385,2,0,P|310:160|334:132,1,71.9999978027344,4|0,0:3|0:0,0:0:0:0:
169,103,36890,2,0,L|289:78,1,107.999996704102,4|0,0:3|0:0,0:0:0:0:
349,56,37394,2,0,P|302:5|233:11,1,143.999995605469,4|4,0:3|0:3,0:0:0:0:
50,104,38276,5,0,0:0:0:0:
63,110,38402,2,0,L|55:181,1,71.9999978027344,4|0,0:3|0:0,0:0:0:0:
70,6,38906,2,0,P|86:26|62:15,1,71.9999978027344,4|0,0:3|0:0,0:0:0:0:
137,84,39411,2,0,B|160:201|160:201|150:241,1,143.999995605469,4|4,0:3|0:3,0:0:0:0:
30,328,40293,5,0,0:0:0:0:
33,314,40419,2,0,B|66:299|66:299|116:304,1,71.9999978027344,4|2,0:3|0:0,0:0:0:0:
221,260,40923,2,2,B|154:358|154:358|119:380,1,143.999995605469,6|6,0:3|0:3,0:0:0:0:
233,275,41679,2,0,L|293:264,1,35.9999989013672,2|0,0:0|0:0,0:0:0:0:
342,254,41932,6,0,P|366:211|320:171,1,107.999996704102,4|0,0:3|0:0,0:0:0:0:
345,161,42436,1,4,0:3:0:0:
251,80,42688,1,0,0:0:0:0:
255,97,42814,1,0,0:0:0:0:
259,114,42940,2,0,L|345:77,1,71.9999978027344,4|0,0:3|0:0,0:0:0:0:
352,16,43318,2,0,L|438:50,1,71.9999978027344
435,50,43696,1,0,0:0:0:0:
192,30,43948,5,8,0:3:0:0:
121,49,44116,1,8,0:3:0:0:
217,60,44327,6,0,L|211:110,1,30
211,101,44453,1,0,1:0:0:0:
159,152,44621,1,0,1:0:0:0:
147,264,44873,6,0,L|143:231,1,20,0|0,1:0|0:0,0:0:0:0:
141,223,44957,1,4,1:3:0:0:
89,172,45125,1,4,0:3:0:0:
0,266,45293,6,0,P|-1:285|6:303,1,40,2|0,0:0|1:0,0:0:0:0:
69,341,45461,2,0,P|79:313|77:284,1,60,0|2,0:0|0:0,0:0:0:0:
199,317,45776,6,0,L|245:308,1,30,2|0,0:0|0:0,0:0:0:0:
346,289,45965,5,4,0:0:0:0:
278,366,46217,2,0,P|325:379|380:346,1,96,0|0,0:0|1:0,0:0:0:0:
278,366,46721,2,0,P|308:303|297:225,1,144
283,218,47226,1,0,0:0:0:0:
185,70,47478,6,0,L|175:141,1,48,0|0,1:0|0:0,0:0:0:0:
175,149,47730,1,0,0:0:0:0:
122,246,47982,2,0,B|187:234|187:234|210:214,1,96,4|0,0:3|0:0,0:0:0:0:
55,208,48486,1,0,1:0:0:0:
227,297,48738,5,0,0:0:0:0:
78,341,48990,2,0,L|190:354,1,96,4|0,0:3|0:0,0:0:0:0:
91,362,49369,1,0,0:0:0:0:
91,362,49495,2,0,P|88:313|113:269,1,96,0|0,1:0|0:0,0:0:0:0:
256,136,49999,2,0,P|286:119|263:145,1,96,4|0,0:3|0:0,0:0:0:0:
118,93,50503,6,0,P|166:95|206:70,1,96,0|0,1:0|0:0,0:0:0:0:
269,57,50881,1,0,0:0:0:0:
276,42,51007,2,0,P|320:54|353:89,1,96,4|0,0:3|0:0,0:0:0:0:
346,104,51385,1,0,0:0:0:0:
281,25,51511,2,0,P|247:-6|200:-16,1,96,0|0,1:0|0:0,0:0:0:0:
61,5,52016,5,4,0:3:0:0:
26,114,52268,1,0,0:0:0:0:
26,114,52394,2,0,L|16:59,1,48,0|0,0:0|1:0,0:0:0:0:
135,16,52772,1,0,0:0:0:0:
86,161,53024,6,0,L|61:278,1,96,4|0,3:0|0:0,0:0:0:0:
109,158,53402,1,0,0:0:0:0:
109,158,53528,2,0,L|99:103,1,48,8|0,1:3|0:0,0:0:0:0:
145,262,53780,2,2,P|133:299|108:324,1,71.9999978027344,12|0,0:3|0:0,0:0:0:0:
114,326,54032,6,0,B|226:333|226:333|273:357,1,144,4|0,0:3|0:0,0:0:0:0:
270,355,54537,2,0,L|263:292,1,48,0|0,1:0|0:0,0:0:0:0:
235,147,54789,2,0,P|261:224|331:201,1,144
311,220,55293,2,0,L|251:223,1,48
388,231,55545,6,0,B|380:167|380:167|360:143,1,96,0|0,1:0|0:0,0:0:0:0:
395,336,56049,2,0,B|426:316|426:316|466:217,1,144,4|0,0:3|0:0,0:0:0:0:
395,336,56553,1,0,1:0:0:0:
486,141,56806,6,0,P|470:88|353:65,1,180
341,71,57310,2,0,P|313:82|256:88,1,60
180,15,57562,2,0,P|208:24|265:27,1,60,0|0,1:0|0:0,0:0:0:0:
307,0,57814,1,0,0:0:0:0:
180,15,58066,6,0,P|150:86|133:153,1,120,4|0,0:3|0:0,0:0:0:0:
60,109,58444,2,0,P|64:147|74:180,1,60,0|0,0:0|1:0,0:0:0:0:
82,186,58696,1,0,0:0:0:0:
82,186,58822,2,0,P|105:216|130:240,1,60
45,319,59074,6,0,P|121:309|188:290,1,120,4|0,0:3|0:0,0:0:0:0:
185,375,59453,1,0,0:0:0:0:
185,375,59579,2,0,P|215:352|239:327,1,60,0|0,1:0|0:0,0:0:0:0:
320,301,59831,2,0,P|311:329|300:357,1,60
233,254,60083,6,0,P|196:211|213:138,1,120,4|0,0:3|0:0,0:0:0:0:
218,141,60461,2,0,B|318:166|268:201|380:238,1,180
440,330,61091,6,0,P|452:291|458:242,1,80,4|2,3:0|0:0,0:0:0:0:
424,343,61427,5,2,0:0:0:0:
365,128,61595,6,0,P|370:199|398:284,1,120,0|0,1:0|0:0,0:0:0:0:
494,384,62100,1,4,0:1:0:0:
458,193,62604,5,0,1:0:0:0:
451,156,62730,1,0,1:0:0:0:
458,193,62856,1,0,1:0:0:0:
451,156,62982,1,0,1:0:0:0:
458,193,63108,5,8,1:3:0:0:
299,76,63486,1,12,0:3:0:0:
124,170,63864,1,8,0:3:0:0:
230,45,64116,5,0,1:0:0:0:
160,71,64242,2,0,P|186:120|201:194,1,120,0|0,1:0|0:0,0:0:0:0:
148,84,64621,1,0,3:0:0:0:
79,66,64747,2,0,B|52:50|52:50|100:40,1,60,0|0,3:0|1:0,0:0:0:0:
19,119,64999,5,0,1:0:0:0:
19,119,65125,2,0,B|33:169|33:169|27:178|27:178|34:237,1,120,0|0,0:0|1:0,0:0:0:0:
137,353,65629,1,0,1:0:0:0:
60,339,65755,2,0,P|96:286|170:281,1,120,0|0,1:0|0:0,0:0:0:0:
281,378,66133,6,0,B|297:333|329:313|329:313|354:278|321:177,1,180.000006866455,4|0,0:1|0:0,0:0:0:0:
264,186,66806,5,2,0:0:0:0:
218,247,66974,5,2,0:0:0:0:
281,303,67142,5,2,1:2:0:0:
281,303,67205,2,0,P|326:309|378:279,1,101.250003862381,0|0,1:0|0:0,0:0:0:0:
412,351,67646,2,0,P|424:263|471:211,1,135.000005149841
482,159,68150,6,0,P|505:146|496:171,1,67.5000025749207,4|0,0:1|1:0,0:0:0:0:
490,38,68486,5,0,1:0:0:0:
488,55,68570,5,0,1:0:0:0:
486,72,68654,6,0,L|418:83,1,60.0000022888184,0|8,1:0|0:3,0:0:0:0:
354,57,68906,1,4,0:3:0:0:
354,57,69032,1,0,0:0:0:0:
354,57,69158,2,0,L|327:211,1,135.000005149841
182,163,69915,2,0,L|241:153,1,45.0000017166138
246,153,70167,6,0,P|263:101|162:97,1,180.000006866455,4|0,3:2|0:0,0:0:0:0:
110,307,70839,1,2,0:0:0:0:
64,182,71007,1,2,0:0:0:0:
51,257,71175,1,2,0:0:0:0:
195,205,71343,1,2,0:0:0:0:
136,156,71511,1,2,0:0:0:0:
181,280,71679,1,2,0:0:0:0:
50,173,71848,2,0,L|41:98,1,60.0000022888184,2|2,0:0|0:0,0:0:0:0:
119,324,72184,6,0,B|167:380|233:337|233:337|278:304,1,180.000006866455,4|0,0:1|0:0,0:0:0:0:
370,227,72688,6,0,L|420:233,1,50,0|0,1:0|0:0,0:0:0:0:
300,204,72856,2,0,P|267:207|287:234,1,80
458,297,73108,2,2,P|488:262|477:187,1,120.000004577637,0|0,1:0|0:0,0:0:0:0:
317,2,73696,6,0,L|280:-1,1,30
194,42,73948,2,0,L|231:39,1,30
328,17,74200,6,0,P|276:102|200:164,1,150,4|0,0:1|0:0,0:0:0:0:
177,198,74579,1,0,0:0:0:0:
164,123,74705,2,0,P|209:177|263:306,1,150,0|0,1:0|0:0,0:0:0:0:
304,191,75083,1,0,1:0:0:0:
246,248,75209,2,0,P|177:244|76:212,1,150,0|4,0:0|0:3,0:0:0:0:
240,348,75713,2,0,P|303:308|373:283,1,150,0|0,1:0|0:0,0:0:0:0:
37,275,76217,6,0,P|18:209|18:97,1,150,4|0,0:3|0:0,0:0:0:0:
67,17,76595,1,0,0:0:0:0:
114,75,76721,2,0,P|107:107|83:155,1,75,0|0,1:0|0:0,0:0:0:0:
57,25,76974,1,0,0:0:0:0:
124,67,77100,1,0,1:0:0:0:
196,85,77226,2,0,P|275:78|346:54,1,150,0|4,0:0|0:3,0:0:0:0:
402,6,77604,1,0,0:0:0:0:
418,78,77730,2,0,P|390:152|349:214,1,150,0|0,1:0|0:0,0:0:0:0:
184,234,78234,6,0,P|201:169|274:171,1,150,4|0,0:3|0:0,0:0:0:0:
331,224,78612,1,0,0:0:0:0:
308,300,78738,2,0,P|281:323|232:331,1,75,0|0,1:0|0:0,0:0:0:0:
382,287,78990,2,0,P|379:322|350:362,1,75,0|0,0:0|1:0,0:0:0:0:
362,359,79242,2,0,P|438:358|479:280,1,150,0|4,0:0|0:3,0:0:0:0:
222,323,79747,2,0,P|150:313|113:250,1,150,0|0,1:0|0:0,0:0:0:0:
149,181,80125,1,0,0:0:0:0:
197,242,80251,6,0,B|200:178|220:129|220:129|184:79,1,150,4|0,0:3|0:0,0:0:0:0:
11,62,80629,1,0,0:0:0:0:
71,106,80755,2,0,B|98:91|124:87|124:87|138:59,1,75,0|0,1:0|0:0,0:0:0:0:
18,46,81007,1,0,0:0:0:0:
3,135,81133,1,0,1:0:0:0:
43,214,81259,2,0,B|65:277|124:276|124:276|171:239|154:171,1,225,4|0,0:1|0:0,0:0:0:0:
9,302,81764,6,2,B|0:325|-19:334|-19:334|-3:317|22:318,1,90,4|0,0:3|0:0,0:0:0:0:
123,275,82268,6,0,B|165:241|226:265|226:265|290:293|344:240,1,225,4|0,0:1|0:0,0:0:0:0:
180,339,82772,2,0,P|214:354|264:355,1,75,0|0,1:0|0:0,0:0:0:0:
387,304,83024,2,0,P|405:272|402:212,1,75,0|0,0:0|1:0,0:0:0:0:
247,155,83276,2,0,P|266:224|355:243,1,150,0|4,0:0|0:3,0:0:0:0:
152,178,83780,1,0,1:0:0:0:
152,178,83906,2,0,P|166:141|172:105,1,75,0|0,3:0|0:0,0:0:0:0:
119,52,84158,1,0,0:0:0:0:
49,25,84285,6,0,B|161:-4|161:-4|208:8,1,150,4|0,0:3|0:0,0:0:0:0:
319,39,84663,1,0,0:0:0:0:
246,58,84789,2,0,B|276:169|276:169|300:194,1,150,0|0,1:0|0:0,0:0:0:0:
379,181,85167,1,0,1:0:0:0:
318,298,85293,2,0,B|288:247|288:247|313:134|313:134|359:102,1,225
238,313,85797,2,0,B|209:330|209:330|149:337|98:295,1,150,4|0,1:2|0:0,0:0:0:0:
39,341,86175,1,0,0:0:0:0:
39,341,86301,6,0,P|69:274|80:168,1,150,4|0,1:0|0:0,0:0:0:0:
16,67,86679,2,0,P|20:106|35:154,1,75,0|0,0:0|1:0,0:0:0:0:
94,184,86932,1,0,0:0:0:0:
102,107,87058,2,0,P|128:80|159:59,1,75,0|4,0:0|3:0,0:0:0:0:
298,0,87310,5,4,0:0:0:0:
298,0,87436,2,0,P|269:19|221:25,1,75,0|4,0:0|0:3,0:0:0:0:
368,32,87688,1,0,0:0:0:0:
388,109,87814,1,0,1:0:0:0:
343,180,87940,2,0,P|311:194|255:199,1,75,0|0,1:0|0:0,0:0:0:0:
392,113,88192,1,0,0:0:0:0:
458,80,88318,6,0,P|487:144|445:257,1,180,4|0,0:1|0:0,0:0:0:0:
456,245,89200,1,0,0:0:0:0:
456,245,89327,2,2,L|392:240,1,60,2|2,0:1|0:1,0:1:0:0:
302,291,89705,5,0,0:0:0:0:
310,307,89831,2,2,L|374:302,1,45.0000017166138,2|0,0:0|0:0,0:0:0:0:
383,320,90083,1,2,0:0:0:0:
137,358,90335,6,0,P|128:294|176:281,1,120,4|8,0:1|0:0,0:0:0:0:
189,285,91091,2,0,L|181:233,1,30
240,343,91343,2,0,L|235:372,2,30,0|0|4,0:0|0:0|0:3,0:0:0:0:
134,194,91848,1,8,0:0:0:0:
122,184,92100,2,0,L|114:132,1,30
103,54,92352,6,0,L|16:72,2,71.9999978027344,4|0|8,0:3|0:0|0:0,0:0:0:0:
173,98,93108,1,0,0:0:0:0:
173,98,93234,1,0,0:0:0:0:
201,22,93486,1,0,0:0:0:0:
206,5,93612,2,0,L|255:10,1,35.9999989013672,4|0,0:3|0:0,0:0:0:0:
330,61,93864,2,0,P|349:90|358:112,1,35.9999989013672,8|4,0:0|0:3,0:0:0:0:
312,44,94116,1,0,0:0:0:0:
452,29,94369,5,0,3:0:0:0:
497,20,94495,1,0,3:0:0:0:
425,102,94747,2,0,P|452:113|480:112,1,41.9999987182618,0|8,3:0|0:0,0:0:0:0:
422,183,94999,1,0,3:0:0:0:
389,176,95125,1,0,3:0:0:0:
357,188,95251,6,0,P|362:217|377:241,1,41.9999987182618,0|0,3:0|0:0,0:0:0:0:
385,259,95503,1,0,3:0:0:0:
385,259,95629,2,0,L|374:306,1,48,4|0,0:3|0:0,0:0:0:0:
330,369,95881,1,8,0:0:0:0:
310,341,96007,2,0,B|238:350|238:350|217:338,1,96,0|0,3:0|0:0,0:0:0:0:
200,240,96385,6,2,B|159:236|132:233|68:102|10:121|-13:188|-43:227|-3:308|90:340|142:171|179:185|168:124,2,480,4|0|0,0:3|0:0|0:0,0:0:0:0:
