osu file format v14

[General]
AudioFilename: audio.mp3
AudioLeadIn: 0
PreviewTime: 55295
Countdown: 0
SampleSet: Soft
StackLeniency: 0.4
Mode: 0
LetterboxInBreaks: 0
WidescreenStoryboard: 1

[Editor]
Bookmarks: 27385,46012,83389,109947,179906,201791,232406
DistanceSpacing: 1.3
BeatDivisor: 7
GridSize: 16
TimelineZoom: 2.5

[Metadata]
Title:Seigi
TitleUnicode:正義
Artist:ZUTOMAYO
ArtistUnicode:ずっと真夜中でいいのに。
Creator:Ilay
Version:Advanced
Source:
Tags:j-pop Ima wa Ima de Chikai wa Emi de 今は今で誓いは笑みで aca-ne justice acaね acane agatsu japanese pop Zutto Mayonaka de Ii no ni. always midnight
BeatmapID:3065051
BeatmapSetID:1403009

[Difficulty]
HPDrainRate:4
CircleSize:3.5
OverallDifficulty:6
ApproachRate:7.2
SliderMultiplier:1.5
SliderTickRate:1

[Events]
//Background and Video events
0,0,"BG.png",0,0
Video,-621,"video.mp4"
//Break Periods
2,199455,206454
//Storyboard Layer 0 (Background)
//Storyboard Layer 1 (Fail)
//Storyboard Layer 2 (Pass)
//Storyboard Layer 3 (Foreground)
//Storyboard Layer 4 (Overlay)
//Storyboard Sound Samples

[TimingPoints]
1773,491.803278688525,4,2,1,35,1,0
2539,472.44094488189,4,2,1,35,1,0
3304,740.740740740742,4,2,1,35,1,0
4554,740.740740740742,4,2,1,35,1,0
4776,740.740740740742,4,2,1,35,1,0
6285,491.803278688525,4,2,1,35,1,0
7775,491.803278688525,4,2,1,35,1,0
8543,480,4,2,1,35,1,0
9281,779.22077922078,4,2,1,35,1,0
10508,779.22077922078,4,2,1,35,1,0
10783,491.803278688525,4,2,1,35,1,0
12815,431.654676258993,4,2,1,35,1,0
13628,431.654676258993,4,2,1,35,1,0
14136,491.803278688525,4,2,1,35,1,0
20439,491.803278688525,4,2,1,45,1,0
36176,-100,4,2,1,50,0,0
51914,-100,4,2,1,35,0,0
55848,-83.3333333333333,4,2,1,75,0,1
75520,-90.9090909090909,4,2,1,65,0,0
91258,-90.9090909090909,4,2,1,75,0,0
106996,-90.9090909090909,4,2,1,45,0,0
110930,-100,4,2,1,45,0,0
122734,-100,4,2,1,50,0,0
144373,-83.3333333333333,4,2,1,75,0,1
164045,-90.9090909090909,4,2,1,75,0,0
179783,-90.9090909090909,4,2,1,65,0,0
193553,-90.9090909090909,4,2,1,75,0,0
207324,-100,4,2,1,45,0,0
214701,-83.3333333333333,4,2,2,65,0,0
215193,-83.3333333333333,4,2,1,75,0,1
234865,-90.9090909090909,4,2,1,75,0,0

[Colours]
Combo1 : 201,30,4
Combo2 : 125,219,255
Combo3 : 251,148,13
Combo4 : 249,205,176
SliderBorder : 250,250,250
SliderTrackOverride : 0,0,20

[HitObjects]
505,32,20439,6,0,P|471:14|436:19,1,75,2|0,1:2|1:0,2:0:0:0:
454,114,20930,2,0,L|438:201,1,75,10|0,2:0|1:0,2:0:0:0:
366,252,21422,1,2,1:2:0:0:
284,197,21668,1,10,2:0:0:0:
154,342,22160,1,2,2:0:0:0:
68,295,22406,6,0,P|64:254|53:217,1,75,2|2,1:2|1:2,2:0:0:0:
140,174,22898,2,0,P|143:133|154:96,1,75,10|2,2:0|1:2,2:0:0:0:
232,44,23389,1,2,1:2:0:0:
317,91,23635,1,2,1:2:0:0:
399,38,23881,2,0,B|442:30|442:30|460:55,1,75,10|2,2:0|2:0,2:0:0:0:
446,152,24373,6,0,L|432:225,1,75,2|0,1:2|1:0,2:0:0:0:
458,319,24865,1,10,2:0:0:0:
295,211,25357,2,0,P|260:192|221:196,1,75,2|8,1:2|2:0,2:0:0:0:
154,260,25848,1,2,2:0:0:0:
37,103,26340,6,0,P|88:75|146:81,1,112.5,2|2,1:2|1:2,2:0:0:0:
188,90,26832,2,0,P|227:94|263:75,1,75,10|2,2:0|2:0,2:0:0:0:
345,123,27324,1,10,3:0:0:0:
418,59,27570,1,10,3:0:0:0:
484,242,28061,1,2,1:2:0:0:
444,331,28307,6,0,P|404:334|370:313,1,75,2|0,1:2|1:0,2:0:0:0:
317,238,28799,2,0,P|277:234|243:255,1,75,10|0,2:0|1:0,2:0:0:0:
190,329,29291,1,2,1:2:0:0:
95,303,29537,1,10,2:0:0:0:
215,149,30029,1,2,1:2:0:0:
174,60,30275,6,0,P|140:39|100:42,1,75,2|0,1:2|1:0,2:0:0:0:
22,90,30766,1,10,2:0:0:0:
76,170,31012,1,2,1:2:0:0:
25,253,31258,2,0,L|41:340,1,75,2|2,1:2|1:2,2:0:0:0:
120,380,31750,1,10,2:0:0:0:
188,311,31996,1,2,2:0:0:0:
270,363,32242,6,0,B|321:377|348:332|328:340|356:295|407:308,1,150,2|10,1:2|2:0,2:0:0:0:
506,143,33225,2,0,B|454:157|427:112|447:120|419:75|368:88,1,150,2|2,1:2|2:0,2:0:0:0:
201,1,34209,6,2,B|190:57|190:57|193:60|193:60|183:117,1,112.5,2|0,1:2|1:0,2:0:0:0:
173,170,34701,1,2,1:2:0:0:
97,241,34947,1,10,2:0:0:0:
141,335,35193,5,2,2:0:0:0:
498,179,36176,5,6,2:0:0:0:
442,99,36422,1,0,2:0:0:0:
357,147,36668,2,0,L|270:131,1,75,2|0,2:0|1:0,2:0:0:0:
202,78,37160,2,0,P|163:72|130:88,1,75,10|0,2:0|2:0,2:0:0:0:
118,184,37652,2,0,P|102:216|106:253,1,75,2|0,2:0|2:0,2:0:0:0:
169,328,38143,6,0,B|202:331|227:306|212:312|235:286|270:290,1,112.5,2|0,1:2|2:0,2:0:0:0:
317,307,38635,1,2,2:0:0:0:
403,351,38881,1,2,2:0:0:0:
481,293,39127,6,0,B|490:243|490:243|479:237|464:225,1,75,10|2,2:0|2:0,2:0:0:0:
410,151,39619,1,2,2:0:0:0:
255,32,40111,5,2,1:2:0:0:
185,99,40357,2,0,L|98:83,1,75,2|2,2:0|2:0,2:0:0:0:
24,130,40848,1,2,1:2:0:0:
9,226,41094,5,10,2:0:0:0:
95,269,41340,1,2,2:0:0:0:
162,200,41586,1,2,2:0:0:0:
248,242,41832,1,2,2:0:0:0:
320,176,42078,6,0,B|348:181|348:181|348:178|348:178|395:187|395:187|394:189|394:189|423:194,1,112.5,2|2,1:2|2:0,2:0:0:0:
471,205,42570,2,0,P|488:237|483:274,1,75,2|0,2:0|1:0,2:0:0:0:
410,339,43061,1,10,2:0:0:0:
331,281,43307,6,0,B|270:264|239:317|262:308|229:361|169:345,1,187.5,0|0,3:2|3:2,3:2:0:0:
143,303,44045,6,0,P|153:267|156:230,1,75,14|0,2:0|2:0,2:0:0:0:
78,170,44537,2,0,P|105:145|128:115,1,75,2|0,2:0|1:0,2:0:0:0:
178,31,45029,1,10,2:0:0:0:
259,85,45275,1,2,1:2:0:0:
345,40,45520,2,0,P|406:59|407:125,1,112.5,2|2,2:0|1:2,2:0:0:0:
401,147,46012,5,2,1:2:0:0:
485,196,46258,1,2,2:0:0:0:
423,271,46504,1,2,2:0:0:0:
339,222,46750,1,2,1:2:0:0:
283,302,46996,6,0,B|207:314|207:314|185:283,1,112.5,10|0,2:0|2:0,2:0:0:0:
158,245,47488,1,2,1:2:0:0:
249,73,47979,5,2,1:2:0:0:
334,25,48225,1,2,2:0:0:0:
425,58,48471,2,0,L|436:131,1,75,2|2,2:0|1:2,2:0:0:0:
501,206,48963,1,10,2:0:0:0:
451,290,49209,1,2,2:0:0:0:
355,270,49455,2,0,P|321:255|284:261,1,75,10|10,2:0|2:0,2:0:0:0:
199,310,49947,6,0,L|185:384,2,75,2|0|2,1:2|2:0|2:0,2:0:0:0:
149,225,50684,1,2,1:2:0:0:
228,168,50930,2,0,P|224:132|215:90,1,75,10|0,2:0|2:0,2:0:0:0:
290,29,51422,1,10,2:0:0:0:
364,92,51668,2,0,L|419:82,1,37.5,8|8,2:0|2:0,2:0:0:0:
449,78,51914,1,2,1:2:0:0:
510,275,55848,6,0,P|471:254|428:260,1,90,6|2,1:2|2:0,2:0:0:0:
342,341,56340,2,0,P|298:347|259:326,1,90,2|8,1:2|2:0,2:0:0:0:
318,225,56832,2,0,P|321:179|331:135,1,90,2|2,1:2|2:0,2:0:0:0:
215,117,57324,2,0,P|211:161|201:205,1,90,2|10,1:2|2:0,2:0:0:0:
102,268,57816,5,6,2:0:0:0:
18,186,58061,2,0,P|24:157|25:141,1,45,2|10,2:0|2:0,2:0:0:0:
25,82,58307,1,2,1:2:0:0:
111,2,58553,1,10,2:0:0:0:
223,33,58799,6,0,B|272:25|317:16|317:16|328:38|346:51,1,135,2|10,1:2|2:0,2:0:0:0:
395,70,59291,1,2,1:2:0:0:
464,164,59537,1,10,2:0:0:0:
377,242,59783,6,0,B|349:244|330:224|342:228|323:208|295:211,1,90,6|0,2:0|2:0,2:0:0:0:
247,244,60152,1,10,2:0:0:0:
247,244,60275,2,0,P|257:287|260:332,1,90,0|8,1:0|2:0,2:0:0:0:
151,374,60766,2,0,L|62:360,1,90,2|2,1:2|2:0,2:0:0:0:
0,260,61258,1,2,1:2:0:0:
94,191,61504,1,10,2:0:0:0:
33,90,61750,6,0,P|69:70|115:75,1,90,6|2,2:0|2:0,2:0:0:0:
210,5,62242,2,0,P|240:33|249:79,1,90,6|2,2:0|2:0,2:0:0:0:
345,147,62734,2,0,P|327:184|286:207,1,90,6|0,1:2|2:0,2:0:0:0:
169,218,63225,2,0,L|159:166,2,44.999998626709,2|10|8,1:2|0:0|0:0,0:0:0:0:
157,334,63717,6,0,P|200:322|245:318,1,90,6|2,1:2|2:0,2:0:0:0:
351,268,64209,2,0,P|394:278|439:284,1,90,2|8,1:2|2:0,2:0:0:0:
508,188,64701,2,0,P|514:144|493:105,1,90,2|2,1:2|2:0,2:0:0:0:
438,1,65193,2,0,P|394:-5|355:16,1,90,2|2,1:2|1:2,2:0:0:0:
305,122,65684,6,0,P|261:111|216:107,1,90,2|0,1:2|2:0,2:0:0:0:
123,35,66176,1,2,1:2:0:0:
48,125,66422,1,10,2:0:0:0:
141,198,66668,2,0,B|162:238|129:268|132:250|99:282|120:322,1,135,2|10,1:2|2:0,2:0:0:0:
159,365,67160,1,2,1:2:0:0:
259,304,67406,1,10,2:0:0:0:
363,355,67652,6,0,P|406:361|446:340,1,90,2|2,1:2|2:0,2:0:0:0:
475,291,68020,1,8,2:0:0:0:
475,291,68143,2,0,L|459:203,1,90,2|10,1:2|2:0,2:0:0:0:
465,85,68635,2,0,B|423:52|371:68|371:68|362:90|344:99,1,135,2|10,1:2|2:0,2:0:0:0:
290,93,69127,1,0,1:2:0:0:
204,12,69373,1,10,2:0:0:0:
101,69,69619,6,0,P|110:108|117:157,1,90,0|2,1:0|2:0,2:0:0:0:
117,220,69988,1,8,2:0:0:0:
117,220,70111,2,0,P|152:242|197:234,1,90,2|10,1:2|2:0,2:0:0:0:
287,159,70602,2,0,B|274:203|313:225|306:208|344:232|333:276,1,135,2|10,1:2|2:0,2:0:0:0:
313,331,71094,1,2,1:2:0:0:
419,379,71340,1,2,2:0:0:0:
511,307,71586,6,0,L|497:218,1,90,6|2,2:0|2:0,2:0:0:0:
486,164,71955,1,10,2:0:0:0:
486,164,72078,1,0,1:0:0:0:
398,86,72324,1,10,2:0:0:0:
304,155,72570,6,0,P|260:161|220:140,1,90,2|2,1:2|2:0,2:0:0:0:
174,33,73061,2,0,P|130:26|90:47,1,90,8|8,2:0|2:0,2:0:0:0:
27,146,73553,6,0,P|37:189|41:234,1,90,2|2,1:2|2:0,2:0:0:0:
44,297,73922,1,8,2:0:0:0:
44,297,74045,2,0,P|77:319|124:313,1,90,2|10,1:2|2:0,2:0:0:0:
233,267,74537,2,0,P|276:260|314:283,1,90,2|2,1:2|1:2,2:0:0:0:
357,333,74906,1,2,2:0:0:0:
357,333,75029,2,0,P|367:261|380:200,1,135,2|0,1:2|2:0,2:0:0:0:
397,149,75520,6,0,P|369:94|310:84,1,123.75,6|8,2:0|2:0,2:0:0:0:
270,118,76012,1,0,1:0:0:0:
176,65,76258,1,10,2:0:0:0:
83,119,76504,2,0,P|96:184|103:246,1,123.75,2|8,1:2|2:0,2:0:0:0:
109,294,76996,2,0,P|140:314|184:309,1,82.5,2|8,1:0|2:0,2:0:0:0:
254,229,77488,6,0,P|288:207|328:213,1,82.5,2|2,1:2|2:0,2:0:0:0:
380,241,77857,1,10,2:0:0:0:
380,241,77979,1,0,2:0:0:0:
453,162,78225,1,10,2:0:0:0:
382,81,78471,2,0,P|387:29|398:-21,2,82.5,2|0|2,1:2|2:0|1:2,2:0:0:0:
179,153,79455,6,0,B|140:155|115:128|131:133|105:106|67:110,1,123.75,2|10,1:2|2:0,2:0:0:0:
17,132,79947,1,0,1:0:0:0:
81,217,80193,1,10,2:0:0:0:
3,291,80439,2,0,P|-5:345|61:379,1,123.75,2|10,1:2|2:0,2:0:0:0:
98,367,80930,2,0,L|179:354,1,82.5,0|10,1:0|2:0,2:0:0:0:
261,283,81422,6,0,P|306:283|341:294,1,82.5,2|2,1:2|2:0,2:0:0:0:
424,226,81914,2,0,P|429:186|407:152,1,82.5,2|10,1:2|2:0,2:0:0:0:
361,136,82283,1,2,2:0:0:0:
361,136,82406,2,0,B|322:134|297:161|313:156|287:183|249:179,1,123.75,2|8,1:2|2:0,2:0:0:0:
198,159,82898,1,2,2:0:0:0:
129,77,83143,1,2,2:0:0:0:
206,2,83389,6,0,P|267:15|328:21,1,123.75,6|10,1:2|2:0,2:0:0:0:
381,19,83881,1,0,1:0:0:0:
458,93,84127,1,10,2:0:0:0:
370,155,84373,2,0,B|342:174|342:174|351:220|358:263,1,123.75,2|10,1:2|2:0,2:0:0:0:
362,317,84865,2,0,P|328:338|288:333,1,82.5,0|10,1:0|2:0,2:0:0:0:
221,248,85357,6,0,L|139:265,1,82.5,2|2,1:2|2:0,2:0:0:0:
91,280,85725,1,10,2:0:0:0:
91,280,85848,1,0,2:0:0:0:
17,201,86094,1,10,2:0:0:0:
88,120,86340,2,0,P|130:129|169:130,1,82.5,2|2,1:2|2:0,2:0:0:0:
252,62,86832,1,2,1:2:0:0:
353,97,87078,2,0,L|365:154,1,41.25,2|10,2:0|2:0,2:0:0:0:
396,178,87324,6,0,B|398:217|371:242|376:226|349:252|353:290,1,123.75,6|8,1:2|2:0,2:0:0:0:
363,342,87816,1,0,1:2:0:0:
269,289,88061,1,2,2:0:0:0:
186,357,88307,2,0,P|125:344|63:337,1,123.75,10|10,2:0|2:0,2:0:0:0:
9,335,88799,1,0,1:0:0:0:
81,255,89045,1,0,2:0:0:0:
18,167,89291,6,0,P|12:125|29:90,1,82.5,2|2,2:0|1:2,2:0:0:0:
90,1,89783,2,0,P|129:16|150:49,1,82.5,0|2,2:0|2:0,2:0:0:0:
156,107,90152,1,8,2:0:0:0:
156,107,90275,2,0,B|175:134|175:134|221:125|264:118,1,123.75,2|0,1:2|2:0,2:0:0:0:
304,83,90766,6,0,L|365:93,1,41.25,2|0,1:2|2:0,2:0:0:0:
373,136,91012,2,0,L|434:125,1,41.25,2|0,1:2|2:0,2:0:0:0:
467,121,91258,6,0,P|472:78|481:33,2,82.5,6|2|2,2:0|2:0|1:2,2:0:0:0:
511,218,91996,1,8,2:0:0:0:
440,299,92242,2,0,B|401:304|361:312|361:312|347:298|329:283,1,123.75,2|8,1:2|2:0,2:0:0:0:
296,240,92734,1,2,1:2:0:0:
196,200,92979,1,10,2:0:0:0:
126,281,93225,6,0,P|134:323|140:368,2,82.5,6|2|2,1:2|2:0|1:2,2:0:0:0:
41,213,93963,1,8,2:0:0:0:
62,107,94209,2,0,P|82:104|102:99,1,41.25,2|8,1:2|2:0,2:0:0:0:
156,89,94455,1,2,2:0:0:0:
241,153,94701,2,0,P|283:158|328:167,1,82.5,2|10,1:2|2:0,2:0:0:0:
410,104,95193,6,0,P|413:61|424:16,2,82.5,6|2|0,1:2|2:0|1:2,2:0:0:0:
476,188,95930,1,8,2:0:0:0:
424,281,96176,2,0,P|366:268|303:257,1,123.75,2|8,1:2|2:0,2:0:0:0:
248,246,96668,1,2,1:2:0:0:
165,313,96914,1,10,2:0:0:0:
68,266,97160,6,0,P|55:185|39:103,1,165,6|6,1:2|1:2,2:0:0:0:
227,1,98143,2,0,B|266:-1|291:26|275:21|301:48|339:44,1,123.75,6|8,1:2|2:0,2:0:0:0:
387,19,98635,1,6,1:2:0:0:
475,79,98881,2,0,L|467:119,1,41.25,8|0,2:0|2:0,2:0:0:0:
454,172,99127,6,0,P|466:235|476:299,1,123.75,6|0,1:2|2:0,2:0:0:0:
484,347,99619,2,0,B|466:362|452:376|452:376|412:368|373:363,1,123.75,2|0,1:2|2:0,2:0:0:0:
330,329,100111,2,0,P|285:338|240:345,1,82.5,2|2,1:2|2:0,2:0:0:0:
149,383,100602,1,2,1:2:0:0:
60,315,100848,1,10,2:0:0:0:
105,217,101094,6,0,L|88:127,1,82.5,2|2,1:2|2:0,2:0:0:0:
68,30,101586,2,0,L|157:13,1,82.5,2|10,1:2|2:0,2:0:0:0:
205,5,101955,1,2,2:0:0:0:
205,5,102078,2,0,B|222:40|206:73|205:56|190:91|209:124,1,123.75,2|8,1:2|2:0,2:0:0:0:
251,157,102570,1,2,1:2:0:0:
348,111,102816,2,0,L|388:119,1,41.25,8|8,2:0|2:0,2:0:0:0:
441,129,103061,5,2,1:2:0:0:
504,215,103307,1,2,1:2:0:0:
442,301,103553,2,0,P|403:304|365:286,1,82.5,0|10,2:0|2:0,2:0:0:0:
308,194,104045,1,2,1:2:0:0:
246,281,104291,1,2,1:2:0:0:
145,248,104537,2,0,P|129:212|135:170,1,82.5,2|10,1:2|2:0,2:0:0:0:
208,91,105029,5,2,1:2:0:0:
314,74,105275,1,2,1:0:0:0:
401,137,105520,1,10,0:2:0:0:
418,241,105766,2,0,P|409:279|381:310,1,82.5,8|2,2:0|1:2,2:0:0:0:
276,338,106258,1,2,1:0:0:0:
186,279,106504,2,0,B|146:277|122:305|138:299|112:327|74:323,1,123.75,6|0,2:0|2:0,2:0:0:0:
27,298,106996,1,0,2:0:0:0:
33,16,110930,6,0,P|38:52|46:94,1,75,2|2,2:0|2:0,2:0:0:0:
11,181,111422,1,10,2:0:0:0:
88,240,111668,1,2,2:0:0:0:
167,185,111914,1,2,2:0:0:0:
275,347,112406,2,0,L|353:333,1,75,8|0,2:0|2:0,2:0:0:0:
445,322,112898,6,0,P|460:292|458:252,1,75,2|2,2:0|2:0,2:0:0:0:
366,219,113389,2,0,P|350:189|352:149,1,75,10|2,2:0|2:0,2:0:0:0:
430,89,113881,1,2,2:0:0:0:
383,3,114127,1,2,2:0:0:0:
293,42,114373,2,0,P|242:31|182:22,1,112.5,10|0,2:0|0:0,2:0:0:0:
134,32,114865,6,0,B|167:86|116:132|116:132|152:144|152:144|88:204|135:286,1,300,2|0,2:0|2:0,2:0:0:0:
224,310,116094,2,0,P|260:302|303:296,1,75,2|8,2:0|2:0,2:0:0:0:
379,349,116586,2,0,P|394:319|392:279,1,75,2|2,2:0|2:0,2:0:0:0:
293,110,117324,6,0,L|184:89,1,75,10|2,2:0|2:0,2:0:0:0:
142,34,117816,1,2,2:0:0:0:
67,96,118061,1,2,2:0:0:0:
115,180,118307,2,0,P|107:217|100:256,1,75,10|2,2:0|2:0,2:0:0:0:
151,337,118799,6,0,B|186:340|208:315|194:320|218:296|252:301,1,112.5,2|0,2:0|2:0,2:0:0:0:
294,328,119291,1,10,2:0:0:0:
377,277,119537,1,2,2:0:0:0:
330,191,119783,2,0,P|337:154|344:117,1,75,2|2,2:0|2:0,2:0:0:0:
359,20,120275,1,2,2:0:0:0:
164,5,120766,5,2,1:2:0:0:
89,185,121258,1,2,1:2:0:0:
237,311,121750,1,2,1:2:0:0:
505,27,122734,5,4,1:2:0:0:
441,100,122979,1,0,2:0:0:0:
351,62,123225,2,0,P|313:56|267:48,1,75,2|0,1:2|2:0,2:0:0:0:
192,0,123717,2,0,B|173:22|156:39|156:39|166:88|172:136,1,150,2|2,1:2|1:2,2:0:0:0:
163,330,124701,6,0,P|199:334|233:318,1,75,2|0,1:2|2:0,2:0:0:0:
297,244,125193,1,2,1:2:0:0:
386,283,125439,1,2,2:0:0:0:
460,220,125684,2,0,P|449:189|448:147,1,75,2|2,2:0|2:0,2:0:0:0:
476,53,126176,2,0,P|445:63|403:64,1,75,2|0,2:0|2:0,2:0:0:0:
312,26,126668,5,2,1:2:0:0:
243,95,126914,1,2,2:0:0:0:
167,33,127160,2,0,B|147:29|131:40|131:40|120:24|101:21,1,75,2|2,1:2|2:0,2:0:0:0:
7,52,127652,1,2,1:2:0:0:
26,147,127898,1,2,2:0:0:0:
119,174,128143,2,0,P|113:211|105:258,1,75,2|2,1:2|2:0,2:0:0:0:
167,325,128635,6,0,B|214:329|243:295|225:302|257:269|303:276,1,150,2|2,1:2|1:2,2:0:0:0:
485,347,129619,2,0,P|502:312|499:275,1,75,2|0,1:2|2:0,2:0:0:0:
428,210,130111,2,0,P|414:141|401:62,1,150,0|2,1:2|1:2,2:0:0:0:
316,15,130848,5,2,2:0:0:0:
231,63,131094,2,0,P|196:56|157:49,1,75,2|0,1:2|0:0,2:0:0:0:
71,98,131586,2,0,P|55:130|60:168,1,75,2|2,1:2|2:0,2:0:0:0:
121,243,132078,1,2,1:2:0:0:
61,320,132324,1,2,2:0:0:0:
136,382,132570,6,0,P|175:372|213:367,1,75,2|0,1:2|2:0,2:0:0:0:
236,274,133061,2,0,P|273:279|309:288,1,75,2|0,1:2|2:0,2:0:0:0:
392,340,133553,1,2,1:2:0:0:
470,282,133799,1,0,2:0:0:0:
430,192,134045,2,0,L|449:78,1,112.5,2|0,1:2|0:0,2:0:0:0:
458,32,134537,6,0,P|424:15|386:18,1,75,2|2,1:2|2:0,2:0:0:0:
319,88,135029,1,2,1:2:0:0:
235,37,135275,1,2,2:0:0:0:
158,97,135520,2,0,P|124:113|87:110,1,75,2|2,1:2|2:0,2:0:0:0:
44,23,136012,1,2,1:2:0:0:
76,215,136504,6,0,B|85:269|85:269|63:301|63:301|72:355,1,150,2|0,1:2|1:2,2:0:0:0:
168,376,137242,1,0,2:0:0:0:
229,300,137488,2,0,B|277:292|329:281|329:281|340:310|369:318,1,150,0|0,1:2|1:2,2:0:0:0:
458,324,138225,1,2,2:0:0:0:
510,241,138471,1,6,2:0:0:0:
256,192,140439,12,2,143389,2:0:0:0:
504,58,144373,6,0,P|465:37|422:43,1,90,6|0,1:2|2:0,2:0:0:0:
388,156,144865,2,0,P|349:177|306:171,1,90,2|8,1:2|2:0,2:0:0:0:
248,67,145357,2,0,P|203:62|159:54,1,90,2|2,1:2|2:0,2:0:0:0:
46,21,145848,2,0,P|41:66|33:109,1,90,2|8,1:2|2:0,2:0:0:0:
4,224,146340,5,2,1:2:0:0:
89,303,146586,2,0,L|134:296,1,45,2|8,2:0|2:0,2:0:0:0:
190,279,146832,1,2,1:2:0:0:
272,361,147078,1,10,2:0:0:0:
366,291,147324,6,0,B|396:265|396:265|387:220|379:171,1,135,2|8,1:2|2:0,2:0:0:0:
371,113,147816,1,2,1:2:0:0:
277,43,148061,1,10,2:0:0:0:
181,110,148307,6,0,B|153:112|134:92|146:96|127:76|99:79,1,90,6|0,2:0|2:0,2:0:0:0:
49,106,148676,1,10,2:0:0:0:
49,106,148799,2,0,P|36:154|54:187,1,90,0|8,1:0|2:0,2:0:0:0:
8,294,149291,2,0,P|49:321|86:314,1,90,0|2,1:0|2:0,2:0:0:0:
190,259,149783,1,2,1:2:0:0:
285,325,150029,1,10,2:0:0:0:
384,275,150275,6,0,P|375:232|367:187,1,90,6|2,1:2|2:0,2:0:0:0:
393,72,150766,2,0,P|349:66|304:60,1,90,6|2,1:2|2:0,2:0:0:0:
202,1,151258,2,0,P|183:40|163:81,1,90,6|0,1:2|2:0,2:0:0:0:
51,120,151750,2,0,L|41:68,2,44.999998626709,2|2|8,1:2|0:0|0:0,0:0:0:0:
72,235,152242,6,0,P|112:219|157:219,1,90,6|0,1:2|2:0,2:0:0:0:
213,323,152734,2,0,P|253:338|298:338,1,90,2|8,1:2|2:0,2:0:0:0:
403,283,153225,2,0,L|386:191,1,90,2|2,1:2|2:0,2:0:0:0:
493,145,153717,2,0,L|509:53,1,90,2|8,1:2|2:0,2:0:0:0:
391,45,154209,6,0,B|363:47|344:27|356:31|337:11|309:14,1,90,2|0,1:2|2:0,2:0:0:0:
217,86,154701,1,2,1:2:0:0:
112,35,154947,1,10,2:0:0:0:
14,100,155193,2,0,B|5:149|5:149|25:178|25:178|17:227,1,135,2|8,1:2|2:0,2:0:0:0:
8,285,155684,1,2,1:2:0:0:
92,365,155930,1,8,2:0:0:0:
197,315,156176,6,0,L|285:299,1,90,2|2,1:2|2:0,2:0:0:0:
343,289,156545,1,8,2:0:0:0:
343,289,156668,2,0,P|363:249|358:205,1,90,2|10,1:2|2:0,2:0:0:0:
268,130,157160,2,0,B|186:116|186:116|172:146|144:151,1,135,2|8,1:2|2:0,2:0:0:0:
91,161,157652,1,2,1:2:0:0:
26,63,157898,1,8,2:0:0:0:
128,5,158143,6,0,P|172:8|215:20,1,90,2|0,1:2|2:0,2:0:0:0:
275,45,158512,1,8,2:0:0:0:
275,45,158635,2,0,P|319:41|362:29,1,90,2|10,1:2|2:0,2:0:0:0:
472,71,159127,2,0,P|500:132|464:194,1,135,2|8,1:2|2:0,2:0:0:0:
415,207,159619,1,2,1:2:0:0:
314,146,159865,1,2,2:0:0:0:
216,211,160111,6,0,L|127:197,1,90,4|2,1:2|2:0,2:0:0:0:
65,186,160479,1,10,2:0:0:0:
65,186,160602,1,0,1:0:0:0:
8,288,160848,1,10,2:0:0:0:
98,361,161094,2,0,P|141:367|181:348,1,90,2|0,1:2|2:0,2:0:0:0:
293,383,161586,2,0,P|312:343|306:299,1,90,2|8,1:2|2:0,2:0:0:0:
219,220,162078,6,0,B|210:177|210:177|212:175|212:175|205:131,1,90,2|2,1:2|2:0,2:0:0:0:
196,78,162447,1,8,2:0:0:0:
196,78,162570,2,0,B|231:50|231:50|273:63,1,90,2|2,1:2|2:0,2:0:0:0:
325,168,163061,2,0,B|367:181|367:181|402:153,1,90,2|2,1:2|1:2,2:0:0:0:
448,114,163430,1,2,2:0:0:0:
448,114,163553,2,0,B|484:127|484:127|492:170|492:170|490:172|490:172|499:224,1,135,2|0,1:2|2:0,2:0:0:0:
508,274,164045,6,0,P|464:330|409:326,1,123.75,4|0,2:0|1:0,2:0:0:0:
369,302,164537,1,2,1:2:0:0:
277,358,164783,1,8,2:0:0:0:
196,287,165029,2,0,P|206:247|209:206,1,82.5,0|2,1:0|2:0,2:0:0:0:
134,129,165520,1,2,1:2:0:0:
195,41,165766,1,10,2:0:0:0:
292,85,166012,6,0,P|333:82|372:71,1,82.5,2|0,1:2|2:0,2:0:0:0:
465,17,166504,2,0,L|478:97,1,82.5,2|8,2:0|2:0,2:0:0:0:
500,203,166996,1,0,1:2:0:0:
432,286,167242,1,2,2:0:0:0:
341,228,167488,2,0,B|315:226|298:244|309:240|292:258|267:255,1,82.5,2|2,1:2|2:0,2:0:0:0:
180,189,167979,6,0,P|183:148|193:108,1,82.5,6|2,1:2|2:0,2:0:0:0:
86,94,168471,2,0,P|82:135|72:175,1,82.5,2|8,1:0|2:0,2:0:0:0:
0,255,168963,1,2,1:2:0:0:
55,346,169209,1,2,2:0:0:0:
159,322,169455,2,0,L|250:337,1,82.5,2|10,1:2|2:0,2:0:0:0:
323,266,169947,6,0,B|363:231|417:249|417:249|417:289|446:306,1,165,6|6,1:2|1:2,2:0:0:0:
502,98,170930,2,0,B|476:96|459:114|470:110|453:128|428:125,1,82.5,4|2,1:2|1:0,2:0:0:0:
329,81,171422,1,6,1:2:0:0:
244,147,171668,1,0,1:0:0:0:
161,78,171914,6,0,P|65:64|25:113,1,165,6|2,1:2|1:2,2:0:0:0:
10,217,172652,1,8,2:0:0:0:
112,262,172898,2,0,P|136:256|152:254,1,41.25,2|0,1:2|2:0,2:0:0:0:
205,250,173143,1,2,2:0:0:0:
278,327,173389,1,2,1:2:0:0:
372,277,173635,1,10,2:0:0:0:
298,200,173881,6,0,B|282:146|282:146|298:125,1,82.5,2|0,1:2|2:0,2:0:0:0:
372,46,174373,2,0,B|426:58|426:58|436:82,1,82.5,2|10,2:0|2:0,2:0:0:0:
474,183,174865,1,2,1:2:0:0:
512,284,175111,1,2,2:0:0:0:
436,360,175357,2,0,P|395:350|354:346,1,82.5,2|10,1:2|2:0,2:0:0:0:
251,377,175848,5,2,1:2:0:0:
188,291,176094,1,2,1:2:0:0:
250,205,176340,2,0,P|292:217|334:221,1,82.5,2|8,1:2|2:0,2:0:0:0:
431,258,176832,1,2,1:2:0:0:
494,172,177078,1,2,1:2:0:0:
432,86,177324,2,0,P|390:98|347:102,1,82.5,0|8,1:2|2:0,2:0:0:0:
251,143,177816,5,2,1:2:0:0:
181,63,178061,1,2,1:2:0:0:
87,115,178307,1,2,1:2:0:0:
157,195,178553,2,0,B|150:234|150:234|152:236|152:236|144:277,1,82.5,2|2,1:2|1:2,2:0:0:0:
125,381,179045,1,2,1:2:0:0:
231,368,179291,2,0,B|260:362|260:362|278:374|278:374|308:369,1,82.5,2|8,1:2|0:0,2:0:0:0:
362,361,179660,1,8,2:0:0:0:
362,361,179783,6,0,P|364:321|377:280,1,82.5,6|0,1:2|2:0,2:0:0:0:
456,207,180275,1,2,1:2:0:0:
405,112,180520,1,10,2:0:0:0:
301,138,180766,2,0,B|275:140|258:122|269:126|252:108|227:111,1,82.5,2|0,1:2|2:0,2:0:0:0:
156,28,181258,2,0,B|149:53|127:63|134:54|112:65|107:90,1,82.5,2|10,1:2|2:0,2:0:0:0:
155,187,181750,5,2,1:2:0:0:
64,245,181996,2,0,P|44:277|49:320,1,82.5,2|2,2:0|1:2,2:0:0:0:
137,383,182488,1,10,2:0:0:0:
214,309,182734,2,0,P|258:300|296:293,1,82.5,2|2,1:2|2:0,2:0:0:0:
400,273,183225,1,2,1:2:0:0:
447,176,183471,1,8,2:0:0:0:
382,90,183717,6,0,P|322:79|269:109,1,123.75,2|8,1:2|2:0,2:0:0:0:
247,159,184209,1,0,1:2:0:0:
166,87,184455,1,10,2:0:0:0:
80,151,184701,2,0,P|90:187|95:232,1,82.5,2|0,1:2|2:0,2:0:0:0:
47,328,185193,2,0,B|78:353|78:353|118:341,1,82.5,2|2,1:2|1:2,2:0:0:0:
169,325,185561,1,2,2:0:0:0:
169,325,185684,6,0,B|195:323|212:341|201:337|218:355|243:352,1,82.5,2|0,1:2|2:0,2:0:0:0:
321,276,186176,1,2,1:2:0:0:
413,330,186422,1,10,2:0:0:0:
489,255,186668,2,0,P|479:215|473:174,1,82.5,2|2,0:2|2:0,2:0:0:0:
395,100,187160,1,2,2:0:0:0:
312,168,187406,2,0,P|288:162|272:160,1,41.25,2|2,2:0|2:0,2:0:0:0:
218,150,187652,6,0,P|198:117|203:74,2,82.5,6|2|2,1:2|2:0|1:2,2:0:0:0:
163,242,188389,1,10,2:0:0:0:
238,317,188635,2,0,P|278:307|318:301,1,82.5,2|0,1:2|2:0,2:0:0:0:
372,299,189004,1,8,2:0:0:0:
372,299,189127,1,2,1:2:0:0:
441,217,189373,1,8,2:0:0:0:
380,128,189619,6,0,P|374:87|364:47,1,82.5,2|2,1:2|2:0,2:0:0:0:
267,0,190111,1,2,1:2:0:0:
182,66,190357,1,2,2:0:0:0:
90,10,190602,2,0,P|49:15|20:43,1,82.5,2|2,1:2|2:0,2:0:0:0:
0,149,191094,1,2,1:2:0:0:
74,226,191340,1,10,2:0:0:0:
165,169,191586,6,0,B|204:165|230:193|213:187|239:214|277:210,1,123.75,6|8,1:2|2:0,2:0:0:0:
325,186,192078,1,2,1:2:0:0:
410,250,192324,1,10,2:0:0:0:
494,183,192570,2,0,P|491:105|417:79,1,165,2|2,1:2|1:2,2:0:0:0:
204,58,193553,6,0,L|93:38,1,82.5,6|2,1:2|1:2,2:0:0:0:
38,110,194045,1,2,1:2:0:0:
102,195,194291,1,2,1:2:0:0:
207,173,194537,6,0,L|317:153,1,82.5,2|2,1:2|1:2,2:0:0:0:
373,225,195029,1,0,1:2:0:0:
309,310,195275,1,0,1:0:0:0:
206,278,195520,1,0,2:0:0:0:
512,182,207324,6,0,P|494:130|443:113,1,112.5,6|0,2:0|0:0,2:0:0:0:
394,124,207816,2,0,P|357:164|368:217,1,112.5,2|0,2:0|0:0,2:0:0:0:
400,254,208307,2,0,P|425:323|375:391,1,150,2|0,2:0|2:0,2:0:0:0:
241,254,209291,6,0,B|168:233|131:296|158:286|119:349|47:330,1,225,0|2,2:0|2:0,2:0:0:0:
34,232,210275,2,0,B|22:156|8:85|8:85|45:68|82:46,1,225,2|2,2:0|2:0,2:0:0:0:
142,121,211258,6,0,B|171:143|200:132|200:132|207:84|217:45,1,150,2|2,2:0|2:0,2:0:0:0:
309,12,211996,1,0,2:0:0:0:
373,85,212242,2,0,B|417:144|417:144|396:216,1,150,2|2,2:0|2:0,2:0:0:0:
366,310,212979,1,0,2:0:0:0:
284,256,213225,2,0,B|217:202|113:253|94:330|182:388|228:332,1,300,2|2,2:0|2:0,2:0:0:0:
286,106,214701,6,0,L|222:94,1,45,10|8,2:0|2:0,2:0:0:0:
194,62,214947,2,0,L|130:73,1,45,8|8,2:0|2:0,2:0:0:0:
91,81,215193,6,0,P|70:120|76:163,1,90,6|2,1:2|2:0,2:0:0:0:
11,261,215684,2,0,P|41:293|84:300,1,90,2|8,1:2|2:0,2:0:0:0:
177,227,216176,2,0,B|219:234|219:234|221:237|221:237|263:244,1,90,2|2,1:2|2:0,2:0:0:0:
315,350,216668,2,0,B|357:342|357:342|359:339|359:339|401:332,1,90,2|8,1:2|2:0,2:0:0:0:
492,255,217160,5,2,1:2:0:0:
443,149,217406,2,0,L|398:142,1,45,2|8,2:0|2:0,2:0:0:0:
340,131,217652,1,2,1:2:0:0:
272,35,217898,1,10,2:0:0:0:
181,110,218143,2,0,B|137:113|108:83|127:89|98:59|56:64,1,135,2|8,1:2|2:0,2:0:0:0:
16,106,218635,1,0,1:0:0:0:
100,186,218881,1,10,2:0:0:0:
27,277,219127,6,0,P|18:317|39:359,1,90,2|0,1:2|2:0,2:0:0:0:
87,381,219496,1,8,2:0:0:0:
87,381,219619,2,0,P|137:371|176:367,1,90,0|8,1:0|2:0,2:0:0:0:
224,260,220111,2,0,P|273:257|301:281,1,90,0|2,1:2|2:0,2:0:0:0:
361,383,220602,1,2,1:2:0:0:
467,334,220848,1,8,2:0:0:0:
400,237,221094,6,0,P|405:194|417:149,1,90,6|2,1:2|2:0,2:0:0:0:
352,51,221586,2,0,P|309:46|264:34,1,90,6|8,1:2|2:0,2:0:0:0:
166,99,222078,2,0,P|161:142|149:187,1,90,4|8,1:2|2:0,2:0:0:0:
223,277,222570,2,0,P|217:298|214:321,2,44.999998626709,2|2|0,1:2|1:2|1:0,2:0:0:0:
339,286,223061,6,0,P|378:267|404:229,1,90,6|2,1:2|2:0,2:0:0:0:
405,113,223553,2,0,P|380:76|338:57,1,90,2|8,1:2|2:0,2:0:0:0:
224,81,224045,2,0,B|190:70|159:61|159:61|133:81,1,90,2|2,1:2|2:0,2:0:0:0:
25,95,224537,2,0,B|32:129|40:160|40:160|70:172,1,90,2|8,1:2|2:0,2:0:0:0:
153,241,225029,6,0,B|155:269|135:288|139:276|119:295|122:323,1,90,2|2,1:2|2:0,2:0:0:0:
222,382,225520,1,2,1:2:0:0:
312,307,225766,1,10,2:0:0:0:
413,366,226012,2,0,P|478:333|477:270,1,135,2|8,1:2|2:0,2:0:0:0:
444,230,226504,1,2,1:2:0:0:
496,125,226750,2,0,L|489:80,1,45,2|0,1:2|1:0,2:0:0:0:
478,22,226996,6,0,P|440:8|390:6,1,90,0|2,1:2|2:0,2:0:0:0:
341,33,227365,1,8,2:0:0:0:
341,33,227488,2,0,L|324:125,1,90,2|10,1:2|2:0,2:0:0:0:
366,231,227979,2,0,B|325:268|325:268|235:252,1,135,2|8,1:2|2:0,2:0:0:0:
189,240,228471,1,2,1:2:0:0:
124,152,228717,2,0,P|125:128|131:107,1,45,2|2,1:2|2:0,2:0:0:0:
160,62,228963,6,0,B|188:60|207:80|195:76|214:96|242:93,1,90,0|2,1:2|2:0,2:0:0:0:
293,62,229332,1,8,2:0:0:0:
293,62,229455,2,0,P|341:57|388:44,1,90,2|2,1:2|1:2,2:0:0:0:
440,29,229824,1,0,1:0:0:0:
440,29,229947,2,0,B|463:46|485:58|485:58|476:96|469:148,1,135,2|8,1:2|2:0,2:0:0:0:
459,196,230439,1,2,1:2:0:0:
508,302,230684,1,2,1:2:0:0:
417,376,230930,6,0,P|375:365|328:362,1,90,6|0,1:2|2:0,2:0:0:0:
275,380,231299,1,10,2:0:0:0:
275,380,231422,1,0,1:0:0:0:
181,309,231668,1,10,2:0:0:0:
271,236,231914,2,0,P|277:193|258:153,1,90,2|8,1:2|2:0,2:0:0:0:
290,39,232406,2,0,P|250:20|207:25,1,90,0|2,1:0|2:0,2:0:0:0:
94,61,232898,6,0,B|85:104|85:104|87:106|87:106|80:150,1,90,10|10,2:0|2:0,2:0:0:0:
39,191,233266,1,8,2:0:0:0:
39,191,233389,2,0,P|50:235|57:283,1,90,10|10,2:0|2:0,2:0:0:0:
41,338,233758,1,8,2:0:0:0:
41,338,233881,2,0,P|89:340|134:349,1,90,10|10,2:0|2:0,2:0:0:0:
182,384,234250,1,8,2:0:0:0:
182,384,234373,2,0,B|223:386|252:357|234:363|262:333|304:337,1,135,2|2,1:2|2:0,2:0:0:0:
354,355,234865,6,0,P|364:291|375:232,1,123.75,6|8,2:0|2:0,2:0:0:0:
388,180,235357,1,0,1:2:0:0:
293,130,235602,1,10,2:0:0:0:
219,207,235848,2,0,P|157:220|108:189,1,123.75,2|0,1:2|2:0,2:0:0:0:
88,139,236340,2,0,P|84:97|103:63,1,82.5,0|2,1:0|2:0,2:0:0:0:
201,17,236832,6,0,P|239:25|282:31,1,82.5,2|2,1:2|2:0,2:0:0:0:
338,43,237201,1,10,2:0:0:0:
338,43,237324,1,0,1:0:0:0:
438,6,237570,1,10,2:0:0:0:
494,96,237816,2,0,P|502:135|483:177,2,82.5,2|0|2,1:2|2:0|1:2,2:0:0:0:
326,230,238799,6,0,B|281:221|281:221|262:195|262:195|217:187,1,123.75,6|8,1:2|2:0,2:0:0:0:
163,181,239291,1,0,1:2:0:0:
81,110,239537,1,10,2:0:0:0:
0,180,239783,2,0,P|14:246|22:309,1,123.75,2|8,1:2|2:0,2:0:0:0:
28,354,240275,2,0,B|61:378|61:378|100:367,1,82.5,0|10,1:0|2:0,2:0:0:0:
197,320,240766,6,0,P|244:330|285:332,1,82.5,2|2,1:2|2:0,2:0:0:0:
376,375,241258,2,0,P|398:341|393:300,1,82.5,0|10,2:0|2:0,2:0:0:0:
363,255,241627,1,0,2:0:0:0:
363,255,241750,2,0,B|361:216|388:191|383:207|410:181|406:143,1,123.75,2|2,1:2|2:0,2:0:0:0:
397,89,242242,1,2,1:2:0:0:
319,15,242488,1,2,2:0:0:0:
218,53,242734,6,0,B|175:46|132:37|132:37|120:56|107:72,1,123.75,6|8,1:2|2:0,2:0:0:0:
76,109,243225,1,0,1:0:0:0:
140,195,243471,1,10,2:0:0:0:
56,262,243717,2,0,P|26:309|60:373,1,123.75,2|8,1:2|2:0,2:0:0:0:
104,380,244209,2,0,P|144:366|184:362,1,82.5,0|2,1:2|2:0,2:0:0:0:
291,366,244701,6,0,P|277:325|273:285,1,82.5,2|0,1:2|2:0,2:0:0:0:
268,231,245070,1,10,2:0:0:0:
268,231,245193,1,0,2:0:0:0:
357,171,245439,1,10,2:0:0:0:
263,118,245684,2,0,P|218:129|181:132,1,82.5,2|0,1:2|2:0,2:0:0:0:
97,66,246176,1,2,1:2:0:0:
10,130,246422,2,0,L|18:170,1,41.25,2|2,2:0|2:0,2:0:0:0:
52,212,246668,6,0,B|43:256|43:256|17:275|17:275|9:320,1,123.75,6|8,1:2|2:0,2:0:0:0:
46,361,247160,1,0,1:0:0:0:
138,307,247406,1,10,2:0:0:0:
220,374,247652,2,0,P|281:361|343:354,1,123.75,0|10,1:2|2:0,2:0:0:0:
395,360,248143,1,0,1:0:0:0:
480,294,248389,1,10,2:0:0:0:
423,202,248635,6,0,P|424:162|434:121,1,82.5,2|2,1:2|2:0,2:0:0:0:
328,105,249127,2,0,P|326:144|316:185,1,82.5,0|10,2:0|2:0,2:0:0:0:
295,238,249496,1,0,2:0:0:0:
295,238,249619,2,0,B|279:249|264:264|264:264|218:255|175:248,1,123.75,2|8,1:2|2:0,2:0:0:0:
131,264,250111,2,0,P|111:256|96:241,1,41.25,2|0,1:2|2:0,2:0:0:0:
43,249,250357,2,0,P|31:231|28:210,1,41.25,2|8,2:0|2:0,2:0:0:0:
2,164,250602,6,0,P|22:110|88:90,1,123.75,6|8,1:2|2:0,2:0:0:0:
129,113,251094,1,0,1:2:0:0:
208,41,251340,1,2,2:0:0:0:
297,100,251586,2,0,P|358:88|418:80,1,123.75,2|10,1:2|2:0,2:0:0:0:
472,74,252078,2,0,B|492:90|492:90|482:146,1,82.5,0|2,1:0|2:0,2:0:0:0:
501,252,252570,6,0,P|465:257|424:238,1,82.5,2|10,1:2|2:0,2:0:0:0:
389,204,252939,1,2,2:0:0:0:
389,204,253061,1,0,2:0:0:0:
300,264,253307,1,2,2:0:0:0:
201,221,253553,2,0,P|160:226|119:231,2,82.5,2|2|2,1:2|2:0|1:2,2:0:0:0:
348,64,254537,6,0,B|309:66|284:39|300:44|274:17|236:21,1,123.75,6|0,1:2|2:0,2:0:0:0:
183,28,255029,1,2,1:2:0:0:
77,7,255275,1,2,2:0:0:0:
12,92,255520,2,0,P|-1:145|31:201,1,123.75,2|10,1:2|2:0,2:0:0:0:
83,216,256012,2,0,P|119:197|159:202,1,82.5,0|10,1:0|2:0,2:0:0:0:
242,271,256504,2,0,L|254:189,1,82.5,2|10,1:2|2:0,2:0:0:0:
233,83,256996,6,0,P|273:78|309:96,1,82.5,0|2,2:0|2:0,2:0:0:0:
349,141,257365,1,2,2:0:0:0:
349,141,257488,2,0,B|393:132|393:132|412:106|412:106|457:98,1,123.75,2|8,1:2|2:0,2:0:0:0:
498,134,257979,1,2,1:2:0:0:
428,215,258225,1,2,1:2:0:0:
508,286,258471,6,0,B|517:329|492:371|492:371|475:381|451:382,1,123.75,6|0,1:2|2:0,2:0:0:0:
409,362,258963,1,2,1:2:0:0:
319,303,259209,1,2,2:0:0:0:
235,370,259455,2,0,P|181:358|112:351,1,123.75,2|10,1:2|2:0,2:0:0:0:
59,356,259947,1,0,1:0:0:0:
5,262,260193,1,10,2:0:0:0:
104,222,260439,6,0,P|122:182|121:141,1,82.5,2|10,1:2|2:0,2:0:0:0:
107,96,260807,1,2,2:0:0:0:
107,96,260930,1,0,2:0:0:0:
178,15,261176,1,2,2:0:0:0:
265,76,261422,2,0,L|346:61,1,82.5,2|2,1:2|2:0,2:0:0:0:
451,38,261914,1,2,1:2:0:0:
509,127,262160,1,2,1:2:0:0:
437,207,262406,6,0,B|435:246|462:271|457:255|484:281|480:319,1,123.75,6|8,1:2|2:0,2:0:0:0:
453,365,262898,1,0,1:0:0:0:
361,310,263143,2,0,P|340:308|321:315,1,41.25,8|8,2:0|2:0,2:0:0:0:
281,351,263389,2,0,B|231:342|231:342|218:322|218:322|168:314,1,123.75,14|10,1:2|2:0,2:0:0:0:
115,304,263881,1,8,1:2:0:0:
189,226,264127,2,0,P|190:205|183:186,1,41.25,10|0,2:0|2:0,2:0:0:0:
144,149,264373,6,0,P|127:104|174:42,1,123.75,10|8,2:0|2:0,2:0:0:0:
218,33,264865,2,0,P|256:47|297:47,1,82.5,10|10,2:0|2:0,2:0:0:0:
352,34,265234,1,10,2:0:0:0:
352,34,265357,2,0,B|358:67|358:67|351:77|351:77|356:110|356:110|350:120|350:120|356:154,1,123.75,10|10,2:0|2:0,2:0:0:0:
364,204,265848,1,2,2:0:0:0:
