osu file format v14

[General]
AudioFilename: audio.mp3
AudioLeadIn: 0
PreviewTime: 144555
Countdown: 0
SampleSet: Soft
StackLeniency: 0.5
Mode: 0
LetterboxInBreaks: 0
WidescreenStoryboard: 1

[Editor]
DistanceSpacing: 0.2
BeatDivisor: 6
GridSize: 8
TimelineZoom: 2.899999

[Metadata]
Title:Nouri Ue no Cracker
TitleUnicode:脳裏上のクラッカー
Artist:ZUTOMAYO
ArtistUnicode:ずっと真夜中でいいのに。
Creator:Woood13
Version:Shii's Insane
Source:
Tags:zuto jpop j-pop j pop shii shiitsuin japanese Zutto Mayonaka de Ii no ni. Hisohiso Banashi Tadashii Itsuwari Kara no Kisho 焦茶
BeatmapID:3034978
BeatmapSetID:1432232

[Difficulty]
HPDrainRate:5
CircleSize:4.4
OverallDifficulty:8
ApproachRate:9
SliderMultiplier:2.05
SliderTickRate:1

[Events]
//Background and Video events
0,0,"bg.jpg",0,0
//Break Periods
//Storyboard Layer 0 (Background)
//Storyboard Layer 1 (Fail)
//Storyboard Layer 2 (Pass)
//Storyboard Layer 3 (Foreground)
//Storyboard Layer 4 (Overlay)
//Storyboard Sound Samples

[TimingPoints]
2973,468.75,4,2,2,60,1,0
2973,-500,4,2,2,60,0,0
9652,-83.3333333333333,4,2,2,60,0,0
10473,-83.3333333333333,4,2,2,70,0,0
10590,-83.3333333333333,4,2,2,70,0,0
10707,-83.3333333333333,4,2,2,70,0,0
11058,-57.1428571428571,4,2,2,70,0,0
12348,-83.3333333333333,4,2,2,70,0,0
12465,-83.3333333333333,4,2,2,70,0,0
12582,-83.3333333333333,4,2,2,70,0,0
12933,-57.1428571428571,4,2,2,70,0,0
14223,-83.3333333333333,4,2,2,70,0,0
14340,-83.3333333333333,4,2,2,70,0,0
14457,-83.3333333333333,4,2,2,70,0,0
14808,-57.1428571428571,4,2,2,70,0,0
16038,-57.1428571428571,4,2,2,70,0,0
16098,-83.3333333333333,4,2,2,70,0,0
16322,468.75,4,2,2,70,1,0
16439,-83.3333333333333,4,2,2,70,0,0
16673,468.75,4,2,2,70,1,0
16907,468.75,4,2,2,70,1,0
17024,-333.333333333333,4,2,2,70,0,0
17993,468.75,4,2,2,45,1,0
31977,-100,4,2,2,45,0,0
32055,-100,4,2,2,45,0,0
32993,-117.647058823529,4,2,2,55,0,0
36078,-117.647058823529,4,2,2,55,0,0
36274,-117.647058823529,4,2,2,55,0,0
37328,-117.647058823529,4,2,2,55,0,0
37446,-117.647058823529,4,2,2,55,0,0
37797,-117.647058823529,4,2,2,55,0,0
38618,-117.647058823529,4,2,2,55,0,0
40727,-117.647058823529,4,2,2,55,0,0
40844,-117.647058823529,4,2,2,55,0,0
41078,-117.647058823529,4,2,2,55,0,0
41196,-117.647058823529,4,2,2,55,0,0
42602,-117.647058823529,4,2,2,55,0,0
42719,-117.647058823529,4,2,2,55,0,0
42953,-117.647058823529,4,2,2,55,0,0
43071,-117.647058823529,4,2,2,55,0,0
43578,-117.647058823529,4,2,2,55,0,0
43774,-117.647058823529,4,2,2,55,0,0
44828,-117.647058823529,4,2,2,55,0,0
44946,-117.647058823529,4,2,2,55,0,0
46039,-117.647058823529,4,2,2,55,0,0
47289,-117.647058823529,4,2,2,55,0,0
47524,-166.666666666667,4,2,2,65,0,0
47993,-55.5555555555556,4,2,2,65,0,0
48461,-71.4285714285714,4,2,2,65,0,0
48930,-83.3333333333333,4,2,2,65,0,0
49399,-71.4285714285714,4,2,2,65,0,0
49750,-71.4285714285714,4,2,2,65,0,0
49868,-71.4285714285714,4,2,2,65,0,0
49985,-71.4285714285714,4,2,2,65,0,0
50102,-71.4285714285714,4,2,2,65,0,0
51156,-71.4285714285714,4,2,2,65,0,0
51274,-166.666666666667,4,2,2,65,0,0
51743,-71.4285714285714,4,2,2,65,0,0
52797,-71.4285714285714,4,2,2,65,0,0
52914,-71.4285714285714,4,2,2,65,0,0
53031,-71.4285714285714,4,2,2,65,0,0
53149,-71.4285714285714,4,2,2,65,0,0
53500,-71.4285714285714,4,2,2,65,0,0
53735,-71.4285714285714,4,2,2,65,0,0
54555,-55.5555555555556,4,2,2,65,0,0
55493,-166.666666666667,4,2,2,40,0,0
62993,-333.333333333333,4,2,2,40,0,0
64868,-333.333333333333,4,2,2,5,0,0
65336,-200,4,2,2,40,0,0
65688,-200,4,2,2,40,0,0
65805,-200,4,2,2,40,0,0
66727,468.75,4,2,2,70,1,0
66727,-66.6666666666667,4,2,2,80,0,1
68250,-66.6666666666667,4,2,2,80,0,1
68367,-66.6666666666667,4,2,2,80,0,1
68602,-55.5555555555556,4,2,2,80,0,1
71883,-66.6666666666667,4,2,2,80,0,1
73758,-55.5555555555556,4,2,2,80,0,1
74695,-66.6666666666667,4,2,2,80,0,1
75515,-66.6666666666667,4,2,2,80,0,1
75633,-66.6666666666667,4,2,2,80,0,1
76570,-55.5555555555556,4,2,2,80,0,1
77273,-55.5555555555556,4,2,2,80,0,1
77391,-55.5555555555556,4,2,2,80,0,1
79852,-50,4,2,2,80,0,1
79881,-50,4,2,2,80,0,1
80086,-50,4,2,2,80,0,1
80115,-50,4,2,2,80,0,1
80320,-50,4,2,2,80,0,1
80349,-50,4,2,2,80,0,1
80555,-50,4,2,2,80,0,1
80584,-50,4,2,2,80,0,1
80789,-50,4,2,2,80,0,1
80818,-50,4,2,2,80,0,1
81141,-50,4,2,2,80,0,1
81727,-66.6666666666667,4,2,2,80,0,0
82078,-66.6666666666667,4,2,2,80,0,0
83133,-66.6666666666667,4,2,2,80,0,0
83367,-55.5555555555556,4,2,2,80,0,1
83836,-66.6666666666667,4,2,2,80,0,1
83953,-66.6666666666667,4,2,2,80,0,1
84070,-66.6666666666667,4,2,2,80,0,1
84890,-66.6666666666667,4,2,2,80,0,1
85008,-66.6666666666667,4,2,2,80,0,1
85359,-66.6666666666667,4,2,2,80,0,1
85477,-100,4,2,2,80,0,1
85945,-55.5555555555556,4,2,2,80,0,1
87586,-66.6666666666667,4,2,2,80,0,1
88172,-66.6666666666667,4,2,2,80,0,1
88289,-66.6666666666667,4,2,2,80,0,1
88406,-66.6666666666667,4,2,2,80,0,1
88640,-66.6666666666667,4,2,2,80,0,1
88758,-55.5555555555556,4,2,2,80,0,1
89227,-66.6666666666667,4,2,2,80,0,1
90867,-55.5555555555556,4,2,2,80,0,1
91336,-66.6666666666667,4,2,2,80,0,1
91687,-66.6666666666667,4,2,2,80,0,1
91805,-66.6666666666667,4,2,2,80,0,1
92859,-66.6666666666667,4,2,2,80,0,1
92977,-66.6666666666667,4,2,2,80,0,1
93562,-66.6666666666667,4,2,2,80,0,1
93680,-66.6666666666667,4,2,2,80,0,1
94031,-66.6666666666667,4,2,2,80,0,1
94148,-66.6666666666667,4,2,2,80,0,1
94852,472.44094488189,4,2,2,80,1,0
94868,-66.6666666666667,4,2,2,80,0,0
95796,458.015267175573,4,2,2,80,1,0
95796,-166.666666666667,4,2,2,80,0,0
96254,468.75,4,2,2,80,1,0
96254,-71.4285714285714,4,2,2,80,0,0
96605,-71.4285714285714,4,2,2,80,0,0
96743,468.75,4,2,2,70,1,0
96743,-83.3333333333333,4,2,2,70,0,0
96860,-83.3333333333333,4,2,2,70,0,0
96977,-83.3333333333333,4,2,2,70,0,0
97328,-57.1428571428571,4,2,2,70,0,0
98618,-83.3333333333333,4,2,2,70,0,0
98735,-83.3333333333333,4,2,2,70,0,0
98852,-83.3333333333333,4,2,2,70,0,0
99086,-57.1428571428571,4,2,2,70,0,0
100493,-83.3333333333333,4,2,2,70,0,0
100610,-83.3333333333333,4,2,2,70,0,0
100727,-83.3333333333333,4,2,2,70,0,0
100961,-57.1428571428571,4,2,2,70,0,0
102133,-83.3333333333333,4,2,2,70,0,0
102953,-57.1428571428571,4,2,2,70,0,0
103305,-83.3333333333333,4,2,2,70,0,0
104360,-83.3333333333333,4,2,2,70,0,0
104477,-83.3333333333333,4,2,2,70,0,0
104828,-57.1428571428571,4,2,2,70,0,0
106118,-83.3333333333333,4,2,2,70,0,0
106235,-83.3333333333333,4,2,2,70,0,0
106352,-83.3333333333333,4,2,2,70,0,0
106586,-57.1428571428571,4,2,2,70,0,0
107993,-83.3333333333333,4,2,2,70,0,0
108110,-83.3333333333333,4,2,2,70,0,0
108227,-83.3333333333333,4,2,2,70,0,0
108461,-57.1428571428571,4,2,2,70,0,0
109808,-57.1428571428571,4,2,2,70,0,0
109868,-83.3333333333333,4,2,2,70,0,0
109985,-83.3333333333333,4,2,2,70,0,0
110102,-83.3333333333333,4,2,2,70,0,0
110336,-83.3333333333333,4,2,2,70,0,0
110453,-83.3333333333333,4,2,2,70,0,0
110571,-83.3333333333333,4,2,2,70,0,0
110688,-83.3333333333333,4,2,2,70,0,0
110805,-333.333333333333,4,2,2,70,0,0
111273,-333.333333333333,4,2,2,70,0,0
111743,-125,4,2,2,50,0,0
117719,-125,4,2,2,50,0,0
118305,-125,4,2,2,50,0,0
118774,-62.5,4,2,2,50,0,0
119243,-125,4,2,2,50,0,0
123344,-125,4,2,2,50,0,0
123930,-125,4,2,2,50,0,0
124868,-83.3333333333333,4,2,2,70,0,0
126274,-66.6666666666667,4,2,2,70,0,0
126743,-55.5555555555556,4,2,2,65,0,0
127211,-71.4285714285714,4,2,2,65,0,0
127680,-83.3333333333333,4,2,2,65,0,0
128149,-71.4285714285714,4,2,2,65,0,0
128500,-71.4285714285714,4,2,2,65,0,0
128618,-71.4285714285714,4,2,2,65,0,0
128735,-71.4285714285714,4,2,2,65,0,0
128852,-71.4285714285714,4,2,2,65,0,0
129906,-71.4285714285714,4,2,2,65,0,0
130024,-166.666666666667,4,2,2,65,0,0
130493,-71.4285714285715,4,2,2,65,0,0
131547,-71.4285714285715,4,2,2,65,0,0
131664,-71.4285714285715,4,2,2,65,0,0
131781,-71.4285714285715,4,2,2,65,0,0
131899,-71.4285714285715,4,2,2,65,0,0
132250,-71.4285714285715,4,2,2,65,0,0
132485,-71.4285714285715,4,2,2,65,0,0
133305,-55.5555555555556,4,2,2,65,0,0
133656,-55.5555555555556,4,2,2,65,0,0
133774,-83.3333333333333,4,2,2,65,0,0
134243,-83.3333333333333,4,2,2,45,0,0
141743,-133.333333333333,4,2,2,45,0,0
141977,-133.333333333333,4,2,2,45,0,0
142211,-133.333333333333,4,2,2,45,0,0
143266,-133.333333333333,4,2,2,45,0,0
145493,-66.6666666666667,4,2,2,80,0,1
147016,-66.6666666666667,4,2,2,80,0,1
147133,-66.6666666666667,4,2,2,80,0,1
147368,-55.5555555555556,4,2,2,80,0,1
150649,-66.6666666666667,4,2,2,80,0,1
152524,-55.5555555555556,4,2,2,80,0,1
153461,-66.6666666666667,4,2,2,80,0,1
154281,-66.6666666666667,4,2,2,80,0,1
154399,-66.6666666666667,4,2,2,80,0,1
155336,-55.5555555555556,4,2,2,80,0,1
156039,-55.5555555555556,4,2,2,80,0,1
156157,-55.5555555555556,4,2,2,80,0,1
158618,-50,4,2,2,80,0,1
158647,-50,4,2,2,80,0,1
158852,-50,4,2,2,80,0,1
158881,-50,4,2,2,80,0,1
159086,-50,4,2,2,80,0,1
159115,-50,4,2,2,80,0,1
159321,-50,4,2,2,80,0,1
159350,-50,4,2,2,80,0,1
159438,-50,4,2,2,80,0,1
159584,-50,4,2,2,80,0,1
159907,-50,4,2,2,80,0,1
160493,-66.6666666666667,4,2,2,80,0,0
160727,-66.6666666666667,4,2,2,80,0,0
160844,-66.6666666666667,4,2,2,80,0,0
161899,-66.6666666666667,4,2,2,80,0,0
162133,-55.5555555555556,4,2,2,80,0,1
162602,-66.6666666666667,4,2,2,80,0,1
162719,-66.6666666666667,4,2,2,80,0,1
162836,-66.6666666666667,4,2,2,80,0,1
163656,-66.6666666666667,4,2,2,80,0,1
163774,-66.6666666666667,4,2,2,80,0,1
164125,-66.6666666666667,4,2,2,80,0,1
164243,-100,4,2,2,80,0,1
164711,-55.5555555555556,4,2,2,80,0,1
166352,-66.6666666666667,4,2,2,80,0,1
166938,-66.6666666666667,4,2,2,80,0,1
167055,-66.6666666666667,4,2,2,80,0,1
167172,-66.6666666666667,4,2,2,80,0,1
167289,-66.6666666666667,4,2,2,80,0,1
167524,-55.5555555555556,4,2,2,80,0,1
167993,-66.6666666666667,4,2,2,80,0,1
169633,-55.5555555555556,4,2,2,80,0,1
170102,-66.6666666666667,4,2,2,80,0,1
170453,-66.6666666666667,4,2,2,80,0,1
170571,-66.6666666666667,4,2,2,80,0,1
171625,-66.6666666666667,4,2,2,80,0,1
171743,-66.6666666666667,4,2,2,80,0,1
172328,-66.6666666666667,4,2,2,80,0,1
172446,-66.6666666666667,4,2,2,80,0,1
172797,-66.6666666666667,4,2,2,80,0,1
172914,-66.6666666666667,4,2,2,80,0,1
173618,-200,4,2,2,80,0,0
174789,-200,4,2,2,80,0,0
175493,-111.111111111111,4,2,2,65,0,0
177016,-111.111111111111,4,2,2,65,0,0
177133,-111.111111111111,4,2,2,65,0,0
177485,-111.111111111111,4,2,2,65,0,0
177719,-111.111111111111,4,2,2,65,0,0
179125,-111.111111111111,4,2,2,65,0,0
179243,-111.111111111111,4,2,2,65,0,0
180766,-111.111111111111,4,2,2,65,0,0
180883,-111.111111111111,4,2,2,65,0,0
182641,-111.111111111111,4,2,2,65,0,0
182758,-111.111111111111,4,2,2,65,0,0
182875,-111.111111111111,4,2,2,65,0,0
182993,-111.111111111111,4,2,2,65,0,0
186391,-111.111111111111,4,2,2,65,0,0
186508,-111.111111111111,4,2,2,65,0,0
187562,-111.111111111111,4,2,2,65,0,0
187797,-111.111111111111,4,2,2,65,0,0
188266,-111.111111111111,4,2,2,65,0,0
188383,-111.111111111111,4,2,2,65,0,0
188618,-111.111111111111,4,2,2,75,0,0
190483,468.75,4,2,2,55,1,0
190483,-125,4,2,2,55,0,0
196102,468.75,4,2,2,60,1,0
197039,-66.6666666666667,4,2,2,60,0,0
197214,-66.6666666666667,4,2,2,5,0,0
197273,-83.3333333333333,4,2,2,60,0,0
197448,-83.3333333333333,4,2,2,5,0,0
197508,-111.111111111111,4,2,2,60,0,0
197683,-111.111111111111,4,2,2,5,0,0
197742,-111.111111111111,4,2,2,60,0,0
197977,-111.111111111111,4,2,2,40,0,0
198445,-66.6666666666667,4,2,2,45,0,0
198680,-66.6666666666667,4,2,2,50,0,0
198914,-55.5555555555556,4,2,2,55,0,0
199149,-55.5555555555556,4,2,2,60,0,0
199383,-47.6190476190476,4,2,2,60,0,0
199852,-47.6190476190476,4,2,2,40,0,0
200320,-66.6666666666667,4,2,2,45,0,0
200555,-66.6666666666667,4,2,2,50,0,0
200789,-55.5555555555556,4,2,2,55,0,0
201024,-55.5555555555556,4,2,2,60,0,0
201258,-47.6190476190476,4,2,2,60,0,0
202195,-66.6666666666667,4,2,2,60,0,0
202664,-55.5555555555556,4,2,2,60,0,0
203133,-47.6190476190476,4,2,2,60,0,0
204070,-66.6666666666667,4,2,2,60,0,0
204539,-55.5555555555556,4,2,2,60,0,0
205008,-47.6190476190476,4,2,2,60,0,0
206883,-66.6666666666667,4,2,2,60,0,0
207352,-133.333333333333,4,2,2,60,0,0
209227,-133.333333333333,4,2,2,65,0,0
210633,-133.333333333333,4,2,2,50,0,0
213211,-50,4,2,2,75,0,0
213503,-50,4,2,2,75,0,0
213562,-66.6666666666667,4,2,2,75,0,0
213854,-66.6666666666667,4,2,2,75,0,0
213914,-66.6666666666667,4,2,2,75,0,0
214148,-80,4,2,2,75,0,0
214323,-80,4,2,2,75,0,0
214383,-80,4,2,2,75,0,0
214852,-66.6666666666667,4,2,2,75,0,0
215555,-55.5555555555556,4,2,2,75,0,0
215965,-55.5555555555556,4,2,2,75,0,0
216023,-55.5555555555556,4,2,2,75,0,0
216844,-71.4285714285714,4,2,2,75,0,0
216902,-71.4285714285714,4,2,2,75,0,0
216961,-71.4285714285714,4,2,2,75,0,0
217664,-62.5,4,2,2,75,0,0
218602,-62.5,4,2,2,40,0,0
219070,-66.6666666666667,4,2,2,40,0,0
219305,-66.6666666666667,4,2,2,45,0,0
219539,-55.5555555555556,4,2,2,50,0,0
219773,-55.5555555555556,4,2,2,55,0,0
220008,-47.6190476190476,4,2,2,60,0,0
220477,-47.6190476190476,4,2,2,40,0,0
220945,-66.6666666666667,4,2,2,45,0,0
221180,-66.6666666666667,4,2,2,50,0,0
221414,-55.5555555555556,4,2,2,60,0,0
221883,-47.6190476190476,4,2,2,60,0,0
222352,-55.5555555555556,4,2,2,60,0,0
222820,-47.6190476190476,4,2,2,60,0,0
223523,-71.4285714285714,4,2,2,60,0,0
225633,-166.666666666667,4,2,2,60,0,0
226102,-62.5,4,2,2,70,0,1
228445,-50,4,2,2,70,0,1
228914,-50,4,2,2,75,0,1
229852,-50,4,2,2,80,0,1
230320,-50,4,2,2,85,0,1
231375,-50,4,2,2,85,0,1
231727,-45.4545454545455,4,2,2,70,0,1
231756,-45.4545454545455,4,2,2,70,0,1
231961,-45.4545454545455,4,2,2,70,0,1
231990,-45.4545454545455,4,2,2,70,0,1
232078,-45.4545454545455,4,2,2,70,0,1
232693,-45.4545454545455,4,2,2,70,0,1
232898,-45.4545454545455,4,2,2,70,0,1
232927,-45.4545454545455,4,2,2,70,0,1
233016,-45.4545454545455,4,2,2,70,0,1
233543,-45.4545454545455,4,2,2,70,0,1
233602,-62.5,4,2,2,70,0,0
233660,-62.5,4,2,2,70,0,0
233953,-62.5,4,2,2,70,0,0
235008,-62.5,4,2,2,70,0,0
235242,-50,4,2,2,80,0,1
235711,-62.5,4,2,2,80,0,1
237000,-62.5,4,2,2,80,0,1
237117,-62.5,4,2,2,80,0,1
237352,-100,4,2,2,80,0,1
237820,-50,4,2,2,80,0,1
239343,-50,4,2,2,80,0,1
239461,-62.5,4,2,2,80,0,1
240633,-50,4,2,2,80,0,1
240984,-50,4,2,2,80,0,1
241102,-62.5,4,2,2,80,0,1
242273,-62.5,4,2,2,80,0,1
242391,-62.5,4,2,2,80,0,1
242742,-50,4,2,2,80,0,1
243211,-62.5,4,2,2,80,0,1
243562,-62.5,4,2,2,80,0,1
243680,-62.5,4,2,2,80,0,1
246727,-200,4,2,2,70,0,0
247898,-200,4,2,2,70,0,0
248602,-71.4285714285714,4,2,2,70,0,0
248719,-71.4285714285714,4,2,2,70,0,0
248836,-71.4285714285714,4,2,2,70,0,0
249187,-50,4,2,2,70,0,0
250477,-71.4285714285714,4,2,2,70,0,0
250594,-71.4285714285714,4,2,2,70,0,0
250711,-71.4285714285714,4,2,2,70,0,0
250945,-50,4,2,2,70,0,0
252352,-71.4285714285714,4,2,2,70,0,0
252469,-71.4285714285714,4,2,2,70,0,0
252586,-71.4285714285714,4,2,2,70,0,0
252937,-50,4,2,2,70,0,0
254227,-71.4285714285714,4,2,2,70,0,0
254578,-71.4285714285714,4,2,2,70,0,0
254695,-71.4285714285714,4,2,2,70,0,0
254812,-50,4,2,2,70,0,0
255164,-71.4285714285714,4,2,2,70,0,0
256219,-71.4285714285714,4,2,2,70,0,0
256336,-71.4285714285714,4,2,2,70,0,0
256687,-50,4,2,2,70,0,0
257977,-71.4285714285714,4,2,2,70,0,0
258094,-71.4285714285714,4,2,2,70,0,0
258211,-71.4285714285714,4,2,2,70,0,0
258562,-50,4,2,2,70,0,0
259852,-71.4285714285714,4,2,2,70,0,0
259969,-71.4285714285714,4,2,2,70,0,0
260086,-71.4285714285714,4,2,2,70,0,0
260437,-50,4,2,2,70,0,0
261492,-71.4285714285714,4,2,2,70,0,0
261667,-71.4285714285714,4,2,2,70,0,0
261727,-62.5,4,2,2,75,0,0
262019,-62.5,4,2,2,75,0,0
262078,-62.5,4,2,2,75,0,0
262547,-62.5,4,2,2,5,0,0
262664,-62.5,4,2,2,75,0,0
262956,-62.5,4,2,2,75,0,0
263016,-62.5,4,2,2,75,0,0
263484,-62.5,4,2,2,5,0,0
263602,-62.5,4,2,2,75,0,0
263894,-62.5,4,2,2,75,0,0
263953,-62.5,4,2,2,75,0,0
264422,-62.5,4,2,2,75,0,0
264539,-62.5,4,2,2,85,0,0
264831,-62.5,4,2,2,85,0,0
264891,-62.5,4,2,2,85,0,0
265476,-62.5,4,2,2,5,0,0

[Colours]
Combo1 : 255,130,142
Combo2 : 88,199,97
Combo3 : 214,214,214
Combo4 : 50,205,189

[HitObjects]
0,311,2973,5,2,2:0:0:0:
73,298,3324,1,2,2:0:0:0:
137,260,3558,1,2,2:0:0:0:
375,333,3793,5,2,2:0:0:0:
375,333,3910,1,2,2:0:0:0:
448,346,4144,1,2,2:0:0:0:
512,384,4379,1,2,2:0:0:0:
512,384,4496,1,2,2:0:0:0:
231,375,4848,5,2,2:0:0:0:
242,305,5082,1,2,2:0:0:0:
242,305,5160,1,2,2:0:0:0:
242,305,5238,1,2,2:0:0:0:
242,305,5316,1,2,2:0:0:0:
284,25,5551,1,2,2:0:0:0:
215,0,5785,5,2,2:0:0:0:
228,77,6019,1,2,2:0:0:0:
228,77,6137,1,2,2:0:0:0:
262,313,6371,1,2,2:0:0:0:
0,209,6723,5,2,2:0:0:0:
73,222,7074,1,2,2:0:0:0:
137,260,7308,1,2,2:0:0:0:
375,185,7543,5,2,2:0:0:0:
375,185,7660,1,2,2:0:0:0:
448,172,7894,1,2,2:0:0:0:
512,134,8129,1,2,2:0:0:0:
512,134,8246,1,2,2:0:0:0:
257,92,8598,6,0,P|255:111|254:133,2,41,2|2|2,2:0|2:0|1:2,2:0:0:0:
253,81,9691,5,0,2:0:0:0:
253,81,9769,2,0,P|256:122|259:168,1,61.499998123169,0|8,2:0|3:0,0:0:0:0:
278,306,10004,1,10,2:0:0:0:
251,364,10121,1,0,3:0:0:0:
181,384,10238,1,2,2:0:0:0:
437,165,10473,6,0,P|468:178|500:186,1,61.499998123169,6|0,1:2|0:0,0:0:0:0:
469,256,10707,2,0,P|438:243|406:235,1,61.499998123169,2|0,2:0|1:2,2:0:0:0:
487,128,10941,5,10,2:0:0:0:
487,128,11058,2,0,P|448:225|420:309,1,179.375001710653,2|8,1:2|2:0,2:0:0:0:
237,253,11410,6,0,B|285:222|349:251|330:362|391:391|453:364,1,269.06250256598,2|2,1:2|1:2,2:0:0:0:
504,313,11879,1,8,2:0:0:0:
190,195,12113,5,2,2:0:0:0:
118,178,12230,1,10,2:0:0:0:
59,223,12348,6,0,P|91:217|133:211,1,61.499998123169,2|0,1:2|0:0,0:0:0:0:
220,130,12582,2,0,P|252:136|294:142,1,61.499998123169,2|0,2:0|1:2,2:0:0:0:
506,169,12816,5,10,2:0:0:0:
506,169,12933,2,0,P|408:183|310:202,1,179.375001710653,2|8,1:2|2:0,2:0:0:0:
501,275,13285,6,0,B|519:217|469:158|386:216|330:153|354:79,1,269.06250256598,2|0,1:2|1:2,2:0:0:0:
402,36,13754,1,8,2:0:0:0:
57,221,13988,5,10,2:0:0:0:
63,147,14105,1,10,2:0:0:0:
49,78,14223,6,0,P|62:109|70:141,1,61.499998123169,6|0,1:2|0:0,0:0:0:0:
140,112,14457,2,0,P|127:81|119:49,1,61.499998123169,2|0,2:0|1:2,2:0:0:0:
12,129,14691,5,10,2:0:0:0:
12,129,14808,2,0,P|109:90|193:62,1,179.375001710653,2|8,1:2|2:0,2:0:0:0:
334,167,15160,6,0,B|312:171|296:192|296:192|248:151|235:68|272:13|272:13|284:26|302:32,1,269.06250256598,2|2,1:2|1:2,2:0:0:0:
366,7,15629,1,8,2:0:0:0:
495,257,15863,6,0,P|429:244|349:233,1,134.53125128299,2|0,2:0|0:0,2:0:0:0:
328,209,16098,6,0,P|337:245|344:278,1,61.499998123169,10|0,2:0|1:2,0:0:0:0:
258,222,16322,5,8,2:0:0:0:
258,222,16439,2,0,P|267:258|274:291,1,61.499998123169,2|0,1:2|2:0,2:0:0:0:
208,367,16673,5,2,1:2:0:0:
208,341,16790,1,8,3:0:0:0:
204,302,16907,1,0,1:2:0:0:
186,242,17024,2,0,P|160:237|122:233,1,61.499998123169,10|2,2:0|2:0,2:0:0:0:
109,55,17993,5,2,2:0:0:0:
36,47,18344,1,2,2:0:0:0:
109,55,18696,1,2,2:0:0:0:
36,47,19047,1,2,2:0:0:0:
109,55,19282,2,0,P|110:46|113:37,3,17.0833333333333,2|2|2|0,2:0|2:0|2:0|2:0,2:0:0:0:
380,120,19868,5,2,2:0:0:0:
453,112,20219,1,2,2:0:0:0:
380,120,20571,1,2,2:0:0:0:
453,112,20922,1,2,2:0:0:0:
380,120,21157,2,0,P|378:110|376:102,3,17.0833333333333,2|2|2|0,2:0|2:0|2:0|2:0,2:0:0:0:
182,234,21743,5,2,2:0:0:0:
109,226,22094,1,2,2:0:0:0:
182,234,22446,1,2,2:0:0:0:
109,226,22797,1,2,2:0:0:0:
182,234,23032,2,0,P|182:225|185:216,3,17.0833333333333,2|2|2|0,2:0|2:0|2:0|2:0,2:0:0:0:
306,298,23618,5,2,2:0:0:0:
319,335,23852,1,2,2:0:0:0:
301,346,24086,1,2,2:0:0:0:
298,337,24321,1,2,2:0:0:0:
322,263,24555,1,2,2:0:0:0:
335,226,24789,1,2,2:0:0:0:
317,215,25024,1,2,2:0:0:0:
314,224,25258,1,2,2:0:0:0:
36,47,25493,5,2,2:0:0:0:
109,55,25844,1,2,2:0:0:0:
36,47,26196,1,2,2:0:0:0:
109,55,26547,1,2,2:0:0:0:
36,47,26782,2,0,P|37:36|40:28,3,17.0833333333333,2|2|2|0,2:0|2:0|2:0|2:0,2:0:0:0:
453,112,27368,5,2,2:0:0:0:
380,120,27719,1,2,2:0:0:0:
453,112,28071,1,2,2:0:0:0:
380,120,28422,1,2,2:0:0:0:
452,112,28657,2,0,P|450:101|448:93,3,17.0833333333333,2|2|2|0,2:0|2:0|2:0|2:0,2:0:0:0:
109,226,29243,5,2,2:0:0:0:
182,234,29594,1,2,2:0:0:0:
109,226,29946,1,2,2:0:0:0:
182,234,30297,1,2,2:0:0:0:
109,226,30532,2,0,P|110:216|113:207,3,17.0833333333333,2|2|2|0,2:0|2:0|2:0|2:0,2:0:0:0:
306,298,31118,5,2,2:0:0:0:
379,290,31938,6,0,L|375:272,3,17.0833333333333,0|0|0|2,2:0|0:0|0:0|2:0,0:0:0:0:
306,298,32289,1,2,2:0:0:0:
264,359,32524,1,2,2:0:0:0:
0,213,32993,6,0,P|22:252|42:297,1,87.1250016617775,2|2,1:2|2:0,2:0:0:0:
107,257,33344,2,0,P|84:219|65:180,1,87.1250016617775,0|0,1:2|2:0,0:0:0:0:
90,113,33696,1,2,1:2:0:0:
17,365,34047,5,0,2:0:0:0:
512,154,34868,6,0,P|489:193|469:238,1,87.1250016617775,2|2,1:2|2:0,2:0:0:0:
404,199,35219,2,0,P|426:161|445:122,1,87.1250016617775,0|0,1:2|2:0,0:0:0:0:
422,53,35571,1,2,1:2:0:0:
495,306,35922,5,2,2:0:0:0:
498,383,36039,2,0,P|508:379|518:376,4,14.5208336102963,0|0|0|0|0,1:2|0:0|0:0|0:0|0:0,2:0:0:0:
426,360,36274,1,2,2:0:0:0:
421,347,36391,1,0,1:2:0:0:
416,334,36508,1,2,2:0:0:0:
411,321,36625,1,2,2:0:0:0:
373,259,36743,6,0,P|338:235|289:219,1,87.1250016617775,2|0,1:2|2:0,2:0:0:0:
263,152,37094,2,0,P|221:138|186:114,1,87.1250016617775,0|0,1:2|0:0,0:0:0:0:
152,45,37446,1,0,1:2:0:0:
399,332,37797,5,0,0:0:0:0:
76,297,38618,6,0,P|111:273|160:257,1,87.1250016617775,2|2,1:2|2:0,2:0:0:0:
186,190,38969,2,0,P|227:176|262:152,1,87.1250016617775,0|0,1:2|2:0,0:0:0:0:
297,83,39321,1,2,1:2:0:0:
495,103,39555,5,2,2:0:0:0:
486,23,39789,1,0,1:2:0:0:
412,9,40024,1,2,1:2:0:0:
110,194,40493,6,0,P|92:150|67:110,1,87.1250016617775,2|0,1:2|0:0,2:0:0:0:
4,149,40844,2,0,P|20:190|42:228,1,87.1250016617775,2|0,1:2|0:0,0:0:0:0:
19,297,41196,1,0,1:2:0:0:
98,45,41547,5,0,2:0:0:0:
406,281,42368,6,0,P|424:237|448:197,1,87.1250016617775,2|0,1:2|0:0,2:0:0:0:
512,236,42719,2,0,P|495:277|473:315,1,87.1250016617775,2|0,1:2|0:0,0:0:0:0:
497,384,43071,1,2,1:2:0:0:
419,131,43422,5,0,2:0:0:0:
491,102,43539,2,0,P|502:105|511:109,4,14.5208336102963,2|0|0|0|0,1:2|0:0|0:0|0:0|0:0,2:0:0:0:
442,46,43774,1,2,2:0:0:0:
435,39,43891,1,0,1:2:0:0:
428,32,44008,1,2,2:0:0:0:
421,25,44125,1,0,2:0:0:0:
358,74,44243,6,0,P|347:116|325:153,1,87.1250016617775,2|2,1:2|2:0,2:0:0:0:
265,203,44594,2,0,P|241:239|225:280,1,87.1250016617775,2|0,1:2|0:0,0:0:0:0:
242,357,44946,1,0,1:2:0:0:
340,1,45297,5,0,2:0:0:0:
243,371,46000,6,0,P|241:358|237:348,3,14.5208336102963,0|0|0|0,2:0|0:0|0:0|1:2,0:0:0:0:
175,238,47289,5,0,1:2:0:0:
33,32,47524,6,0,B|12:74|12:74|50:103,1,92.2499971847535,10|0,2:0|2:0,2:0:0:0:
320,171,47993,6,0,B|268:193|204:167|226:58|158:30|102:54,1,276.74999155426,6|0,1:2|2:0,2:0:0:0:
207,163,48461,6,0,P|239:138|269:120,1,71.7499978103638,10|0,2:0|2:0,2:0:0:0:
221,63,48696,2,0,P|188:87|158:105,1,71.7499978103638,0|0,1:2|2:0,2:0:0:0:
15,183,48930,6,0,P|74:187|156:197,1,122.999996246338,2|0,1:2|2:0,2:0:0:0:
494,82,49399,6,0,P|500:44|510:12,1,71.7499978103638,10|0,2:0|2:0,2:0:0:0:
439,0,49633,2,0,P|428:34|423:69,1,71.7499978103638,2|0,1:2|0:0,2:0:0:0:
308,192,49868,6,0,P|302:154|292:122,1,71.7499978103638,0|0,2:0|0:0,0:0:0:0:
363,110,50102,2,0,P|373:144|378:179,1,71.7499978103638,2|0,1:2|2:0,2:0:0:0:
494,302,50336,6,0,P|500:264|510:232,1,71.7499978103638,10|0,2:0|2:0,2:0:0:0:
439,220,50571,2,0,P|428:254|423:289,1,71.7499978103638,2|8,1:2|2:0,0:0:0:0:
230,384,50805,6,0,P|291:375|448:364,1,215.249993431091,2|0,1:2|0:0,2:0:0:0:
279,301,51274,2,0,B|265:259|265:259|307:237,1,92.2499971847535,8|0,2:0|2:0,2:0:0:0:
274,304,51743,6,0,P|263:273|249:221,1,71.7499978103638,2|0,1:2|2:0,2:0:0:0:
175,349,51977,5,2,2:0:0:0:
175,349,52094,2,0,P|180:316|194:264,1,71.7499978103638,2|8,2:0|2:0,2:0:0:0:
66,338,52328,5,2,2:0:0:0:
66,338,52446,2,0,P|87:312|125:274,1,71.7499978103638,2|0,1:2|2:0,2:0:0:0:
88,49,52680,6,0,B|54:37|54:37|42:71,1,71.7499978103638,2|0,1:2|0:0,2:0:0:0:
180,117,52914,2,0,B|191:83|191:83|157:71,1,71.7499978103638,2|0,2:0|0:0,0:0:0:0:
111,209,53149,2,0,B|144:220|144:220|156:186,1,71.7499978103638,10|0,2:0|2:0,2:0:0:0:
19,141,53383,2,0,B|7:174|7:174|41:186,1,71.7499978103638,2|0,1:2|0:0,2:0:0:0:
261,240,53618,6,0,P|297:224|343:207,1,71.7499978103638,0|8,0:0|2:0,0:0:0:0:
298,145,53852,2,0,P|264:158|231:172,1,71.7499978103638,2|0,1:2|2:0,2:0:0:0:
148,304,54086,6,0,P|111:288|65:271,1,71.7499978103638,10|0,2:0|2:0,2:0:0:0:
111,209,54321,2,0,P|144:222|177:236,1,71.7499978103638,2|8,1:2|2:0,0:0:0:0:
275,364,54555,6,0,B|264:335|279:310|296:303|296:303|342:286|414:256,1,184.499994369507,2|8,1:2|3:0,0:0:0:0:
431,195,54907,1,8,3:0:0:0:
493,245,55024,5,0,1:2:0:0:
490,264,55141,1,8,3:0:0:0:
444,321,55258,5,8,3:0:0:0:
447,330,55375,1,8,3:0:0:0:
393,381,55493,5,0,0:0:0:0:
393,381,55844,1,0,1:2:0:0:
393,381,56196,1,2,1:2:0:0:
345,321,56430,5,2,1:2:0:0:
345,321,56782,1,2,1:2:0:0:
345,321,57133,1,2,1:2:0:0:
271,297,57368,5,2,1:2:0:0:
271,297,57719,1,0,1:2:0:0:
271,297,58071,1,2,1:2:0:0:
195,308,58305,5,2,1:2:0:0:
195,308,58657,1,0,1:2:0:0:
195,308,59008,1,2,1:2:0:0:
121,287,59243,5,2,1:2:0:0:
121,287,59594,1,2,1:2:0:0:
121,287,59946,1,0,1:2:0:0:
101,212,60180,5,2,1:2:0:0:
101,212,60532,1,0,1:2:0:0:
101,212,60883,1,2,1:2:0:0:
137,146,61118,5,2,1:2:0:0:
60,350,62993,6,0,L|-5:364,2,61.499998123169,2|2|2,2:0|2:0|2:0,0:0:0:0:
133,363,64633,6,0,L|139:393,1,30.7499990615845,2|0,2:0|0:0,0:0:0:0:
179,304,65336,6,0,L|183:250,1,51.25
193,182,65688,1,0,2:0:0:0:
193,182,65805,1,2,2:0:0:0:
460,153,66727,6,0,B|436:182|436:182|382:169,1,76.8750029325486,6|0,1:2|2:0,2:0:0:0:
313,26,66961,2,0,B|337:-3|337:-3|391:10,1,76.8750029325486,2|0,2:0|1:2,0:0:0:0:
329,150,67195,6,0,B|294:136|294:136|289:80,1,76.8750029325486,10|0,2:0|1:2,2:0:0:0:
444,27,67430,2,0,B|478:40|478:40|483:96,1,76.8750029325486,2|8,2:0|2:0,2:0:0:0:
464,258,67664,6,0,P|426:252|385:247,1,76.8750029325486,2|8,1:2|2:0,2:0:0:0:
233,304,67898,2,0,P|271:298|312:293,1,76.8750029325486,2|0,2:0|1:2,0:0:0:0:
457,330,68133,6,0,P|419:324|378:319,1,76.8750029325486,10|0,2:0|1:2,2:0:0:0:
219,233,68367,2,0,P|257:227|298:222,1,76.8750029325486,2|0,2:0|2:0,0:0:0:0:
447,111,68602,6,0,P|420:273|405:387,1,276.74999155426,2|0,1:2|1:2,2:0:0:0:
145,296,69070,6,0,B|181:304|223:292|212:218|254:203|294:222,1,184.499994369507,10|0,2:0|2:0,0:0:0:0:
113,200,69422,1,8,2:0:0:0:
113,200,69539,2,0,B|168:186|230:205|215:316|278:340|338:310,1,276.74999155426,2|0,1:2|1:2,2:0:0:0:
500,109,70008,6,0,P|421:130|316:165,1,184.499994369507,10|0,2:0|1:2,2:0:0:0:
374,8,70359,1,8,2:0:0:0:
374,8,70477,2,0,P|405:121|455:273,1,276.74999155426,2|0,1:2|1:2,2:0:0:0:
275,340,70945,6,0,B|210:316|210:316|248:190,1,184.499994369507,10|0,2:0|2:0,2:0:0:0:
89,339,71297,1,8,2:0:0:0:
89,339,71414,2,0,B|179:370|179:370|248:199,1,276.74999155426,2|0,1:2|1:2,2:0:0:0:
300,13,71883,5,10,2:0:0:0:
300,13,72117,1,2,2:0:0:0:
95,205,72352,6,0,P|54:211|19:222,1,76.8750029325486,2|8,1:2|2:0,0:0:0:0:
7,149,72586,2,0,P|43:137|81:131,1,76.8750029325486,2|0,2:0|1:2,0:0:0:0:
213,16,72820,6,0,P|172:9|137:-1,1,76.8750029325486,10|0,2:0|1:2,2:0:0:0:
125,71,73055,2,0,P|161:81|199:87,1,76.8750029325486,2|8,2:0|2:0,0:0:0:0:
323,6,73289,6,0,P|330:48|337:87,1,76.8750029325486,2|0,1:2|1:2,0:0:0:0:
265,215,73523,2,0,P|271:175|278:139,1,76.8750029325486,10|8,1:2|1:2,0:0:0:0:
469,20,73758,6,0,P|334:50|190:85,1,276.74999155426,10|0,2:0|1:2,0:0:0:0:
0,134,74227,1,6,1:2:0:0:
213,384,74695,6,0,P|207:344|199:308,1,76.8750029325486,10|0,2:0|1:2,2:0:0:0:
265,215,74930,2,0,P|271:175|278:139,1,76.8750029325486,2|8,2:0|2:0,2:0:0:0:
203,0,75164,2,0,P|232:92|266:241,1,230.625008797646,2|0,1:2|1:2,0:0:0:0:
213,384,75633,6,0,P|207:344|199:308,1,76.8750029325486,10|0,2:0|1:2,2:0:0:0:
265,215,75867,2,0,P|271:175|278:139,1,76.8750029325486,2|8,2:0|2:0,2:0:0:0:
323,10,76102,1,2,1:2:0:0:
502,235,76453,5,0,1:2:0:0:
502,235,76570,2,0,B|447:221|385:240|400:351|337:375|277:345,1,276.74999155426,10|0,2:0|2:0,2:0:0:0:
470,331,77039,2,0,B|434:339|392:327|403:253|361:238|321:257,1,184.499994369507,2|0,1:2|0:0,2:0:0:0:
509,257,77391,5,0,1:2:0:0:
509,257,77508,2,0,B|457:233|392:241|388:353|322:366|268:326,1,276.74999155426,10|8,2:0|2:0,2:0:0:0:
460,345,77977,2,0,B|423:346|383:327|407:256|368:234|326:246,1,184.499994369507,6|0,1:2|2:0,2:0:0:0:
512,270,78328,5,0,1:2:0:0:
512,270,78445,2,0,B|465:238|400:234|376:344|309:345|262:296,1,276.74999155426,10|0,2:0|2:0,2:0:0:0:
449,349,78914,2,0,B|412:344|377:318|412:252|378:224|334:228,1,184.499994369507,2|2,1:2|1:2,2:0:0:0:
100,348,79383,6,0,B|60:372|60:372|16:357,1,92.2499971847535,10|0,2:0|1:2,2:0:0:0:
10,284,79617,2,0,B|49:259|49:259|93:274,1,92.2499971847535,2|0,2:0|1:2,2:0:0:0:
262,336,79852,6,0,P|283:333|308:331,1,25.625,10|0,2:0|0:0,2:0:0:0:
448,230,80086,2,0,P|468:231|494:235,1,25.625,10|0,2:0|0:0,2:0:0:0:
264,236,80320,6,0,P|276:251|291:273,1,25.625,10|0,2:0|0:0,2:0:0:0:
443,304,80555,2,0,P|452:323|461:346,1,25.625,10|0,2:0|0:0,2:0:0:0:
351,187,80789,6,0,P|343:205|332:229,1,25.625,10|0,2:0|0:0,2:0:0:0:
125,379,81141,5,0,1:2:0:0:
125,379,81258,2,0,B|-29:259|103:47|244:181|166:278,1,410,10|0,2:0|0:0,2:0:0:0:
21,47,81961,5,0,1:2:0:0:
21,47,82078,1,0,1:2:0:0:
21,47,82195,2,0,P|131:31|271:19,1,230.625008797646,10|2,2:0|2:0,2:0:0:0:
338,170,82664,2,0,P|279:176|261:90,1,153.750005865097,10|0,2:0|2:0,2:0:0:0:
330,0,83016,2,0,P|327:44|326:81,1,76.8750029325486,10|0,2:0|0:0,2:0:0:0:
271,375,83367,6,0,P|265:235|255:96,1,276.74999155426,14|0,2:0|2:0,2:0:0:0:
330,0,83836,2,0,P|327:44|326:81,1,76.8750029325486,2|0,1:2|0:0,0:0:0:0:
385,131,84070,1,8,2:0:0:0:
24,41,84305,6,0,B|34:11|34:11|80:14,1,76.8750029325486,2|8,1:2|2:0,0:0:0:0:
100,144,84539,2,0,B|69:150|69:150|48:109,1,76.8750029325486,2|8,1:2|2:0,2:0:0:0:
151,26,84773,2,0,B|171:49|171:49|146:87,1,76.8750029325486,2|0,2:0|0:0,0:0:0:0:
9,214,85008,6,0,P|49:219|90:225,1,76.8750029325486,10|0,2:0|2:0,2:0:0:0:
230,265,85242,2,0,P|270:260|311:254,1,76.8750029325486,2|0,2:0|1:2,0:0:0:0:
469,170,85477,6,0,B|478:92|478:92|441:157,1,153.75,2|0,1:2|2:0,2:0:0:0:
511,295,85945,6,0,B|499:277|495:258|495:258|405:219|283:156,1,276.74999155426,10|8,2:0|2:0,2:0:0:0:
465,166,86414,6,0,P|366:211|267:259,1,184.499994369507,2|0,1:2|2:0,2:0:0:0:
233,288,86766,1,2,2:0:0:0:
233,288,86883,1,8,2:0:0:0:
0,77,87117,6,0,B|60:48|123:75|93:187|155:216|214:189,1,276.74999155426,2|8,1:2|2:0,2:0:0:0:
285,79,87586,2,0,B|239:87|239:87|230:129,1,76.8750029325486,10|0,2:0|1:2,0:0:0:0:
371,119,87820,2,0,B|386:75|386:75|353:46,1,76.8750029325486,10|0,2:0|2:0,0:0:0:0:
293,173,88055,2,0,B|323:207|323:207|364:194,1,76.8750029325486,2|0,2:0|0:0,0:0:0:0:
512,212,88289,6,0,P|464:227|416:239,1,76.8750029325486,10|0,2:0|0:0,2:0:0:0:
303,329,88523,2,0,P|255:334|204:342,1,76.8750029325486,2|0,0:0|2:0,0:0:0:0:
337,108,88758,6,0,P|364:257|386:380,1,276.74999155426,10|0,2:0|2:0,2:0:0:0:
438,233,89227,6,0,P|444:195|451:157,1,76.8750029325486,2|0,1:2|2:0,2:0:0:0:
488,41,89461,1,2,2:0:0:0:
488,41,89578,1,0,2:0:0:0:
488,41,89695,1,10,2:0:0:0:
252,175,89930,6,0,P|176:160|153:157,1,76.8750029325486,2|2,2:0|1:2,0:0:0:0:
37,136,90164,1,2,1:2:0:0:
37,136,90281,2,0,P|74:129|112:121,1,76.8750029325486,10|2,2:0|2:0,2:0:0:0:
236,0,90516,5,2,1:2:0:0:
236,0,90633,1,10,2:0:0:0:
236,0,90750,1,2,2:0:0:0:
165,21,90867,2,0,P|155:86|126:303,1,276.74999155426,2|8,1:2|2:0,0:0:0:0:
11,346,91336,6,0,P|25:308|70:289,1,76.8750029325486,2|0,1:2|2:0,2:0:0:0:
206,232,91570,2,0,P|244:246|263:291,1,76.8750029325486,10|0,2:0|0:0,0:0:0:0:
326,381,91805,6,0,P|329:338|335:293,1,76.8750029325486,2|0,1:2|2:0,0:0:0:0:
399,189,92039,1,2,1:2:0:0:
399,189,92156,2,0,P|396:146|390:101,1,76.8750029325486,10|2,2:0|2:0,2:0:0:0:
216,226,92391,5,2,2:0:0:0:
216,226,92508,2,0,P|259:229|304:235,1,76.8750029325486,10|0,2:0|2:0,2:0:0:0:
409,299,92742,2,0,P|452:296|497:290,1,76.8750029325486,2|0,2:0|0:0,0:0:0:0:
320,384,92977,5,2,1:2:0:0:
141,277,93211,5,2,2:0:0:0:
141,277,93328,1,2,2:0:0:0:
141,277,93445,2,0,P|141:322|144:359,1,76.8750029325486,10|0,2:0|0:0,0:0:0:0:
68,356,93680,2,0,P|65:317|65:279,1,76.8750029325486,2|8,2:0|2:0,2:0:0:0:
135,169,93914,6,0,P|135:124|138:87,1,76.8750029325486,2|0,1:2|0:0,2:0:0:0:
62,90,94148,2,0,P|59:128|59:166,1,76.8750029325486,2|0,1:2|1:2,0:0:0:0:
203,223,94383,6,0,P|238:220|281:217,1,76.8750029325486,10|0,2:0|1:2,0:0:0:0:
422,225,94617,1,10,2:0:0:0:
100,248,95796,6,0,P|91:284|84:320,1,61.499998123169,8|8,3:0|3:0,0:0:0:0:
8,234,96139,5,8,3:0:0:0:
8,234,96254,2,0,B|48:220|98:237|87:324|136:342|182:319,1,215.249993431091,10|0,2:0|0:0,2:0:0:0:
441,297,96743,6,0,P|448:329|461:360,1,61.499998123169,6|0,1:2|0:0,0:0:0:0:
386,376,96977,2,0,P|378:343|365:312,1,61.499998123169,2|0,2:0|1:2,2:0:0:0:
500,315,97211,5,10,2:0:0:0:
500,315,97328,2,0,P|398:340|314:367,1,179.375001710653,2|8,1:2|2:0,2:0:0:0:
181,300,97680,6,0,P|79:274|-4:247,1,179.375001710653,2|0,1:2|2:0,2:0:0:0:
188,378,98032,1,2,1:2:0:0:
253,333,98149,1,8,2:0:0:0:
381,218,98383,5,2,2:0:0:0:
453,201,98500,1,10,2:0:0:0:
512,246,98618,6,0,P|480:240|438:234,1,61.499998123169,2|0,1:2|0:0,0:0:0:0:
351,153,98852,2,0,P|319:159|277:165,1,61.499998123169,2|0,2:0|1:2,2:0:0:0:
113,168,99086,5,10,2:0:0:0:
113,168,99203,2,0,B|150:155|190:170|180:239|219:253|257:240,1,179.375001710653,2|8,1:2|2:0,2:0:0:0:
79,269,99555,6,0,B|135:288|196:264|181:160|240:139|296:158,1,269.06250256598,2|0,1:2|1:2,2:0:0:0:
362,205,100024,1,8,2:0:0:0:
492,0,100258,5,10,2:0:0:0:
486,74,100375,1,10,2:0:0:0:
500,143,100493,6,0,P|487:112|479:80,1,61.499998123169,6|0,1:2|0:0,0:0:0:0:
409,109,100727,2,0,P|422:140|430:172,1,61.499998123169,2|0,2:0|1:2,2:0:0:0:
511,92,100961,5,10,2:0:0:0:
511,92,101078,2,0,P|414:131|330:159,1,179.375001710653,2|8,1:2|2:0,2:0:0:0:
189,54,101430,6,0,B|211:50|227:29|227:29|275:70|288:153|251:208|251:208|239:195|221:189,1,269.06250256598,2|2,1:2|1:2,2:0:0:0:
157,214,101899,1,8,2:0:0:0:
369,274,102133,5,2,2:0:0:0:
441,257,102250,1,8,2:0:0:0:
500,302,102368,6,0,P|468:296|426:290,1,61.499998123169,4|0,1:2|2:0,2:0:0:0:
339,209,102602,2,0,P|307:215|265:221,1,61.499998123169,2|0,2:0|1:2,0:0:0:0:
176,308,102836,5,10,2:0:0:0:
176,308,102953,2,0,P|98:293|-3:278,1,179.375001710653,2|8,2:0|2:0,0:0:0:0:
204,241,103305,5,2,1:2:0:0:
340,384,103539,1,2,1:2:0:0:
340,384,103657,1,2,1:2:0:0:
371,310,103774,5,10,2:0:0:0:
152,380,104008,1,2,1:2:0:0:
152,380,104125,1,10,2:0:0:0:
85,330,104243,6,0,P|54:317|22:309,1,61.499998123169,6|0,1:2|0:0,0:0:0:0:
53,239,104477,2,0,P|84:252|116:260,1,61.499998123169,2|0,2:0|1:2,2:0:0:0:
35,367,104711,5,10,2:0:0:0:
35,367,104828,2,0,P|74:270|102:186,1,179.375001710653,2|8,1:2|2:0,2:0:0:0:
114,6,105180,6,0,P|143:90|176:173,1,179.375001710653,2|0,1:2|2:0,2:0:0:0:
255,309,105532,1,2,1:2:0:0:
236,384,105649,1,8,2:0:0:0:
306,184,105883,5,2,2:0:0:0:
323,112,106000,1,10,2:0:0:0:
278,53,106118,6,0,P|284:85|290:127,1,61.499998123169,2|0,1:2|0:0,0:0:0:0:
371,214,106352,2,0,P|365:246|359:288,1,61.499998123169,2|0,2:0|1:2,2:0:0:0:
470,369,106586,5,10,2:0:0:0:
470,369,106703,2,0,P|457:280|440:192,1,179.375001710653,2|8,1:2|2:0,2:0:0:0:
494,10,107055,6,0,B|521:60|488:121|378:95|345:153|368:217,1,269.06250256598,2|0,1:2|1:2,2:0:0:0:
425,264,107524,1,8,2:0:0:0:
245,0,107758,5,10,2:0:0:0:
239,74,107875,1,10,2:0:0:0:
253,143,107993,6,0,P|240:112|232:80,1,61.499998123169,6|0,1:2|0:0,0:0:0:0:
162,109,108227,2,0,P|175:140|183:172,1,61.499998123169,2|0,2:0|1:2,2:0:0:0:
290,92,108461,5,10,2:0:0:0:
290,92,108578,2,0,P|193:131|109:159,1,179.375001710653,2|8,1:2|2:0,2:0:0:0:
0,44,108930,6,0,B|21:28|45:-6|45:-6|20:81|13:197,1,269.06250256598,2|2,1:2|1:2,2:0:0:0:
19,271,109399,1,8,2:0:0:0:
195,155,109633,6,0,P|262:161|342:177,1,134.53125128299,2|0,2:0|0:0,2:0:0:0:
372,153,109868,6,0,P|359:187|348:219,1,61.499998123169,10|0,2:0|0:0,2:0:0:0:
440,173,110102,5,8,2:0:0:0:
440,173,110219,2,0,P|427:207|416:239,1,61.499998123169,0|0,1:2|0:0,2:0:0:0:
342,374,110453,5,2,2:0:0:0:
336,348,110571,1,0,0:0:0:0:
324,311,110688,1,0,1:2:0:0:
294,256,110805,2,0,P|267:256|229:260,1,61.499998123169,10|0,2:0|0:0,0:0:0:0:
68,11,111743,6,0,B|95:4|124:14|118:57|144:70|170:64,2,123,2|0|0,1:2|1:2|1:2,0:0:0:0:
13,64,112680,1,2,3:0:0:0:
206,180,113383,5,2,1:2:0:0:
260,126,113618,2,0,P|269:58|280:-14,2,123,2|0|0,1:2|1:2|1:2,0:0:0:0:
287,197,114555,1,2,3:0:0:0:
478,123,115258,5,2,1:2:0:0:
435,57,115493,2,0,B|391:50|391:50|342:129,2,123,2|0|0,1:2|1:2|1:2,0:0:0:0:
495,6,116430,1,2,3:0:0:0:
395,195,116899,5,2,1:0:0:0:
431,265,117133,1,0,2:0:0:0:
470,335,117368,2,0,P|429:341|349:366,2,123,2|0|0,1:2|0:0|0:0,2:0:0:0:
508,269,118305,1,2,1:2:0:0:
259,374,118774,6,0,B|223:384|196:374|181:341|185:312|204:291|233:287|261:290|284:278|299:256|299:231|280:207,1,246,0|0,1:2|2:0,2:0:0:0:
232,163,119243,6,0,P|190:181|114:203,2,123,2|2|0,1:2|1:2|1:2,0:0:0:0:
291,114,120180,1,2,3:0:0:0:
366,350,120883,5,0,1:2:0:0:
430,308,121118,2,0,B|497:333|467:360|526:382,2,123,2|2|2,1:2|1:2|1:2,0:0:0:0:
376,250,122055,1,2,3:0:0:0:
118,338,122993,6,0,P|61:352|-1:370,2,123,2|2|0,1:2|1:2|1:2,2:0:0:0:
190,328,123930,1,2,3:0:0:0:
512,255,124750,5,8,2:0:0:0:
473,185,124868,2,0,B|390:215|424:279|351:327,1,184.499994369507,6|8,1:2|2:0,2:0:0:0:
221,384,125336,5,10,2:0:0:0:
221,384,125453,1,8,2:0:0:0:
221,384,125571,2,0,P|177:376|142:373,1,61.499998123169,8|8,2:0|2:0,0:0:0:0:
3,325,125805,5,2,1:2:0:0:
3,325,125922,1,8,2:0:0:0:
3,325,126039,2,0,P|33:321|63:315,1,61.499998123169,8|8,2:0|2:0,0:0:0:0:
223,202,126274,6,0,P|179:194|144:191,1,76.8750029325486,2|8,1:2|2:0,0:0:0:0:
312,257,126508,2,0,P|350:253|387:246,1,76.8750029325486,10|8,2:0|2:0,0:0:0:0:
293,86,126743,6,0,P|274:191|249:360,1,276.74999155426,6|0,1:2|2:0,2:0:0:0:
238,183,127211,6,0,P|274:187|309:196,1,71.7499978103638,10|0,2:0|2:0,2:0:0:0:
298,267,127446,2,0,P|262:264|228:256,1,71.7499978103638,0|0,1:2|2:0,2:0:0:0:
82,136,127680,6,0,P|19:149|7:226,1,122.999996246338,2|0,1:2|2:0,2:0:0:0:
140,367,128149,6,0,P|115:355|52:342,1,71.7499978103638,10|0,2:0|2:0,2:0:0:0:
168,303,128383,2,0,P|143:291|80:278,1,71.7499978103638,2|0,1:2|0:0,2:0:0:0:
264,164,128618,6,0,P|239:176|176:189,1,71.7499978103638,0|0,2:0|0:0,0:0:0:0:
292,228,128852,2,0,P|267:240|204:253,1,71.7499978103638,2|0,1:2|2:0,2:0:0:0:
383,380,129086,6,0,P|358:368|295:355,1,71.7499978103638,10|0,2:0|2:0,2:0:0:0:
411,316,129321,2,0,P|386:304|323:291,1,71.7499978103638,2|8,1:2|2:0,0:0:0:0:
512,168,129555,6,0,P|501:213|480:388,1,215.249993431091,2|0,1:2|0:0,2:0:0:0:
398,194,130024,2,0,B|385:149|385:149|432:132,1,92.2499971847535,8|0,2:0|2:0,2:0:0:0:
359,131,130493,6,0,P|408:132|448:127,1,71.7499978103638,2|0,1:2|2:0,2:0:0:0:
246,124,130727,5,2,2:0:0:0:
246,124,130844,2,0,P|279:159|311:184,1,71.7499978103638,2|8,2:0|2:0,2:0:0:0:
171,39,131078,5,2,2:0:0:0:
171,39,131196,2,0,P|169:87|174:127,1,71.7499978103638,2|0,1:2|2:0,2:0:0:0:
28,296,131430,6,0,B|-7:288|-7:288|0:253,1,71.7499978103638,2|0,1:2|0:0,2:0:0:0:
141,285,131664,2,0,B|132:319|132:319|97:312,1,71.7499978103638,2|0,2:0|0:0,0:0:0:0:
130,170,131899,2,0,B|163:177|163:177|156:212,1,71.7499978103638,10|0,2:0|2:0,2:0:0:0:
16,181,132133,2,0,B|22:146|22:146|58:153,1,71.7499978103638,2|0,1:2|0:0,2:0:0:0:
241,147,132368,6,0,P|282:153|317:164,1,71.7499978103638,0|8,0:0|2:0,0:0:0:0:
329,91,132602,2,0,P|293:79|255:73,1,71.7499978103638,2|0,1:2|2:0,2:0:0:0:
354,228,132836,6,0,P|395:221|430:211,1,71.7499978103638,10|0,2:0|2:0,2:0:0:0:
442,283,133071,2,0,P|406:293|368:299,1,71.7499978103638,2|8,1:2|2:0,0:0:0:0:
198,380,133305,6,0,B|173:329|202:268|309:282|337:221|310:161,1,276.74999155426,2|0,1:2|0:0,2:0:0:0:
224,17,133774,2,0,B|273:1|273:1|240:136,1,184.499994369507,2|0,1:2|2:0,2:0:0:0:
177,174,134243,5,0,1:2:0:0:
177,174,134594,1,0,1:2:0:0:
177,174,134946,1,2,1:2:0:0:
103,156,135180,5,2,1:2:0:0:
103,156,135532,1,2,1:2:0:0:
103,156,135883,1,2,1:2:0:0:
34,189,136118,5,2,1:2:0:0:
34,189,136469,1,0,1:2:0:0:
34,189,136821,1,2,1:2:0:0:
3,258,137055,5,2,1:2:0:0:
3,258,137407,1,0,1:2:0:0:
3,258,137758,1,2,1:2:0:0:
23,332,137993,5,2,1:2:0:0:
23,332,138344,1,2,1:2:0:0:
23,332,138696,1,0,1:2:0:0:
85,375,138930,5,2,1:2:0:0:
85,375,139282,1,0,1:2:0:0:
85,375,139633,1,2,1:2:0:0:
160,368,139868,5,2,1:2:0:0:
463,384,140805,5,2,2:0:0:0:
421,78,141743,6,0,P|456:59|497:40,1,76.8750029325486,2|0,1:2|0:0,0:0:0:0:
348,78,142211,6,0,P|348:38|353:-7,1,76.8750029325486,0|0,1:2|2:0,2:0:0:0:
311,142,142680,6,0,P|275:120|240:95,1,76.8750029325486,0|0,1:2|2:0,2:0:0:0:
348,205,143149,6,0,P|321:217|286:235,1,38.4375014662743,0|0,1:2|0:0,2:0:0:0:
280,293,143383,1,0,1:2:0:0:
0,61,145493,6,0,P|12:96|43:118,1,76.8750029325486,6|0,1:2|2:0,2:0:0:0:
226,102,145727,2,0,P|194:80|156:81,1,76.8750029325486,2|0,2:0|1:2,0:0:0:0:
19,202,145961,6,0,P|56:200|87:178,1,76.8750029325486,10|0,2:0|1:2,2:0:0:0:
127,0,146196,2,0,P|96:23|86:59,1,76.8750029325486,2|8,2:0|2:0,2:0:0:0:
171,187,146430,6,0,P|209:181|250:176,1,76.8750029325486,2|8,1:2|2:0,2:0:0:0:
402,233,146664,2,0,P|364:227|323:222,1,76.8750029325486,2|0,2:0|1:2,0:0:0:0:
178,259,146899,6,0,P|216:253|257:248,1,76.8750029325486,10|0,2:0|1:2,2:0:0:0:
416,162,147133,2,0,P|378:156|337:151,1,76.8750029325486,2|0,2:0|2:0,0:0:0:0:
188,51,147368,6,0,P|209:187|225:327,1,276.74999155426,2|0,1:2|1:2,2:0:0:0:
459,325,147836,6,0,P|374:287|311:340,1,184.499994369507,10|0,2:0|0:0,0:0:0:0:
317,191,148188,1,8,0:0:0:0:
317,191,148305,2,0,P|341:316|215:316,1,276.74999155426,2|0,1:2|1:2,2:0:0:0:
23,206,148774,6,0,B|57:194|100:201|97:276|141:287|178:264,1,184.499994369507,10|0,2:0|1:2,2:0:0:0:
0,304,149125,1,8,2:0:0:0:
0,304,149243,2,0,B|56:312|115:286|89:177|149:147|212:171,1,276.74999155426,2|0,1:2|1:2,2:0:0:0:
332,7,149711,6,0,P|305:101|289:193,1,184.499994369507,10|0,2:0|2:0,0:0:0:0:
447,136,150063,1,8,0:0:0:0:
447,136,150180,2,0,P|307:96|171:72,1,276.74999155426,2|0,1:2|1:2,2:0:0:0:
0,66,150649,5,10,2:0:0:0:
0,66,150883,1,2,2:0:0:0:
93,352,151118,6,0,P|51:358|16:369,1,76.8750029325486,2|8,1:2|2:0,0:0:0:0:
4,295,151352,2,0,P|41:282|79:277,1,76.8750029325486,2|0,2:0|1:2,0:0:0:0:
213,156,151586,6,0,P|171:149|136:138,1,76.8750029325486,10|0,2:0|1:2,2:0:0:0:
124,212,151821,2,0,P|161:222|199:228,1,76.8750029325486,2|8,2:0|2:0,0:0:0:0:
333,29,152055,6,0,P|340:71|347:110,1,76.8750029325486,2|0,1:2|1:2,0:0:0:0:
275,238,152289,2,0,P|281:198|288:162,1,76.8750029325486,10|8,1:2|1:2,0:0:0:0:
403,0,152524,6,0,P|427:147|452:283,1,276.74999155426,10|0,2:0|1:2,0:0:0:0:
512,384,152993,1,6,1:2:0:0:
60,274,153461,6,0,P|100:268|136:260,1,76.8750029325486,10|0,2:0|1:2,2:0:0:0:
229,326,153696,2,0,P|269:332|305:339,1,76.8750029325486,2|8,2:0|2:0,2:0:0:0:
444,264,153930,2,0,P|352:293|203:327,1,230.625008797646,2|0,1:2|0:0,0:0:0:0:
60,274,154399,6,0,P|100:268|136:260,1,76.8750029325486,10|0,2:0|1:2,2:0:0:0:
229,326,154633,2,0,P|269:332|305:339,1,76.8750029325486,2|8,2:0|2:0,2:0:0:0:
434,384,154868,1,2,1:2:0:0:
502,141,155219,5,0,1:2:0:0:
502,141,155336,2,0,B|447:155|385:136|400:25|337:1|277:31,1,276.74999155426,10|0,2:0|2:0,2:0:0:0:
470,45,155805,2,0,B|434:37|392:49|403:123|361:138|321:119,1,184.499994369507,2|0,1:2|0:0,2:0:0:0:
509,119,156157,5,0,1:2:0:0:
509,119,156274,2,0,B|457:143|392:135|388:23|322:10|268:50,1,276.74999155426,10|8,2:0|2:0,2:0:0:0:
460,31,156743,2,0,B|423:30|383:49|407:120|368:142|326:130,1,184.499994369507,6|0,1:2|2:0,2:0:0:0:
512,106,157094,5,0,1:2:0:0:
512,106,157211,2,0,B|465:138|400:142|376:32|309:31|262:80,1,276.74999155426,10|0,2:0|2:0,2:0:0:0:
449,27,157680,2,0,B|412:32|377:58|412:124|378:152|334:148,1,184.499994369507,2|2,1:2|1:2,2:0:0:0:
95,18,158149,6,0,B|51:34|4:38,1,92.2499971847535,10|0,2:0|1:2,2:0:0:0:
22,117,158383,2,0,B|65:100|112:96,1,92.2499971847535,2|0,2:0|1:2,2:0:0:0:
508,90,158618,6,0,L|513:62,1,25.625,10|0,2:0|0:0,2:0:0:0:
332,154,158852,2,0,L|327:126,1,25.625,10|0,2:0|0:0,2:0:0:0:
487,185,159086,6,0,L|492:157,1,25.625,10|0,2:0|0:0,2:0:0:0:
352,250,159321,2,0,L|347:222,1,25.625,10|0,2:0|0:0,2:0:0:0:
313,60,159438,1,8,2:0:0:0:
313,60,159555,2,0,L|308:32,1,25.625,10|0,2:0|0:0,2:0:0:0:
499,312,159907,5,0,1:2:0:0:
499,312,160024,2,0,P|340:333|73:379,1,410,10|0,2:0|2:0,2:0:0:0:
21,47,160727,5,0,0:0:0:0:
21,47,160844,1,0,1:2:0:0:
21,47,160961,2,0,P|92:134|241:82,1,230.625008797646,10|2,2:0|2:0,2:0:0:0:
363,0,161430,2,0,P|289:11|269:115,1,153.750005865097,10|0,2:0|2:0,2:0:0:0:
272,232,161782,2,0,P|270:193|268:155,1,76.8750029325486,8|0,2:0|0:0,2:0:0:0:
242,354,162133,6,0,P|248:214|258:75,1,276.74999155426,6|0,1:2|2:0,2:0:0:0:
375,10,162602,2,0,B|361:52|361:52|318:60,1,76.8750029325486,2|0,1:2|0:0,0:0:0:0:
182,86,162836,1,8,2:0:0:0:
503,113,163071,6,0,B|528:131|528:131|512:174,1,76.8750029325486,2|8,1:2|2:0,0:0:0:0:
381,154,163305,2,0,B|384:122|384:122|429:114,1,76.8750029325486,2|8,1:2|2:0,2:0:0:0:
479,237,163539,2,0,B|451:249|451:249|422:214,1,76.8750029325486,2|0,2:0|0:0,0:0:0:0:
304,15,163774,6,0,P|299:55|293:96,1,76.8750029325486,10|0,2:0|2:0,2:0:0:0:
253,236,164008,2,0,P|258:276|264:317,1,76.8750029325486,2|0,2:0|0:0,0:0:0:0:
65,241,164243,6,0,B|71:206|62:165|62:165|77:205|102:230,1,153.75,2|0,1:2|2:0,2:0:0:0:
33,384,164711,6,0,B|59:366|44:319|84:310|84:310|171:282|253:228,1,276.74999155426,10|8,2:0|2:0,2:0:0:0:
85,237,165180,6,0,P|174:271|273:328,1,184.499994369507,2|0,1:2|2:0,2:0:0:0:
309,374,165532,1,2,2:0:0:0:
309,374,165649,1,8,2:0:0:0:
512,61,165883,6,0,B|452:32|389:59|419:171|357:200|298:173,1,276.74999155426,2|8,1:2|2:0,2:0:0:0:
227,63,166352,2,0,B|273:71|273:71|282:113,1,76.8750029325486,10|0,2:0|1:2,0:0:0:0:
141,103,166586,2,0,B|126:59|126:59|159:30,1,76.8750029325486,10|0,2:0|2:0,0:0:0:0:
219,157,166821,2,0,B|189:191|189:191|148:178,1,76.8750029325486,2|0,1:2|0:0,0:0:0:0:
0,196,167055,6,0,P|48:211|96:223,1,76.8750029325486,10|0,2:0|1:2,2:0:0:0:
209,313,167289,2,0,P|257:318|308:326,1,76.8750029325486,2|0,2:0|1:2,0:0:0:0:
175,94,167524,6,0,P|148:243|126:366,1,276.74999155426,10|0,2:0|2:0,2:0:0:0:
78,222,167993,6,0,P|72:184|65:146,1,76.8750029325486,2|0,1:2|2:0,2:0:0:0:
28,30,168227,1,2,2:0:0:0:
28,30,168344,1,0,2:0:0:0:
28,30,168461,1,10,2:0:0:0:
232,195,168696,6,0,P|308:180|331:177,1,76.8750029325486,2|2,2:0|1:2,0:0:0:0:
447,156,168930,1,2,1:2:0:0:
447,156,169047,2,0,P|410:149|372:141,1,76.8750029325486,10|2,2:0|2:0,2:0:0:0:
248,20,169282,5,2,1:2:0:0:
248,20,169399,1,10,2:0:0:0:
248,20,169516,1,2,2:0:0:0:
319,41,169633,2,0,P|329:106|358:323,1,276.74999155426,2|8,1:2|2:0,0:0:0:0:
232,195,170102,6,0,P|269:186|307:180,1,76.8750029325486,2|0,2:0|2:0,2:0:0:0:
446,156,170336,2,0,P|409:148|371:140,1,76.8750029325486,10|0,2:0|0:0,0:0:0:0:
220,35,170571,6,0,P|217:78|211:123,1,76.8750029325486,2|0,1:2|2:0,0:0:0:0:
147,227,170805,1,2,1:2:0:0:
147,227,170922,2,0,P|150:270|156:315,1,76.8750029325486,10|2,2:0|2:0,2:0:0:0:
44,128,171157,1,2,2:0:0:0:
44,128,171274,6,0,P|87:131|132:137,1,76.8750029325486,10|0,2:0|2:0,2:0:0:0:
237,201,171508,2,0,P|280:198|325:192,1,76.8750029325486,2|0,2:0|0:0,0:0:0:0:
450,150,171743,5,2,1:2:0:0:
511,355,171977,5,2,2:0:0:0:
511,355,172094,1,2,2:0:0:0:
511,355,172211,2,0,P|497:317|452:298,1,76.8750029325486,10|0,2:0|0:0,0:0:0:0:
316,241,172446,2,0,P|278:255|259:300,1,76.8750029325486,2|8,2:0|2:0,2:0:0:0:
512,242,172680,6,0,P|475:225|429:243,1,76.8750029325486,2|0,1:2|0:0,2:0:0:0:
333,312,172914,2,0,P|316:348|334:394,1,76.8750029325486,2|0,1:2|1:2,0:0:0:0:
382,194,173149,6,0,P|379:159|376:116,1,76.8750029325486,10|0,0:0|1:2,0:0:0:0:
278,7,173383,1,10,2:0:0:0:
456,379,174789,5,2,1:2:0:0:
456,379,174907,1,0,1:2:0:0:
456,379,175024,2,0,P|413:367|363:356,1,76.875,10|0,2:0|2:0,2:0:0:0:
512,323,175493,6,0,P|448:341|373:356,1,138.37499577713,6|0,1:2|1:2,2:0:0:0:
302,369,175961,1,10,2:0:0:0:
210,262,176196,6,0,P|146:244|71:229,1,138.37499577713,2|8,1:2|2:0,2:0:0:0:
0,216,176664,1,0,1:2:0:0:
190,351,176899,6,0,P|212:346|241:335,1,46.1249985923767,10|0,2:0|0:0,0:0:0:0:
296,293,177133,2,0,P|318:298|340:305,1,46.1249985923767,2|8,2:0|2:0,0:0:0:0:
405,348,177368,1,2,1:2:0:0:
405,348,177485,1,0,0:0:0:0:
495,247,177719,5,0,1:2:0:0:
495,247,177836,2,0,P|430:261|368:284,1,92.2499971847535,8|2,2:0|1:2,2:0:0:0:
491,24,178422,5,8,2:0:0:0:
491,24,178539,1,2,1:2:0:0:
364,210,178774,6,0,P|342:205|313:194,1,46.1249985923767,8|0,2:0|2:0,2:0:0:0:
256,158,179008,2,0,P|234:163|205:174,1,46.1249985923767,2|0,1:2|0:0,0:0:0:0:
156,225,179243,1,0,1:2:0:0:
156,225,179360,1,8,2:0:0:0:
51,128,179594,5,0,1:2:0:0:
51,128,179711,2,0,P|115:142|177:165,1,92.2499971847535,10|2,2:0|1:2,2:0:0:0:
0,0,180297,5,8,2:0:0:0:
0,0,180414,1,0,1:2:0:0:
185,88,180649,6,0,P|208:83|242:80,1,46.1249985923767,10|0,2:0|0:0,0:0:0:0:
290,31,180883,2,0,P|313:36|347:39,1,46.1249985923767,2|8,1:2|2:0,2:0:0:0:
404,3,181118,1,0,1:2:0:0:
404,3,181235,1,8,2:0:0:0:
512,93,181469,5,0,1:2:0:0:
512,93,181586,2,0,P|453:85|389:74,1,92.2499971847535,8|2,2:0|1:2,0:0:0:0:
223,0,182055,5,8,2:0:0:0:
20,91,182289,5,2,1:2:0:0:
20,91,182407,1,0,1:2:0:0:
20,91,182524,2,0,P|39:136|42:151,1,46.1249985923767,10|0,2:0|0:0,2:0:0:0:
102,170,182758,2,0,P|83:215|75:227,1,46.1249985923767,2|0,1:2|0:0,0:0:0:0:
5,288,182993,6,0,B|56:299|40:370|103:386,1,138.37499577713,2|0,1:2|1:2,2:0:0:0:
170,365,183461,1,10,2:0:0:0:
310,317,183696,6,0,B|361:306|345:235|408:219,1,138.37499577713,2|8,1:2|2:0,0:0:0:0:
475,240,184164,1,0,1:2:0:0:
227,302,184399,6,0,P|220:275|202:232,1,46.1249985923767,10|0,2:0|2:0,2:0:0:0:
269,208,184633,2,0,P|276:181|294:138,1,46.1249985923767,2|8,1:2|2:0,0:0:0:0:
219,118,184868,6,0,P|152:149|68:172,1,138.37499577713,0|0,1:2|1:2,2:0:0:0:
14,153,185336,1,10,2:0:0:0:
196,20,185571,6,0,P|263:51|347:74,1,138.37499577713,2|8,1:2|2:0,0:0:0:0:
401,55,186039,1,0,1:2:0:0:
498,231,186274,6,0,P|461:227|417:228,1,46.1249985923767,10|0,2:0|0:0,2:0:0:0:
394,175,186508,2,0,P|357:179|313:178,1,46.1249985923767,2|8,1:2|2:0,2:0:0:0:
286,228,186743,1,0,1:2:0:0:
286,228,186860,1,8,2:0:0:0:
214,95,187094,5,0,1:2:0:0:
214,95,187211,2,0,P|262:88|325:77,1,92.2499971847535,8|2,2:0|1:2,2:0:0:0:
193,211,187680,5,0,1:0:0:0:
193,211,187797,2,0,P|162:206|123:199,1,46.1249985923767,8|0,2:0|1:2,0:0:0:0:
11,108,188149,5,8,2:0:0:0:
11,108,188266,1,0,0:0:0:0:
11,108,188383,1,2,1:2:0:0:
2,302,188618,5,10,1:2:0:0:
75,315,188774,5,10,2:0:0:0:
139,353,188930,5,8,2:0:0:0:
209,381,189086,5,10,1:2:0:0:
282,368,189243,5,10,2:0:0:0:
346,330,189399,5,10,2:0:0:0:
253,171,189555,5,2,1:2:0:0:
212,384,189907,5,2,1:2:0:0:
212,384,190024,2,0,P|220:316|234:210,1,138.37499577713,10|0,2:0|2:0,2:0:0:0:
228,48,190483,6,0,P|236:108|243:170,2,123,2|0|0,1:2|1:2|1:2,2:0:0:0:
159,11,191420,1,8,2:0:0:0:
159,11,191772,1,8,2:0:0:0:
159,11,192123,1,10,2:0:0:0:
371,107,192358,6,0,P|426:103|515:98,2,123,2|0|0,1:2|1:2|1:2,2:0:0:0:
308,57,193295,1,8,2:0:0:0:
308,57,193647,1,8,2:0:0:0:
308,57,193998,1,10,2:0:0:0:
129,174,194233,6,0,P|74:170|-15:165,2,123,2|0|0,1:2|1:2|1:2,2:0:0:0:
172,241,195170,1,10,2:0:0:0:
172,241,195522,1,8,2:0:0:0:
172,241,195873,1,8,2:0:0:0:
414,199,196102,6,0,B|480:239|444:276|521:323,2,153.75,2|0|0,1:2|1:2|1:2,2:0:0:0:
204,21,197039,6,0,P|251:27|320:32,1,115.312504398823,10|0,2:0|2:0,2:0:0:0:
305,106,197273,6,0,P|256:109|208:115,1,92.2499971847535,8|0,3:0|2:0,2:0:0:0:
226,185,197508,6,0,P|254:188|294:191,1,69.1874978885651,8|0,3:0|2:0,2:0:0:0:
256,273,197742,5,2,1:2:0:0:
256,273,197859,1,0,0:0:0:0:
256,273,197977,1,14,0:0:0:0:
437,124,198445,6,0,P|457:93|489:55,1,76.8750029325486,8|0,1:2|2:0,2:0:0:0:
422,14,198680,2,0,P|401:44|369:82,1,76.8750029325486,8|0,2:0|2:0,2:0:0:0:
449,133,198914,6,0,P|466:92|497:41,1,92.2499971847535,8|0,1:2|2:0,2:0:0:0:
411,6,199148,2,0,P|393:46|362:97,1,92.2499971847535,8|0,2:0|2:0,2:0:0:0:
466,139,199383,6,0,P|477:89|502:23,1,107.624996715546,8|0,1:2|2:0,2:0:0:0:
394,0,199617,2,0,P|382:49|357:115,1,107.624996715546,8|0,2:0|2:0,2:0:0:0:
327,300,199852,5,12,2:0:0:0:
327,300,200086,1,0,1:2:0:0:
94,132,200320,6,0,P|60:107|39:61,1,76.8750029325486,8|0,2:0|2:0,2:0:0:0:
98,29,200555,2,0,P|131:53|152:99,1,76.8750029325486,8|0,2:0|2:0,2:0:0:0:
77,138,200789,6,0,P|45:99|35:39,1,92.2499971847535,8|0,2:0|2:0,2:0:0:0:
114,22,201023,2,0,P|144:61|155:119,1,92.2499971847535,8|0,2:0|2:0,2:0:0:0:
56,141,201258,6,0,P|33:87|38:18,1,107.624996715546,8|0,2:0|2:0,2:0:0:0:
134,20,201492,2,0,P|156:73|151:142,1,107.624996715546,8|0,2:0|2:0,2:0:0:0:
185,300,201727,5,10,2:0:0:0:
185,300,201961,1,10,2:0:0:0:
421,339,202195,6,0,P|461:335|507:331,1,76.8750029325486,8|2,1:2|2:0,0:0:0:0:
414,268,202430,2,0,P|454:264|500:260,1,76.8750029325486,10|0,2:0|2:0,2:0:0:0:
286,127,202664,6,0,P|334:131|389:136,1,92.2499971847535,10|2,1:2|2:0,0:0:0:0:
279,198,202898,2,0,P|323:202|373:206,1,92.2499971847535,0|0,1:0|2:0,0:0:0:0:
140,345,203133,6,0,P|194:340|257:334,1,107.624996715546,10|0,2:0|0:0,2:0:0:0:
133,274,203367,2,0,P|194:268|264:262,1,107.624996715546,8|0,2:0|2:0,0:0:0:0:
57,206,203602,5,10,2:0:0:0:
57,206,203836,1,8,2:0:0:0:
103,6,204070,6,0,P|63:10|17:14,1,76.8750029325486,10|0,2:0|2:0,2:0:0:0:
110,77,204305,2,0,P|70:81|24:85,1,76.8750029325486,10|0,2:0|2:0,2:0:0:0:
238,218,204539,6,0,P|190:214|135:209,1,92.2499971847535,10|0,1:2|0:0,2:0:0:0:
245,147,204773,2,0,P|201:143|151:139,1,92.2499971847535,8|0,2:0|2:0,0:0:0:0:
384,0,205008,6,0,P|330:5|267:11,1,107.624996715546,8|0,2:0|2:0,2:0:0:0:
391,71,205242,2,0,P|330:77|260:83,1,107.624996715546,8|0,2:0|2:0,2:0:0:0:
465,108,205477,5,10,2:0:0:0:
438,245,205711,1,0,1:2:0:0:
412,384,205945,1,0,1:2:0:0:
407,168,206180,5,10,2:0:0:0:
474,318,206414,1,0,1:2:0:0:
465,108,206648,5,10,2:0:0:0:
334,213,206883,6,0,P|289:196|258:177,1,76.8750029325486,0|0,1:2|1:2,0:0:0:0:
210,124,207117,1,0,2:0:0:0:
110,289,207352,6,0,B|200:353|311:306|268:118|365:62|464:123,1,461.250017595292,6|0,1:2|2:2,2:2:0:0:
465,123,208992,5,0,0:0:0:0:
465,123,209109,1,0,0:0:0:0:
465,123,209227,2,0,B|366:62|269:118|312:305|201:353|110:288,1,461.250017595292,6|0,1:2|2:2,2:2:0:0:
261,205,213211,6,0,B|282:232|282:232|371:199|465:196|465:196|475:163,1,256.25,8|0,2:0|0:0,2:0:0:0:
476,291,213562,6,0,B|460:270|460:270|394:295|323:296|323:296|316:321,1,192.187507331372,8|0,2:0|0:0,2:0:0:0:
411,373,213914,5,10,2:0:0:0:
364,121,214148,6,0,B|355:74|355:74|360:121,1,96.09375,10|0,2:0|0:0,0:0:0:0:
375,189,214383,1,8,2:0:0:0:
379,209,214500,1,8,2:0:0:0:
381,219,214617,1,10,2:0:0:0:
66,336,214852,6,0,B|55:392|55:392|61:336,1,115.312504398823,2|0,1:2|2:0,2:0:0:0:
74,266,215086,1,10,2:0:0:0:
79,236,215203,1,8,2:0:0:0:
91,165,215320,1,10,2:0:0:0:
407,22,215555,6,0,P|384:195|367:341,1,322.874990146637,2|0,1:2|0:0,2:0:0:0:
432,384,216023,6,0,B|464:351|464:351|440:312,1,92.2499971847535,10|0,2:0|2:0,2:0:0:0:
299,295,216258,2,0,B|266:327|266:327|290:366,1,92.2499971847535,8|0,2:0|2:0,2:0:0:0:
380,222,216492,5,2,1:2:0:0:
387,173,216609,1,8,2:0:0:0:
396,137,216727,1,2,1:2:0:0:
396,137,216844,2,0,L|445:138,2,35.8749989051819,0|0|10,2:0|0:0|1:2,0:0:0:0:
253,8,217195,5,2,1:2:0:0:
265,57,217312,1,8,3:0:0:0:
274,93,217430,1,2,2:0:0:0:
283,121,217547,1,0,1:2:0:0:
245,185,217664,6,0,B|165:209|197:258|109:298,1,164,10|0,2:0|2:0,2:0:0:0:
345,161,218133,2,0,B|425:184|393:234|480:274,1,164,8|2,2:0|1:2,2:0:0:0:
260,384,218602,5,8,2:0:0:0:
260,384,218836,1,0,1:2:0:0:
237,178,219070,6,0,P|273:179|315:210,1,76.8750029325486,10|0,2:0|2:0,2:0:0:0:
282,269,219305,2,0,P|246:268|204:237,1,76.8750029325486,10|0,2:0|2:0,2:0:0:0:
349,139,219539,6,0,P|374:167|379:222,1,92.2499971847535,10|0,2:0|2:0,2:0:0:0:
170,308,219773,2,0,P|144:279|140:225,1,92.2499971847535,10|0,2:0|2:0,2:0:0:0:
458,206,220008,6,0,P|453:247|410:295,1,107.624996715546,10|0,2:0|2:0,2:0:0:0:
60,242,220242,2,0,P|64:200|108:153,1,107.624996715546,10|0,2:0|2:0,2:0:0:0:
260,64,220477,5,10,2:0:0:0:
260,64,220711,1,8,2:0:0:0:
210,245,220945,6,0,P|242:267|282:268,1,76.8750029325486,10|0,2:0|2:0,2:0:0:0:
307,200,221180,2,0,P|275:178|236:177,1,76.8750029325486,10|0,2:0|2:0,2:0:0:0:
139,227,221414,6,0,P|141:272|169:307,1,92.2499971847535,8|0,2:0|0:0,2:0:0:0:
380,219,221648,2,0,P|378:174|350:139,1,92.2499971847535,10|0,2:0|2:0,2:0:0:0:
107,153,221883,6,0,P|69:189|60:242,1,107.624996715546,10|0,2:0|2:0,2:0:0:0:
410,294,222117,2,0,P|448:258|458:206,1,107.624996715546,10|0,2:0|2:0,2:0:0:0:
191,66,222352,6,0,P|141:71|80:76,1,92.2499971847535,10|0,2:0|2:0,2:0:0:0:
134,227,222586,2,0,P|179:223|225:218,1,92.2499971847535,10|0,2:0|0:0,2:0:0:0:
355,64,222820,6,0,P|405:69|466:74,1,107.624996715546,8|0,2:0|0:0,0:0:0:0:
408,289,223055,2,0,P|354:284|300:279,1,107.624996715546,10|0,2:0|2:0,2:0:0:0:
144,71,223289,5,8,2:0:0:0:
75,277,223523,6,0,L|29:268,3,47.8333318735759,2|0|0|0,1:2|0:0|1:2|1:2,0:0:0:0:
293,119,223992,5,10,2:0:0:0:
27,209,225398,5,2,1:2:0:0:
27,209,225516,1,0,1:2:0:0:
57,276,225633,2,0,P|47:330|38:372,1,92.2499971847535,10|0,2:0|0:0,2:0:0:0:
128,245,226102,6,0,P|202:223|308:194,1,164,6|0,1:2|2:0,2:0:0:0:
512,0,226570,6,0,P|468:5|408:11,1,82,10|0,2:0|1:2,2:0:0:0:
345,126,226805,2,0,P|301:121|241:115,1,82,2|0,2:0|1:2,2:0:0:0:
15,139,227039,2,0,P|138:126|261:112,1,246,2|0,1:2|1:2,0:0:0:0:
512,0,227508,6,0,P|468:5|408:11,1,82,10|0,2:0|1:2,2:0:0:0:
345,126,227742,2,0,P|301:121|241:115,1,82,2|8,2:0|2:0,0:0:0:0:
90,44,227977,1,2,1:2:0:0:
21,237,228328,5,0,1:2:0:0:
21,237,228445,2,0,B|74:206|144:237|128:355|206:379|272:340,1,307.5,10|0,2:0|1:2,2:0:0:0:
56,332,228914,2,0,B|92:352|139:331|128:252|181:235|225:262,1,205,14|2,2:0|1:2,2:0:0:0:
9,257,229266,5,2,1:2:0:0:
9,257,229383,2,0,B|56:218|131:236|135:354|216:365|274:314,1,307.5,10|0,2:0|2:0,2:0:0:0:
60,344,229852,2,0,B|99:357|142:328|117:253|166:227|215:246,1,205,6|2,1:2|1:2,2:0:0:0:
0,272,230203,5,2,2:0:0:0:
0,272,230320,2,0,B|40:225|116:230|141:346|223:342|271:283,1,307.5,10|0,2:0|2:0,2:0:0:0:
66,349,230789,2,0,B|107:356|144:320|107:249|151:216|202:225,1,205,14|2,2:0|1:2,2:0:0:0:
371,363,231258,6,0,P|424:376|469:369,1,102.5,10|0,2:0|0:0,0:0:0:0:
473,291,231492,2,0,P|419:277|374:284,1,102.5,2|0,1:2|2:0,2:0:0:0:
58,340,231727,6,0,P|62:315|64:285,1,28.1875008602143,10|0,2:0|0:0,0:0:0:0:
187,135,231961,2,0,P|187:120|186:106,1,28.1875008602143,2|0,1:2|0:0,0:0:0:0:
115,148,232078,5,0,1:2:0:0:
130,215,232195,1,2,1:2:0:0:
142,257,232312,1,0,1:2:0:0:
151,290,232430,1,10,2:0:0:0:
43,151,232664,6,0,P|42:165|41:180,1,28.1875008602143,2|0,1:2|0:0,2:0:0:0:
214,332,232898,2,0,P|215:346|215:361,1,28.1875008602143,2|0,2:0|0:0,0:0:0:0:
308,379,233016,5,0,1:2:0:0:
308,379,233133,2,0,B|458:261|329:53|191:184|267:280,1,394.625012043,10|0,2:0|0:0,2:0:0:0:
260,267,233602,6,0,P|278:253|295:247,4,27.3333333333333,10|0|8|0|8,1:2|0:0|0:0|0:0|0:0,0:0:0:0:
142,370,233953,5,0,1:2:0:0:
133,375,234070,2,10,P|122:248|104:109,1,246,10|0,2:0|2:0,2:0:0:0:
272,30,234539,2,0,P|252:112|181:124,1,164,10|0,2:0|2:0,2:0:0:0:
61,41,234891,2,0,P|111:57|169:65,1,82,2|0,1:2|0:0,0:0:0:0:
486,104,235242,6,0,P|350:113|171:128,1,307.5,10|0,2:0|2:0,2:0:0:0:
61,41,235711,2,0,P|111:57|169:65,1,82,2|0,1:2|2:0,2:0:0:0:
200,13,235945,1,8,2:0:0:0:
18,345,236180,6,0,B|29:377|29:377|79:374,1,82,2|8,2:0|2:0,0:0:0:0:
100,234,236414,2,0,B|67:228|67:228|44:272,1,82,2|8,1:2|2:0,2:0:0:0:
155,361,236648,2,0,B|176:336|176:336|150:295,1,82,2|0,2:0|2:0,2:0:0:0:
8,163,236883,6,0,P|48:158|89:152,1,82,8|0,2:0|0:0,0:0:0:0:
217,90,237117,2,0,P|261:95|306:102,1,82,2|8,2:0|2:0,0:0:0:0:
484,210,237352,6,0,B|493:132|493:132|456:197,1,153.75,2|0,1:2|2:0,2:0:0:0:
510,338,237820,6,0,B|498:320|494:301|494:301|389:258|251:182,1,307.5,10|0,2:0|2:0,2:0:0:0:
471,205,238289,6,0,P|367:251|264:301,1,205,2|0,1:2|2:0,2:0:0:0:
221,336,238641,1,2,2:0:0:0:
221,336,238758,1,8,2:0:0:0:
7,160,238992,6,0,B|35:139|58:96|58:96|24:205|32:328,1,307.5,2|0,2:0|0:0,2:0:0:0:
169,139,239461,2,0,B|123:147|123:147|114:189,1,82,2|8,1:2|2:0,2:0:0:0:
255,179,239695,2,0,B|270:135|270:135|237:106,1,82,10|0,2:0|2:0,2:0:0:0:
177,233,239930,2,0,B|207:267|207:267|248:254,1,82,2|0,2:0|1:2,0:0:0:0:
512,207,240164,6,0,P|464:222|416:234,1,82,10|0,2:0|2:0,2:0:0:0:
302,332,240398,2,0,P|254:337|203:345,1,82,2|0,1:2|2:0,0:0:0:0:
330,81,240633,6,0,P|364:256|385:383,1,307.5,10|0,2:0|0:0,2:0:0:0:
437,234,241102,6,0,P|443:192|451:150,1,82,2|0,1:2|2:0,2:0:0:0:
487,26,241336,1,2,2:0:0:0:
487,26,241453,1,2,2:0:0:0:
487,26,241570,1,10,2:0:0:0:
260,182,241805,6,0,P|184:167|161:164,1,82,2|10,2:0|2:0,0:0:0:0:
24,135,242039,1,2,1:2:0:0:
24,135,242156,2,0,P|63:127|104:118,1,82,10|0,2:0|0:0,0:0:0:0:
235,0,242391,5,2,2:0:0:0:
235,0,242508,1,10,2:0:0:0:
235,0,242625,1,0,2:0:0:0:
159,20,242742,2,0,P|148:92|116:332,1,307.5,2|8,2:0|2:0,2:0:0:0:
0,344,243211,6,0,P|14:306|59:287,1,82,2|0,2:0|2:0,0:0:0:0:
206,234,243445,2,0,P|244:248|263:293,1,82,10|0,2:0|0:0,2:0:0:0:
344,381,243680,6,0,P|347:338|353:293,1,82,2|8,2:0|2:0,0:0:0:0:
421,178,243914,1,2,1:2:0:0:
421,178,244031,2,0,P|418:135|412:90,1,82,8|0,2:0|2:0,0:0:0:0:
224,223,244266,5,2,2:0:0:0:
224,223,244383,2,0,P|267:226|312:232,1,82,10|2,2:0|2:0,2:0:0:0:
427,299,244617,2,0,P|470:296|515:290,1,82,2|8,2:0|2:0,0:0:0:0:
339,377,244852,5,0,1:2:0:0:
56,194,245086,5,2,1:2:0:0:
56,194,245203,1,2,2:0:0:0:
56,194,245320,2,0,P|69:232|103:256,1,82,10|0,2:0|2:0,2:0:0:0:
302,238,245555,2,0,P|268:214|226:215,1,82,2|0,1:2|1:2,0:0:0:0:
77,347,245789,6,0,P|117:345|151:321,1,82,10|0,2:0|1:2,2:0:0:0:
194,127,246023,2,0,P|161:152|150:191,1,82,2|0,1:2|1:2,0:0:0:0:
228,372,246258,6,0,P|240:331|226:293,1,82,0|2,1:2|3:2,0:0:0:0:
90,127,246492,1,10,2:0:0:0:
481,257,247898,5,2,1:2:0:0:
481,257,248016,1,2,1:2:0:0:
481,257,248133,2,0,P|472:295|467:334,1,76.875,0|0,1:2|2:0,2:0:0:0:
354,352,248602,6,0,P|338:319|328:284,1,71.7499978103638,6|0,1:2|0:0,0:0:0:0:
259,316,248836,2,0,P|274:349|283:385,1,71.7499978103638,2|0,2:0|1:2,2:0:0:0:
399,290,249070,5,10,2:0:0:0:
399,290,249187,2,0,P|293:337|202:370,1,205,2|8,1:2|2:0,2:0:0:0:
370,222,249539,6,0,P|274:258|180:300,1,205,2|0,1:2|2:0,2:0:0:0:
54,365,249891,1,2,1:2:0:0:
0,310,250008,1,8,2:0:0:0:
81,151,250242,5,2,2:0:0:0:
84,79,250359,1,10,2:0:0:0:
88,10,250477,6,0,P|82:42|76:84,1,71.7499978103638,2|0,1:2|0:0,0:0:0:0:
0,170,250711,2,0,P|6:202|12:244,1,71.7499978103638,2|0,2:0|1:2,2:0:0:0:
125,363,250945,5,10,2:0:0:0:
125,363,251062,2,0,B|167:378|214:360|202:280|247:264|292:279,1,205,2|8,1:2|2:0,2:0:0:0:
83,252,251414,6,0,B|147:229|218:257|201:378|269:402|334:380,1,307.5,2|0,1:2|1:2,2:0:0:0:
393,333,251883,1,8,2:0:0:0:
504,38,252117,5,10,2:0:0:0:
451,90,252234,1,10,2:0:0:0:
419,156,252352,6,0,P|429:120|445:88,1,71.7499978103638,6|0,1:2|0:0,0:0:0:0:
370,68,252586,2,0,P|359:102|343:134,1,71.7499978103638,2|0,2:0|1:2,2:0:0:0:
494,149,252820,5,10,2:0:0:0:
494,149,252937,2,0,P|387:114|299:79,1,205,2|8,1:2|2:0,2:0:0:0:
512,240,253289,6,0,P|369:183|223:136,1,307.5,2|2,1:2|1:2,2:0:0:0:
150,115,253758,1,8,2:0:0:0:
134,359,253992,5,2,2:0:0:0:
71,321,254109,1,8,2:0:0:0:
0,323,254227,6,0,P|32:317|74:311,1,71.7499978103638,2|8,1:2|2:0,2:0:0:0:
177,242,254461,2,0,P|209:248|251:254,1,71.7499978103638,2|0,2:0|0:0,0:0:0:0:
472,345,254695,5,10,2:0:0:0:
472,345,254812,2,0,P|378:363|256:381,1,205,2|8,1:2|2:0,2:0:0:0:
104,250,255164,5,10,2:0:0:0:
293,83,255398,1,2,2:0:0:0:
293,83,255516,1,10,2:0:0:0:
214,55,255633,5,10,2:0:0:0:
242,304,255867,1,2,1:2:0:0:
242,304,255984,1,2,1:2:0:0:
317,288,256102,6,0,P|353:292|388:302,1,71.7499978103638,6|0,1:2|0:0,0:0:0:0:
396,228,256336,2,0,P|358:221|324:211,1,71.7499978103638,2|0,2:0|1:2,2:0:0:0:
338,358,256570,5,10,2:0:0:0:
338,358,256687,2,0,P|355:246|376:153,1,205,2|8,1:2|2:0,2:0:0:0:
253,0,257039,6,0,P|274:100|290:201,1,205,2|0,1:2|2:0,2:0:0:0:
261,346,257391,1,2,1:2:0:0:
196,384,257508,1,8,2:0:0:0:
74,171,257742,5,2,2:0:0:0:
57,99,257859,1,10,2:0:0:0:
77,32,257977,6,0,P|71:64|65:106,1,71.7499978103638,2|0,1:2|0:0,0:0:0:0:
4,193,258211,2,0,P|10:225|16:267,1,71.7499978103638,2|0,2:0|1:2,2:0:0:0:
119,384,258445,5,10,2:0:0:0:
119,384,258562,2,0,P|135:274|155:165,1,205,2|8,1:2|2:0,2:0:0:0:
272,298,258914,6,0,B|238:330|238:330|139:280|26:287|26:287|7:250,1,307.5,2|0,1:2|1:2,2:0:0:0:
0,172,259383,1,8,2:0:0:0:
141,0,259617,5,10,2:0:0:0:
147,74,259734,1,10,2:0:0:0:
130,142,259852,6,0,P|144:108|152:73,1,71.7499978103638,6|0,1:2|0:0,0:0:0:0:
227,101,260086,2,0,P|212:134|204:169,1,71.7499978103638,2|0,2:0|1:2,2:0:0:0:
81,90,260320,5,10,2:0:0:0:
81,90,260437,2,0,P|189:133|282:164,1,205,2|8,1:2|2:0,2:0:0:0:
450,140,260789,6,0,B|427:130|415:103|415:103|352:135|317:222|344:291|344:291|360:280|381:278,1,307.5,2|10,1:2|2:0,0:0:0:0:
453,302,261258,1,8,1:2:0:0:
163,202,261492,6,0,P|101:225|32:237,1,107.624996715546,2|0,2:0|0:0,0:0:0:0:
41,239,261727,6,0,B|79:218|128:239|117:318|159:339|203:323,1,205,10|0,2:0|0:0,2:0:0:0:
203,323,262078,1,10,2:0:0:0:
291,293,262430,6,0,B|330:284|330:284|294:303,1,82,10|0,2:0|2:0,2:0:0:0:
34,253,262664,6,0,B|69:226|120:238|123:319|169:331|209:308,1,205,10|0,2:0|0:0,2:0:0:0:
209,308,263016,1,10,2:0:0:0:
292,262,263367,6,0,B|329:246|329:246|297:271,1,82,10|0,2:0|2:0,2:0:0:0:
31,269,263602,6,0,B|60:236|113:239|130:318|177:322|213:292,1,205,10|0,2:0|0:0,2:0:0:0:
212,292,263953,1,10,2:0:0:0:
269,220,264305,6,0,B|303:198|303:198|276:228,1,82,10|0,2:0|0:0,2:0:0:0:
30,285,264539,6,0,B|54:248|106:241|136:316|183:312|214:276,1,205,10|0,2:0|0:0,2:0:0:0:
213,276,264891,1,10,2:0:0:0:
512,222,265242,6,0,P|499:299|490:392,1,164,10|0,2:0|2:0,2:0:0:0:
